<?xml version="1.0" standalone="no"?>
<!DOCTYPE svg PUBLIC "-//W3C//DTD SVG 1.1//EN" "http://www.w3.org/Graphics/SVG/1.1/DTD/svg11.dtd" >
<svg xmlns="http://www.w3.org/2000/svg" xmlns:xlink="http://www.w3.org/1999/xlink" version="1.1">
<metadata>
Created by FontForge 20190801 at Thu Jul 22 16:47:27 2021
 By www-data
Copyright 2019 The Manrope Project Authors (https://github.com/sharanda/manrope)
</metadata>
<defs>
<font id="ManropeLight" horiz-adv-x="1167" >
  <font-face 
    font-family="ManropeLight"
    font-weight="300"
    font-stretch="normal"
    units-per-em="2000"
    panose-1="0 0 0 0 0 0 0 0 0 0"
    ascent="1600"
    descent="-400"
    x-height="1080"
    cap-height="1440"
    bbox="-381 -530 2520 2179.63"
    underline-thickness="50"
    underline-position="-125"
    unicode-range="U+000D-FB02"
  />
<missing-glyph horiz-adv-x="1480" 
d="M200 0v114h1080v-114h-1080zM200 144v80h1080v-80h-1080zM200 260v74h1080v-74h-1080zM200 374v70h1080v-70h-1080zM200 490v66h1080v-66h-1080zM200 606v60h1080v-60h-1080zM200 720v56h1080v-56h-1080zM200 838v48h1080v-48h-1080zM200 952v44h1080v-44h-1080z
M200 1066v42h1080v-42h-1080zM200 1184v36h1080v-36h-1080zM200 1298v32h1080v-32h-1080zM200 1414v26h1080v-26h-1080z" />
    <glyph glyph-name="parenleft_c_parenright.liga" unicode="&#x28;c&#x29;" horiz-adv-x="1751" 
d="M876 -32q-148 0 -278 56t-228.5 154t-154 228t-55.5 278q0 149 55.5 278.5t154 227.5t228.5 154t278 56t278 -56t228 -154t153.5 -227.5t55.5 -278.5q0 -148 -55.5 -278t-153.5 -228t-228 -154t-278 -56zM882 264q-88 0 -160 31.5t-126 97.5q-52 66 -70 143t-18 151
q2 77 20.5 152.5t67.5 138.5q54 66 127 97.5t164 31.5q54 0 101.5 -11.5t93.5 -39.5q47 -28 82.5 -71t51.5 -98l-102 -32q-14 32 -37.5 61.5t-54.5 50.5q-29 21 -65 30.5t-74 9.5q-60 0 -112 -24.5t-88 -70.5q-35 -45 -48.5 -105t-13.5 -118q0 -65 15.5 -125.5t46.5 -104.5
q34 -46 86 -70t113 -24q80 0 143 39q30 20 51 47.5t36 61.5l104 -32q-23 -57 -57.5 -96t-67.5 -62q-45 -29 -95.5 -44t-113.5 -15zM876 84q124 0 232 46.5t190.5 129t129 192t46.5 234.5q0 124 -46.5 232t-129 190.5t-190.5 129t-232 46.5q-125 0 -234.5 -46.5t-192 -129
t-129 -190.5t-46.5 -232q0 -125 46.5 -234.5t129 -192t192 -129t234.5 -46.5z" />
    <glyph glyph-name="space_less_three_space.liga" unicode="&#x20;&#x3c;&#x33;&#x20;" horiz-adv-x="2338" 
d="M1170 -30q-49 0 -79 33l-427 450q-67 72 -90 160.5t-8 176t62 159.5t121 116.5t167 44.5q127 0 254 -100q61 52 125 76t125 24q96 0 170 -45t121 -118t61 -160.5t-9 -175t-91 -158.5l-427 -450q-29 -33 -75 -33zM1170 75l427 450q61 65 72.5 147.5t-17.5 158t-89.5 125
t-142.5 49.5q-60 0 -124 -33.5t-126 -102.5q-135 136 -254 136q-83 0 -142.5 -50t-87.5 -126.5t-16 -158t72 -145.5z" />
    <glyph glyph-name="prnleft_grtr_prnright.liga" unicode="&#x28;&#x3e;&#x29;" horiz-adv-x="2300" 
d="M1024 1030l372 -310l-372 -310v620zM1153 -154q-183 0 -342 67.5t-279.5 188t-188 279.5t-67.5 342q0 181 67.5 339t188 277.5t279.5 187t342 67.5q181 0 339 -67.5t277.5 -187t187 -277.5t67.5 -339q0 -183 -67.5 -342t-187 -279.5t-277.5 -188t-339 -67.5zM1150 -270
q205 0 384.5 77t315.5 213t213 315.5t77 384.5t-77 384.5t-213 315.5t-315.5 213t-384.5 77t-384.5 -77t-315.5 -213t-213 -315.5t-77 -384.5t77 -384.5t213 -315.5t315.5 -213t384.5 -77z" />
    <glyph glyph-name="f_f" unicode="ff" horiz-adv-x="1291" 
d="M252 0v1181q0 42 4.5 80t19 72t41.5 64q28 30 62.5 46t73.5 21.5t82 5.5h139v-100h-129q-89 0 -133.5 -43t-44.5 -142v-1185h-115zM60 975v105h614v-105h-614zM849 0v1181q0 42 4.5 80t19 72t41.5 64q28 30 62.5 46t73.5 21.5t82 5.5h139v-100h-129q-89 0 -133.5 -43
t-44.5 -142v-1185h-115zM657 975v105h614v-105h-614z" />
    <glyph glyph-name="f_f_l" unicode="ffl" horiz-adv-x="1802" 
d="M1235 975v105h310v-105h-310zM849 0v1181q0 42 4.5 80t19 72t41.5 64q28 30 62.5 46t73.5 21.5t82 5.5h139v-100h-129q-89 0 -133.5 -43t-44.5 -142v-1185h-115zM657 975v105h614v-105h-614zM1527 0v1470h115v-1470h-115zM252 0v1181q0 42 4.5 80t19 72t41.5 64
q28 30 62.5 46t73.5 21.5t82 5.5h139v-100h-129q-89 0 -133.5 -43t-44.5 -142v-1185h-115zM60 975v105h614v-105h-614z" />
    <glyph glyph-name="t_t.liga" unicode="tt" horiz-adv-x="1439" 
d="M713 0q-86 -19 -170 -14.5t-149.5 38t-98.5 103.5q-27 57 -30 115t-3 133v1005h116v-1003q0 -68 1.5 -112.5t20.5 -81.5q36 -69 114 -83.5t199 4.5v-104zM20 975v105h693v-105h-693zM1373 0q-86 -19 -170 -14.5t-149.5 38t-98.5 103.5q-27 57 -30 115t-3 133v1005h116
v-1003q0 -68 1.5 -112.5t20.5 -81.5q36 -69 114 -83.5t199 4.5v-104zM680 975v105h693v-105h-693z" />
    <glyph glyph-name="fi" unicode="fi" horiz-adv-x="1159" 
d="M252 0v1181q0 42 4.5 80t19 72t41.5 64q28 30 62.5 46t73.5 21.5t82 5.5h139v-100h-129q-89 0 -133.5 -43t-44.5 -142v-1185h-115zM60 975v105h614v-105h-614zM884 1298v147h115v-147h-115zM884 0v1080h115v-1080h-115z" />
    <glyph glyph-name="fl" unicode="fl" horiz-adv-x="1205" 
d="M638 975v105h310v-105h-310zM252 0v1181q0 42 4.5 80t19 72t41.5 64q28 30 62.5 46t73.5 21.5t82 5.5h139v-100h-129q-89 0 -133.5 -43t-44.5 -142v-1185h-115zM60 975v105h614v-105h-614zM930 0v1470h115v-1470h-115z" />
    <glyph glyph-name="hyphen_hyphen.liga" unicode="&#x2d;&#x2d;" horiz-adv-x="1080" 
d="M120 578v105h840v-105h-840z" />
    <glyph glyph-name="hyphen_greater.liga" unicode="&#x2d;&#x3e;" horiz-adv-x="1995" 
d="M280 578v105h1248l-346 346l67 67l466 -466l-466 -466l-67 67l347 347h-1249z" />
    <glyph glyph-name="less_hyphen.liga" unicode="&#x3c;&#x2d;" horiz-adv-x="1995" 
d="M1715 578h-1249l347 -347l-67 -67l-466 466l466 466l67 -67l-346 -346h1248v-105z" />
    <glyph glyph-name=".notdef" horiz-adv-x="1480" 
d="M200 0v114h1080v-114h-1080zM200 144v80h1080v-80h-1080zM200 260v74h1080v-74h-1080zM200 374v70h1080v-70h-1080zM200 490v66h1080v-66h-1080zM200 606v60h1080v-60h-1080zM200 720v56h1080v-56h-1080zM200 838v48h1080v-48h-1080zM200 952v44h1080v-44h-1080z
M200 1066v42h1080v-42h-1080zM200 1184v36h1080v-36h-1080zM200 1298v32h1080v-32h-1080zM200 1414v26h1080v-26h-1080z" />
    <glyph glyph-name=".null" horiz-adv-x="0" 
 />
    <glyph glyph-name="nonmarkingreturn" horiz-adv-x="666" 
 />
    <glyph glyph-name="CR" unicode="&#xd;" horiz-adv-x="1200" 
 />
    <glyph glyph-name="space" unicode=" " horiz-adv-x="400" 
 />
    <glyph glyph-name="exclam" unicode="!" horiz-adv-x="595" 
d="M240 0v147h115v-147h-115zM240 360v1080h115v-1080h-115z" />
    <glyph glyph-name="quotedbl" unicode="&#x22;" horiz-adv-x="734" 
d="M120 1080v360h115v-360h-115zM419 1080v360h115v-360h-115z" />
    <glyph glyph-name="numbersign" unicode="#" horiz-adv-x="1833" 
d="M423 0l118 448h-421l30 113h423l92 349h-421l30 112h422l111 418h117l-112 -418h364l111 418h117l-112 -418h421l-29 -112h-422l-94 -349h421l-29 -113h-422l-120 -448h-115l118 448h-363l-120 -448h-115zM688 561h364l93 349h-363z" />
    <glyph glyph-name="dollar" unicode="$" horiz-adv-x="1152" 
d="M521 -197v225h115v-225h-115zM521 1413v227h115v-227h-115zM601 -30q-141 0 -253.5 49t-186 139.5t-98.5 213.5l112 20q35 -143 150 -226.5t278 -83.5q169 0 271.5 83t102.5 218q0 101 -59.5 161.5t-202.5 104.5l-311 96q-287 90 -287 336q0 116 57.5 203t160 136.5
t237.5 49.5q137 -1 244.5 -52.5t176.5 -145.5t89 -223l-113 -21q-14 98 -68 172t-138.5 115.5t-189.5 41.5q-98 1 -174.5 -34t-120.5 -96.5t-44 -141.5q0 -87 61 -146.5t193 -100.5l281 -85q169 -52 244.5 -138.5t75.5 -231.5q0 -125 -60.5 -217.5t-170 -144t-257.5 -51.5z
" />
    <glyph glyph-name="percent" unicode="%" horiz-adv-x="1803" 
d="M260 0l-80 80l1363 1360l80 -79zM1323 -30q-99 0 -180.5 48.5t-130.5 130t-49 181.5q0 98 50 180t132 131t178 49q99 0 181 -48.5t130.5 -130t48.5 -181.5t-48.5 -181.5t-130.5 -130t-181 -48.5zM1323 78q69 0 126 34.5t91.5 92t34.5 125.5t-34.5 125.5t-91.5 92
t-126 34.5q-68 0 -125 -34.5t-91.5 -92t-34.5 -125.5t34.5 -125.5t91.5 -92t125 -34.5zM480 750q-99 0 -181 48.5t-130.5 130t-48.5 181.5q0 98 50 180t132 131t178 49q99 0 180.5 -48.5t130.5 -130t49 -181.5t-49 -181.5t-130.5 -130t-180.5 -48.5zM480 858
q68 0 125.5 34.5t92 92t34.5 125.5t-34.5 125.5t-92 92t-125.5 34.5t-125 -34.5t-92 -92t-35 -125.5t35 -125.5t92 -92t125 -34.5z" />
    <glyph glyph-name="ampersand" unicode="&#x26;" horiz-adv-x="1291" 
d="M599 -30q-121 0 -222 34.5t-170 107.5q-52 56 -78 126.5t-29 148.5q-1 74 21 147.5t71 131.5q32 40 73 66t84 44q-80 82 -122 150t-42 168q0 107 52.5 196.5t146.5 133.5q51 25 105 35t107 10q77 0 152 -20t129 -63q36 -27 64.5 -64t45.5 -77l-110 -39q-24 57 -77 95
q-41 30 -93 43t-105 13q-92 0 -169 -37q-63 -32 -95.5 -89.5t-32.5 -133.5q0 -65 20.5 -107.5t63.5 -93.5q23 -25 50.5 -49.5t55.5 -50.5l486 -453q5 30 7 58t2 56l-2 222h114v-207q0 -88 -6.5 -138t-16.5 -82l187 -174l-77 -83l-165 156q-28 -41 -74.5 -76.5t-92.5 -56.5
q-58 -28 -124.5 -38t-133.5 -10zM597 83q66 0 118.5 8.5t99.5 34.5q58 34 84 61.5t40 47.5l-497 454q-46 -14 -87.5 -38.5t-71.5 -59.5q-33 -40 -48 -92t-14 -108q1 -57 19 -107.5t53 -89.5q51 -57 134.5 -84t169.5 -27z" />
    <glyph glyph-name="quotesingle" unicode="'" horiz-adv-x="395" 
d="M120 1080v360h115v-360h-115z" />
    <glyph glyph-name="parenleft" unicode="(" horiz-adv-x="834" 
d="M660 -351q-117 134 -202.5 298.5t-132 346t-45.5 366.5q-1 185 45.5 366.5t132 346t202.5 298.5l86 -68q-116 -136 -195.5 -290t-121 -319t-41.5 -334q0 -166 42 -333t122 -322t194 -287z" />
    <glyph glyph-name="parenright" unicode=")" horiz-adv-x="834" 
d="M174 -351l-86 69q114 132 194 287t122 322t42 333q0 169 -41.5 334t-121 319t-195.5 290l86 68q117 -134 202.5 -298.5t132 -346t45.5 -366.5q1 -185 -45.5 -366.5t-132 -346t-202.5 -298.5z" />
    <glyph glyph-name="asterisk" unicode="*" horiz-adv-x="855" 
d="M243 797l-89 65l159 213l-253 79l34 105l251 -85l-3 266h110l-3 -266l252 85l34 -105l-254 -79l158 -213l-89 -65l-153 216z" />
    <glyph glyph-name="plus" unicode="+" horiz-adv-x="1157" 
d="M526 262v406h-406v105h406v405h105v-405h406v-105h-406v-406h-105z" />
    <glyph glyph-name="comma" unicode="," horiz-adv-x="505" 
d="M120 -193l8 62q37 -2 52 16.5t17.5 49t0.5 65.5h-78v195h145v-245q0 -79 -41 -118t-104 -25z" />
    <glyph glyph-name="hyphen" unicode="-" horiz-adv-x="840" 
d="M120 578v105h600v-105h-600z" />
    <glyph glyph-name="period" unicode="." horiz-adv-x="473" 
d="M164 0v145h145v-145h-145z" />
    <glyph glyph-name="slash" unicode="/" horiz-adv-x="744" 
d="M504 1440h120l-384 -1440h-120z" />
    <glyph glyph-name="zero" unicode="0" horiz-adv-x="1188" 
d="M594 -30q-127 0 -229.5 61t-163.5 163.5t-61 229.5v592q0 127 61 229.5t163.5 163.5t229.5 61t230 -61t163.5 -163.5t60.5 -229.5v-592q0 -127 -60.5 -229.5t-163.5 -163.5t-230 -61zM594 83q93 0 169.5 45.5t122.5 122.5t46 170v599q0 92 -46 169t-122.5 122.5
t-169.5 45.5t-169.5 -45.5t-122.5 -122.5t-46 -169v-599q0 -93 46 -170t122.5 -122.5t169.5 -45.5z" />
    <glyph glyph-name="one" unicode="1" horiz-adv-x="748" 
d="M392 0v1309l-272 -163v132l272 162h116v-1440h-116z" />
    <glyph glyph-name="two" unicode="2" horiz-adv-x="1123" 
d="M100 0l2 110l662 601q88 79 115 151.5t27 155.5q0 94 -45 171t-121.5 122.5t-171.5 45.5q-97 0 -174 -47t-121.5 -124t-44.5 -168h-116q0 127 61 229.5t164.5 162.5t231.5 60q129 0 231.5 -61.5t162.5 -164.5t60 -227q0 -86 -19.5 -153.5t-61.5 -126t-108 -117.5
l-625 -567l-24 60h838v-113h-923z" />
    <glyph glyph-name="three" unicode="3" horiz-adv-x="1087" 
d="M518 -29q-106 0 -194 36.5t-151 105t-93 163.5l109 35q40 -114 128 -172t200 -56q104 3 177.5 47t112.5 122t39 184q0 160 -91 255.5t-242 95.5q-40 0 -87 -11.5t-86 -30.5l-62 92l584 552l25 -62h-749v113h815v-114l-521 -498l-2 55q155 28 276.5 -21.5t191 -160.5
t69.5 -265q0 -140 -57.5 -244.5t-158.5 -162.5t-233 -58z" />
    <glyph glyph-name="four" unicode="4" 
d="M786 0v292h-686v113l489 1035h129l-489 -1035h557v435h116v-435h165v-113h-165v-292h-116z" />
    <glyph glyph-name="five" unicode="5" horiz-adv-x="1150" 
d="M565 -30q-113 0 -208.5 46t-162 127.5t-94.5 185.5l110 30q22 -84 76 -145.5t127 -95t153 -33.5q105 0 188 50.5t131.5 134t48.5 182.5q0 104 -51 187t-134.5 132t-182.5 49q-107 0 -187.5 -49.5t-129.5 -128.5l-110 54l44 744h764v-112h-721l68 63l-42 -676l-34 48
q63 77 156 122t199 45q132 0 240 -64t172.5 -172.5t64.5 -241.5q0 -131 -66 -240.5t-176.5 -175.5t-242.5 -66z" />
    <glyph glyph-name="six" unicode="6" horiz-adv-x="1241" 
d="M624 -30q-134 0 -244 65.5t-175 176t-65 246.5v520q0 138 65 249.5t175.5 177t248.5 65.5q128 0 235.5 -60.5t171.5 -162.5l-92 -67q-49 80 -132 128.5t-183 48.5q-107 0 -191 -52t-133 -136.5t-49 -183.5v-339l-34 40q63 108 170.5 175.5t238.5 67.5q132 0 240.5 -64.5
t172 -173t63.5 -240.5q0 -133 -65.5 -242t-175.5 -174t-242 -65zM624 83q102 0 185.5 49.5t132.5 133t49 185.5t-49 185.5t-132.5 132.5t-185.5 49t-185.5 -49t-133 -132.5t-49.5 -185.5t49.5 -185.5t133 -133t185.5 -49.5z" />
    <glyph glyph-name="seven" unicode="7" horiz-adv-x="983" 
d="M219 0l540 1326h-679v114h803v-114l-540 -1326h-124z" />
    <glyph glyph-name="eight" unicode="8" horiz-adv-x="1139" 
d="M569 -30q-133 0 -234 52.5t-158 148t-57 226.5q0 139 68 244.5t210 157.5l-1 -53q-120 35 -182 131t-62 212q0 119 53.5 204.5t147.5 131t215 45.5t214.5 -45.5t147 -131t53.5 -204.5q0 -116 -59 -211t-182 -130l-7 50q143 -50 213 -156t70 -245q0 -131 -57.5 -226.5
t-159 -148t-233.5 -52.5zM569 83q146 0 236.5 81t90.5 233q0 154 -89.5 234.5t-237.5 80.5q-149 0 -238.5 -80.5t-89.5 -234.5q0 -152 91 -233t237 -81zM569 825q130 0 211 66.5t81 197.5t-81 197.5t-211 66.5q-131 0 -212 -66.5t-81 -197.5t81 -197.5t212 -66.5z" />
    <glyph glyph-name="nine" unicode="9" horiz-adv-x="1241" 
d="M617 1470q134 0 243.5 -65.5t175 -176.5t65.5 -247v-519q0 -139 -65 -250t-176 -176.5t-248 -65.5q-128 0 -235.5 60t-172.5 163l93 67q48 -79 132 -128.5t183 -49.5q107 0 191 52t132.5 137t48.5 184v339l35 -40q-63 -108 -170.5 -175.5t-238.5 -67.5q-133 0 -241 64
t-172 172.5t-64 241.5t66 242t175.5 174t242.5 65zM617 1356q-102 0 -185.5 -49t-133 -132.5t-49.5 -185.5t49.5 -185.5t133 -133t185.5 -49.5t185.5 49.5t132.5 133t49 185.5t-49 185.5t-132.5 132.5t-185.5 49z" />
    <glyph glyph-name="colon" unicode=":" horiz-adv-x="569" 
d="M220 170v145h145v-145h-145zM220 765v145h145v-145h-145z" />
    <glyph glyph-name="semicolon" unicode=";" horiz-adv-x="585" 
d="M220 -193l8 62q37 -2 52 16.5t17.5 49t0.5 65.5h-78v195h145v-245q0 -79 -41 -118t-104 -25zM220 935v145h145v-145h-145z" />
    <glyph glyph-name="less" unicode="&#x3c;" horiz-adv-x="1213" 
d="M746 164l-466 466l466 466l74 -73l-394 -393l394 -393z" />
    <glyph glyph-name="equal" unicode="=" horiz-adv-x="1500" 
d="M240 832v105h1020v-105h-1020zM240 503v105h1020v-105h-1020z" />
    <glyph glyph-name="greater" unicode="&#x3e;" horiz-adv-x="1213" 
d="M468 164l-75 73l395 393l-395 393l75 73l465 -466z" />
    <glyph glyph-name="question" unicode="?" horiz-adv-x="1028" 
d="M429 393q0 81 5.5 139t38.5 120q30 58 77.5 97.5t98 74t91.5 78.5q38 44 51.5 90.5t13.5 98.5q0 56 -14.5 100t-43.5 76q-44 52 -107 71t-129 19q-69 0 -128.5 -20t-97.5 -61q-35 -34 -51 -82.5t-16 -101.5h-118q2 73 28 145t80 123q60 58 141 84t163 26q94 0 179 -28.5
t143 -93.5q49 -52 71.5 -117t22.5 -141q0 -75 -27 -144t-78 -121q-35 -38 -83 -72t-92 -70t-68 -80q-25 -47 -26.5 -94t-1.5 -116h-123zM429 0v173h123v-173h-123z" />
    <glyph glyph-name="at" unicode="@" horiz-adv-x="1801" 
d="M905 -210q-157 0 -292.5 56t-237 156.5t-158.5 236.5t-57 295q0 161 54 298.5t153.5 240t238.5 160t309 57.5q188 0 328.5 -61.5t231.5 -165.5t132 -233.5t32 -265.5q-12 -187 -93.5 -278.5t-213.5 -91.5q-96 0 -162 44t-88 125l43 -7q-33 -69 -101.5 -100.5
t-142.5 -31.5q-86 0 -150.5 36.5t-100.5 102.5t-36 152q0 90 37.5 155.5t102.5 101.5t149 36q65 0 134 -27.5t106 -92.5l-39 -42v134h92l-1 -307q0 -74 37.5 -124t127.5 -50q54 0 95 30.5t65 87t28 134.5q7 150 -35.5 267.5t-126 199.5t-197.5 124.5t-251 42.5
q-155 0 -275 -53t-203 -144.5t-125.5 -208.5t-42.5 -245q1 -135 50.5 -251.5t136.5 -203.5t203.5 -135.5t249.5 -48.5q93 0 186.5 25.5t165.5 70.5l41 -90q-92 -57 -194 -84t-206 -27zM887 331q81 0 131 47t50 139q0 93 -50 140t-130 47q-90 0 -138 -48.5t-48 -138.5
q0 -92 50 -139t135 -47z" />
    <glyph glyph-name="A" unicode="A" horiz-adv-x="1243" 
d="M40 0l510 1440h143l510 -1440h-122l-490 1380h58l-487 -1380h-122zM251 362v109h740v-109h-740z" />
    <glyph glyph-name="B" unicode="B" horiz-adv-x="1214" 
d="M140 0v1440h551q112 0 201.5 -47.5t141 -129.5t51.5 -185q0 -116 -64 -208.5t-170 -129.5l-4 48q142 -43 225.5 -143.5t83.5 -248.5q0 -124 -54.5 -212.5t-150.5 -136t-218 -47.5h-593zM256 113h439q96 0 172.5 33t121 95t44.5 150q0 87 -40.5 157.5t-109.5 112
t-155 41.5h-472v-589zM256 813h434q75 0 137.5 35t99.5 95.5t37 138.5q0 111 -78.5 179t-195.5 68h-434v-516z" />
    <glyph glyph-name="C" unicode="C" horiz-adv-x="1415" 
d="M715 -30q-215 0 -361 95.5t-220 264.5t-74 390t74 390t220 264.5t361 95.5q251 0 407.5 -130t212.5 -348l-119 -29q-46 181 -171.5 287.5t-329.5 106.5q-177 0 -294.5 -81t-177 -225t-60.5 -331q-2 -187 57.5 -330.5t178.5 -225t296 -81.5q204 0 329.5 107t171.5 287
l119 -29q-56 -218 -212.5 -348t-407.5 -130z" />
    <glyph glyph-name="D" unicode="D" horiz-adv-x="1323" 
d="M140 0v1440h429q25 0 81.5 -1t107.5 -9q162 -22 269 -121.5t160 -252t53 -336.5q0 -185 -53 -337.5t-160 -251.5t-269 -121q-51 -7 -108.5 -8.5t-80.5 -1.5h-429zM261 113h308q45 0 93 2.5t82 8.5q134 24 216 106.5t119.5 209t37.5 280.5q0 155 -38 281.5t-120 209
t-215 105.5q-34 6 -83.5 8.5t-91.5 2.5h-308v-1214z" />
    <glyph glyph-name="E" unicode="E" horiz-adv-x="1130" 
d="M140 0v1440h890v-112h-775v-547h655v-112h-655v-557h775v-112h-890z" />
    <glyph glyph-name="F" unicode="F" horiz-adv-x="993" 
d="M140 0v1440h813v-115h-698v-547h578v-116h-578v-662h-115z" />
    <glyph glyph-name="G" unicode="G" horiz-adv-x="1392" 
d="M712 -30q-157 0 -278.5 54t-204.5 153t-126 237t-43 306q0 223 75.5 391.5t220.5 262.5t356 94q218 0 358.5 -102t197.5 -268l-114 -35q-50 133 -162.5 212.5t-276.5 80.5q-177 0 -294.5 -80.5t-176.5 -224.5t-61 -331t57.5 -330.5t178.5 -225t296 -81.5q169 -1 276.5 66
t160 188.5t56.5 284.5h-358v105h478q3 -25 3.5 -49t0.5 -37q0 -191 -66.5 -343t-204 -240t-349.5 -88z" />
    <glyph glyph-name="H" unicode="H" horiz-adv-x="1345" 
d="M140 0v1440h115v-664h834v664h116v-1440h-116v664h-834v-664h-115z" />
    <glyph glyph-name="I" unicode="I" horiz-adv-x="435" 
d="M160 0v1440h115v-1440h-115z" />
    <glyph glyph-name="J" unicode="J" horiz-adv-x="903" 
d="M372 -28q-137 0 -238 78t-134 208l116 27q21 -85 91 -143t166 -58q61 0 122.5 28.5t96.5 94.5q25 47 29 99.5t4 126.5v1007h116v-1007q0 -57 -1 -105t-10.5 -92t-34.5 -89q-50 -88 -135.5 -131.5t-187.5 -43.5z" />
    <glyph glyph-name="K" unicode="K" horiz-adv-x="1152" 
d="M140 0v1440h115v-684l685 684h152l-689 -692l749 -748h-154l-743 736v-736h-115z" />
    <glyph glyph-name="L" unicode="L" horiz-adv-x="1005" 
d="M160 0v1440h115v-1328h700v-112h-815z" />
    <glyph glyph-name="M" unicode="M" horiz-adv-x="1672" 
d="M140 0v1440h107l590 -1274l584 1274h111v-1438h-113v1173l-536 -1175h-94l-537 1175v-1175h-112z" />
    <glyph glyph-name="N" unicode="N" horiz-adv-x="1346" 
d="M140 0v1440h116l834 -1235v1235h116v-1440h-116l-834 1237v-1237h-116z" />
    <glyph glyph-name="O" unicode="O" horiz-adv-x="1429" 
d="M715 -30q-215 0 -361 95.5t-220 264.5t-74 390t74 390t220 264.5t361 95.5t360.5 -95.5t219.5 -264.5t74 -390t-74 -390t-219.5 -264.5t-360.5 -95.5zM715 83q177 -1 295 80.5t177 225.5t59 331t-59 331t-177 225t-295 81q-177 1 -294.5 -80t-176.5 -225.5t-61 -331.5
t57.5 -330.5t178.5 -225t296 -81.5z" />
    <glyph glyph-name="P" unicode="P" horiz-adv-x="1185" 
d="M140 0v1440h543q21 0 45.5 -1.5t51.5 -6.5q108 -17 185.5 -77.5t118.5 -152t41 -201.5q0 -111 -41 -202.5t-118.5 -152t-185.5 -77.5q-27 -4 -51.5 -6t-45.5 -2h-428v-561h-115zM255 674h426q18 0 41.5 2t47.5 6q78 16 130 63.5t78 114.5t26 141t-26 140.5t-78 114
t-130 63.5q-24 5 -47.5 7t-41.5 2h-426v-654z" />
    <glyph glyph-name="Q" unicode="Q" horiz-adv-x="1429" 
d="M1273 -28l-375 373l83 83l373 -373zM715 -30q-215 0 -361 95.5t-220 264.5t-74 390t74 390t220 264.5t361 95.5t360.5 -95.5t219.5 -264.5t74 -390t-74 -390t-219.5 -264.5t-360.5 -95.5zM715 83q177 -1 295 80.5t177 225.5t59 331t-59 331t-177 225t-295 81
q-177 1 -294.5 -80t-176.5 -225.5t-61 -331.5t57.5 -330.5t178.5 -225t296 -81.5z" />
    <glyph glyph-name="R" unicode="R" horiz-adv-x="1242" 
d="M140 0v1440h543q21 0 45.5 -1.5t51.5 -6.5q108 -17 185.5 -77.5t118.5 -152t41 -201.5q0 -159 -85 -277t-237 -150l-33 -13h-515v-561h-115zM1027 0l-284 586l107 54l312 -640h-135zM255 674h426q18 0 41.5 2t47.5 6q78 16 130 63.5t78 114.5t26 141t-26 140.5t-78 114
t-130 63.5q-24 5 -47.5 7t-41.5 2h-426v-654z" />
    <glyph glyph-name="S" unicode="S" horiz-adv-x="1205" 
d="M629 -30q-148 0 -266.5 49t-196 139t-103.5 214l118 20q37 -144 158.5 -227t292.5 -83q116 0 205 37t139 104.5t50 157.5q0 65 -23.5 109t-60.5 72.5t-79 46t-79 28.5l-362 108q-72 21 -128.5 52.5t-95 73t-59 94.5t-20.5 118q0 116 62 203t170.5 135.5t249.5 48.5
q142 -1 255 -52.5t185.5 -145.5t93.5 -223l-119 -21q-14 99 -71.5 173t-146.5 115t-198 41q-105 1 -185.5 -35t-126.5 -97t-46 -138q0 -80 43.5 -127.5t107 -74.5t121.5 -44l290 -86q41 -12 98 -34t112 -62.5t91.5 -107t36.5 -166.5q0 -97 -37 -174t-106 -130.5t-163 -82
t-207 -28.5z" />
    <glyph glyph-name="T" unicode="T" horiz-adv-x="1187" 
d="M536 0v1328h-516v112h1147v-112h-516v-1328h-115z" />
    <glyph glyph-name="U" unicode="U" horiz-adv-x="1392" 
d="M696 -30q-162 0 -287.5 67.5t-197 190t-71.5 287.5v925h116v-901q0 -123 41.5 -210.5t108 -142.5t143 -81t147.5 -26t148 26t143 81t107.5 142.5t41.5 210.5v901h116v-925q0 -164 -71.5 -286.5t-197 -190.5t-287.5 -68z" />
    <glyph glyph-name="V" unicode="V" horiz-adv-x="1183" 
d="M520 0l-510 1440h122l458 -1296l461 1296h122l-510 -1440h-143z" />
    <glyph glyph-name="W" unicode="W" horiz-adv-x="1845" 
d="M450 0l-413 1440h119l353 -1238l352 1238h121l353 -1238l352 1238h121l-414 -1440h-118l-354 1234l-354 -1234h-118z" />
    <glyph glyph-name="X" unicode="X" horiz-adv-x="1179" 
d="M20 0l502 730l-490 710h139l418 -615l419 615h139l-490 -710l502 -730h-139l-431 633l-430 -633h-139z" />
    <glyph glyph-name="Y" unicode="Y" horiz-adv-x="1075" 
d="M480 0v608l-480 832h133l405 -700l404 700h133l-479 -832v-608h-116z" />
    <glyph glyph-name="Z" unicode="Z" horiz-adv-x="1195" 
d="M100 0v31l812 1297h-802v112h985v-34l-808 -1295h805v-111h-992z" />
    <glyph glyph-name="bracketleft" unicode="[" horiz-adv-x="803" 
d="M280 -440v2210h353v-110h-243v-1990h243v-110h-353z" />
    <glyph glyph-name="backslash" unicode="\" horiz-adv-x="744" 
d="M240 1440l384 -1440h-120l-384 1440h120z" />
    <glyph glyph-name="bracketright" unicode="]" horiz-adv-x="803" 
d="M523 -440h-353v110h243v1990h-243v110h353v-2210z" />
    <glyph glyph-name="asciicircum" unicode="^" horiz-adv-x="1331" 
d="M211 1006l465 467l466 -466l-73 -75l-393 395l-392 -396z" />
    <glyph glyph-name="underscore" unicode="_" horiz-adv-x="1320" 
d="M0 -202v105h1320v-105h-1320z" />
    <glyph glyph-name="grave" unicode="`" horiz-adv-x="947" 
d="M457 1615l-108 290h107l108 -290h-107z" />
    <glyph glyph-name="a" unicode="a" horiz-adv-x="1098" 
d="M452 -30q-125 0 -207.5 44t-123.5 116.5t-41 157.5q0 92 38.5 154t103 100t142.5 57q89 20 192 34.5t196.5 25.5t152.5 19l-42 -25q4 175 -65.5 260.5t-244.5 85.5q-123 0 -202.5 -55.5t-111.5 -171.5l-118 33q37 147 149 226t287 79q149 0 250.5 -58t141.5 -163
q17 -43 23 -100.5t6 -115.5v-673h-105v284l39 -10q-49 -146 -171 -225t-289 -79zM458 76q110 0 193 39.5t134.5 111t65.5 168.5q10 54 11 117t1 93l50 -32q-65 -8 -155.5 -17t-184.5 -22t-170 -33q-47 -13 -94.5 -37.5t-79 -67.5t-31.5 -109q0 -49 24.5 -98t81.5 -81
t154 -32z" />
    <glyph glyph-name="b" unicode="b" horiz-adv-x="1168" 
d="M613 -30q-146 0 -247 76t-154 205t-53 291q0 163 53 291.5t157 202.5t255 74q147 0 251 -75t158.5 -204t54.5 -289q0 -162 -55.5 -291.5t-161 -205t-258.5 -75.5zM140 0v1440h115v-608h-10v-832h-105zM606 80q119 0 198.5 61t120 165.5t40.5 235.5q0 130 -39.5 233.5
t-119 164t-202.5 60.5q-119 0 -199 -58.5t-120 -162.5t-40 -237q0 -132 39.5 -236.5t120 -165t201.5 -60.5z" />
    <glyph glyph-name="c" unicode="c" horiz-adv-x="1093" 
d="M581 -30q-162 0 -273 72.5t-168.5 201t-59.5 296.5q2 171 60.5 299.5t169.5 199.5t272 71q157 0 276.5 -75.5t165.5 -207.5l-112 -41q-41 101 -129 156.5t-202 55.5q-128 0 -211 -58.5t-124 -161.5t-43 -238q3 -207 97.5 -332.5t280.5 -125.5q115 0 199.5 53t129.5 154
l114 -39q-63 -137 -176 -208.5t-267 -71.5z" />
    <glyph glyph-name="d" unicode="d" horiz-adv-x="1168" 
d="M555 -30q-153 0 -258.5 75.5t-161 205t-55.5 291.5q0 160 55 289t158.5 204t250.5 75q151 0 255 -74t157 -202.5t53 -291.5q0 -162 -53 -291t-154 -205t-247 -76zM562 80q121 0 201.5 60.5t120 165t39.5 236.5q0 133 -40 237t-120 162.5t-199 58.5q-123 0 -203 -60.5
t-119 -164t-39 -233.5q0 -131 40.5 -235.5t120 -165.5t198.5 -61zM923 0v832h-10v608h115v-1440h-105z" />
    <glyph glyph-name="e" unicode="e" horiz-adv-x="1158" 
d="M585 -30q-155 0 -268 69.5t-175 197t-62 301.5q0 177 61.5 305.5t174 197.5t267.5 69q157 0 268.5 -71.5t170 -206.5t55.5 -325h-120v40q-5 222 -100 338t-272 116q-183 0 -282.5 -120.5t-99.5 -340.5q0 -218 99.5 -338t280.5 -120q125 0 218.5 58.5t148.5 167.5l104 -46
q-65 -140 -188 -216t-281 -76zM159 507v104h853v-104h-853z" />
    <glyph glyph-name="f" unicode="f" horiz-adv-x="694" 
d="M252 0v1181q0 42 4.5 80t19 72t41.5 64q28 30 62.5 46t73.5 21.5t82 5.5h139v-100h-129q-89 0 -133.5 -43t-44.5 -142v-1185h-115zM60 975v105h614v-105h-614z" />
    <glyph glyph-name="g" unicode="g" horiz-adv-x="1168" 
d="M560 -510q-80 0 -159.5 23.5t-148.5 76t-117 139.5l104 62q49 -100 139 -143t183 -43q131 0 207.5 48.5t109.5 145t33 239.5v283h12v759h105v-1042q0 -48 -2 -92t-9 -88q-18 -125 -74 -206.5t-151.5 -121.5t-231.5 -40zM555 -30q-153 0 -258.5 75.5t-161 205t-55.5 291.5
q0 160 55 289t158.5 204t250.5 75q151 0 255 -74t157 -202.5t53 -291.5q0 -162 -53 -291t-154 -205t-247 -76zM562 80q121 0 201.5 60.5t120 165t39.5 236.5q0 133 -40 237t-120 162.5t-199 58.5q-123 0 -203 -60.5t-119 -164t-39 -233.5q0 -131 40.5 -235.5t120 -165.5
t198.5 -61z" />
    <glyph glyph-name="h" unicode="h" 
d="M931 0v562q0 102 -20.5 182t-62 136t-104 85t-147.5 29q-88 0 -152.5 -30.5t-106 -85.5t-62 -130.5t-20.5 -164.5l-91 11q0 175 59.5 288.5t160.5 168t227 54.5q89 0 159.5 -26t122.5 -73.5t86 -112t50.5 -141.5t16.5 -161v-591h-116zM140 0v1440h105v-832h11v-608h-116z
" />
    <glyph glyph-name="i" unicode="i" horiz-adv-x="435" 
d="M160 1298v147h115v-147h-115zM160 0v1080h115v-1080h-115z" />
    <glyph glyph-name="j" unicode="j" horiz-adv-x="475" 
d="M-20 -480v114h65q68 0 113 36.5t45 127.5v1282h116v-1296q0 -136 -60.5 -200t-192.5 -64h-86zM203 1298v147h116v-147h-116z" />
    <glyph glyph-name="k" unicode="k" horiz-adv-x="964" 
d="M140 0v1440h116v-880l511 520h161l-535 -540l611 -540h-179l-569 520v-520h-116z" />
    <glyph glyph-name="l" unicode="l" horiz-adv-x="435" 
d="M160 0v1470h115v-1470h-115z" />
    <glyph glyph-name="m" unicode="m" horiz-adv-x="1662" 
d="M1425 0l2 726q0 131 -74.5 205.5t-185.5 74.5q-63 0 -124.5 -29t-102.5 -94t-41 -176l-81 13q-4 118 43.5 205.5t132 135.5t192.5 48q159 0 257.5 -98t98.5 -268l-2 -743h-115zM140 0v1080h105v-243h10v-837h-115zM783 0l2 715q0 134 -73 212.5t-190 78.5
q-119 0 -193 -81.5t-74 -217.5l-80 40q0 105 48 186.5t131.5 128.5t191.5 47q97 0 177 -41t128 -123.5t48 -206.5l-2 -738h-114z" />
    <glyph glyph-name="n" unicode="n" 
d="M931 0v562q0 102 -20.5 182t-62 136t-104 85t-147.5 29q-88 0 -152.5 -30.5t-106 -85.5t-62 -130.5t-20.5 -164.5l-91 11q0 175 59.5 288.5t160.5 168t227 54.5q89 0 159.5 -26t122.5 -73.5t86 -112t50.5 -141.5t16.5 -161v-591h-116zM140 0v1080h105v-243h11v-837h-116z
" />
    <glyph glyph-name="o" unicode="o" horiz-adv-x="1166" 
d="M583 -30q-161 0 -273 73t-171 202t-59 297q0 169 60 297.5t172.5 199.5t270.5 71q161 0 273.5 -72.5t171 -200.5t58.5 -295q0 -171 -59 -299.5t-172 -200.5t-272 -72zM583 82q191 0 285.5 128t94.5 332q0 208 -95 332t-285 124q-129 0 -213 -58.5t-125.5 -161
t-41.5 -236.5q0 -208 96.5 -334t283.5 -126z" />
    <glyph glyph-name="p" unicode="p" horiz-adv-x="1168" 
d="M613 -30q-146 0 -247 76t-154 205t-53 291q0 163 53 291.5t157 202.5t255 74q147 0 251 -75t158.5 -204t54.5 -289q0 -162 -55.5 -291.5t-161 -205t-258.5 -75.5zM140 -480v1560h105v-832h10v-728h-115zM606 80q119 0 198.5 61t120 165.5t40.5 235.5q0 130 -39.5 233.5
t-119 164t-202.5 60.5q-119 0 -199 -58.5t-120 -162.5t-40 -237q0 -132 39.5 -236.5t120 -165t201.5 -60.5z" />
    <glyph glyph-name="q" unicode="q" horiz-adv-x="1168" 
d="M555 -30q-153 0 -258.5 75.5t-161 205t-55.5 291.5q0 160 55 289t158.5 204t250.5 75q151 0 255 -74t157 -202.5t53 -291.5q0 -162 -53 -291t-154 -205t-247 -76zM562 80q121 0 201.5 60.5t120 165t39.5 236.5q0 133 -40 237t-120 162.5t-199 58.5q-123 0 -203 -60.5
t-119 -164t-39 -233.5q0 -131 40.5 -235.5t120 -165.5t198.5 -61zM913 -480v728h10v832h105v-1560h-115z" />
    <glyph glyph-name="r" unicode="r" horiz-adv-x="696" 
d="M140 0v1080h105v-259l-26 34q18 46 45.5 85.5t56.5 64.5q43 40 101 60.5t117 24t107 -9.5v-109q-64 15 -136 6t-135 -62q-55 -48 -80 -111.5t-32 -133t-7 -135.5v-535h-116z" />
    <glyph glyph-name="s" unicode="s" horiz-adv-x="1039" 
d="M539 -28q-187 0 -308.5 79t-150.5 220l118 20q25 -96 118 -153t228 -57q134 0 213 57t79 156q0 54 -24.5 88.5t-96.5 63.5t-214 68q-150 40 -234.5 80t-119 91t-34.5 125q0 89 51 156.5t142.5 105.5t211.5 38t216 -39.5t155 -110t68 -163.5l-118 -22q-17 104 -105 164.5
t-220 61.5q-125 2 -204 -49.5t-79 -135.5q0 -48 27.5 -81.5t97.5 -61.5t198 -60q156 -40 243.5 -82t123.5 -98.5t36 -139.5q0 -150 -111.5 -235.5t-306.5 -85.5z" />
    <glyph glyph-name="t" unicode="t" horiz-adv-x="780" 
d="M713 0q-86 -19 -170 -14.5t-149.5 38t-98.5 103.5q-27 57 -30 115t-3 133v1005h116v-1003q0 -68 1.5 -112.5t20.5 -81.5q36 -69 114 -83.5t199 4.5v-104zM20 975v105h693v-105h-693z" />
    <glyph glyph-name="u" unicode="u" 
d="M555 -25q-89 0 -159.5 26t-122.5 73.5t-86 112t-50.5 141.5t-16.5 161v591h116v-562q0 -102 20.5 -182t62 -136t104 -85t147.5 -29q88 0 152.5 30.5t106 85.5t62 130.5t20.5 164.5l91 -11q0 -175 -59.5 -288.5t-160.5 -168t-227 -54.5zM922 0v243h-11v837h116v-1080h-105
z" />
    <glyph glyph-name="v" unicode="v" horiz-adv-x="986" 
d="M432 0l-392 1080h119l334 -923l333 923h120l-392 -1080h-122z" />
    <glyph glyph-name="w" unicode="w" horiz-adv-x="1511" 
d="M370 0l-330 1080h118l271 -887l271 887h111l272 -887l272 887h116l-330 -1080h-108l-277 899l-278 -899h-108z" />
    <glyph glyph-name="x" unicode="x" horiz-adv-x="1036" 
d="M20 0l431 546l-421 534h140l349 -447l347 447h140l-421 -534l431 -546h-142l-355 459l-357 -459h-142z" />
    <glyph glyph-name="y" unicode="y" horiz-adv-x="1033" 
d="M298 -480l210 565l2 -168l-473 1163h123l406 -1010h-64l369 1010h121l-574 -1560h-120z" />
    <glyph glyph-name="z" unicode="z" horiz-adv-x="1057" 
d="M40 0v31l738 936h-688v113h887v-34l-738 -933h694v-113h-893z" />
    <glyph glyph-name="braceleft" unicode="{" horiz-adv-x="819" 
d="M617 -440q-96 0 -160 64.5t-64 157.5v669q0 34 -20 66l-83 116q-10 15 -10 32.5t10 31.5l83 116q20 32 20 66v667q0 95 64 159.5t160 64.5h114v-113h-111q-47 0 -80.5 -33t-33.5 -81v-664q0 -72 -42 -130l-59 -84l59 -84q42 -57 42 -130v-665q0 -47 33.5 -80.5
t80.5 -33.5h111v-112h-114z" />
    <glyph glyph-name="bar" unicode="|" horiz-adv-x="475" 
d="M180 0v1440h115v-1440h-115z" />
    <glyph glyph-name="braceright" unicode="}" horiz-adv-x="819" 
d="M202 -440h-114v112h111q48 0 81 33.5t33 80.5v665q0 73 42 130l59 84l-59 84q-42 58 -42 130v664q0 48 -33 81t-81 33h-111v113h114q96 0 160 -64.5t64 -159.5v-667q0 -34 20 -66l83 -116q11 -14 11 -31.5t-11 -32.5l-83 -116q-20 -32 -20 -66v-669q0 -93 -64 -157.5
t-160 -64.5z" />
    <glyph glyph-name="asciitilde" unicode="~" horiz-adv-x="1288" 
d="M848 485q-58 0 -112.5 22.5t-106 51t-98.5 51t-90 22.5q-57 0 -72.5 -42.5t0.5 -85.5h-124q-19 74 0 135t69 97t124 36q58 0 113.5 -22.5t107 -51.5t98.5 -51.5t90 -22.5q50 0 70 41t2 93h124q19 -73 0.5 -135.5t-69 -100t-126.5 -37.5z" />
    <glyph glyph-name="uni00A0" unicode="&#xa0;" horiz-adv-x="400" 
 />
    <glyph glyph-name="exclamdown" unicode="&#xa1;" horiz-adv-x="595" 
d="M240 1080h115v-147h-115v147zM240 720h115v-1080h-115v1080z" />
    <glyph glyph-name="cent" unicode="&#xa2;" horiz-adv-x="1093" 
d="M532 -60v183q-146 11 -246 85.5t-152 198.5t-54 283q2 163 54.5 286.5t152.5 196.5t245 84v183h105v-183q137 -13 240.5 -86.5t146.5 -193.5l-112 -41q-41 101 -129 156.5t-202 55.5q-128 0 -211 -58.5t-124 -161.5t-43 -238q3 -207 97.5 -332.5t280.5 -125.5
q115 0 199.5 53t129.5 154l114 -39q-59 -124 -156.5 -194.5t-230.5 -82.5v-183h-105z" />
    <glyph glyph-name="sterling" unicode="&#xa3;" horiz-adv-x="1142" 
d="M63 0v112h127q58 0 99 41.5t41 99.5v844q0 110 48 194t131.5 131.5t188.5 47.5q91 0 162.5 -40t125.5 -118.5t93 -192.5l-108 -35q-45 139 -111 206t-163 67q-113 0 -181.5 -71.5t-68.5 -190.5l-1 -983h593v-112h-976zM63 677v113h767v-113h-767z" />
    <glyph glyph-name="currency" unicode="&#xa4;" horiz-adv-x="1263" 
d="M632 196q-108 0 -203 41t-167 113.5t-113 167.5t-41 204q0 108 41 203t113 167t167 113t203 41q109 0 204 -41t167.5 -113t113.5 -167t41 -203q0 -109 -41 -204t-113.5 -167.5t-167.5 -113.5t-204 -41zM140 150l-80 80l202 202l81 -80zM264 1007l-204 204l80 79l202 -202
zM1123 150l-202 202l80 80l202 -202zM632 304q115 0 210 57t151 151.5t56 207.5q0 115 -57.5 210t-152.5 151.5t-207 56.5q-116 0 -210.5 -56.5t-150 -151.5t-55.5 -210q0 -113 55.5 -207.5t150 -151.5t210.5 -57zM1000 1008l-79 80l202 202l80 -79z" />
    <glyph glyph-name="yen" unicode="&#xa5;" horiz-adv-x="1075" 
d="M168 514v105h740v-105h-740zM168 235v105h740v-105h-740zM480 0v608l-480 832h133l405 -700l404 700h133l-479 -832v-608h-116z" />
    <glyph glyph-name="brokenbar" unicode="&#xa6;" horiz-adv-x="475" 
d="M180 727v713h115v-713h-115zM180 -280v713h115v-713h-115z" />
    <glyph glyph-name="section" unicode="&#xa7;" horiz-adv-x="1039" 
d="M545 -318q-95 0 -185 30t-155.5 96t-87.5 173l118 20q20 -76 72 -122t117 -67t126 -21q70 0 130.5 24t98 71.5t37.5 117.5q0 66 -37.5 103t-112 62t-185.5 55q-114 31 -201.5 64.5t-137 86.5t-49.5 142q0 97 56.5 160.5t144 90.5t180.5 15v-32q-112 -28 -187.5 -84
t-75.5 -140q0 -62 43 -98.5t116 -59.5t164 -46q118 -31 208.5 -65t142.5 -92.5t52 -162.5q0 -105 -52.5 -176.5t-141.5 -108t-198 -36.5zM613 239l1 38q57 2 112 28t91 74t36 118q0 66 -38 103t-112.5 62t-184.5 55q-115 31 -202.5 64.5t-137 87t-49.5 144.5q0 101 57 167.5
t144 99.5t178 33q105 0 193 -39t145 -109.5t68 -164.5l-118 -22q-16 85 -64.5 134.5t-111.5 71t-121 21.5q-68 0 -125 -23t-91.5 -64.5t-34.5 -97.5q0 -62 43 -98.5t116.5 -59.5t163.5 -46q117 -30 208 -64.5t143 -92.5t52 -161q0 -102 -49.5 -169.5t-132 -91.5t-179.5 2z
" />
    <glyph glyph-name="dieresis" unicode="&#xa8;" horiz-adv-x="991" 
d="M611 1665v140h140v-140h-140zM240 1665v140h140v-140h-140z" />
    <glyph glyph-name="copyright" unicode="&#xa9;" horiz-adv-x="1551" 
d="M776 -32q-148 0 -278 56t-228.5 154t-154 228t-55.5 278q0 149 55.5 278.5t154 227.5t228.5 154t278 56t278 -56t228 -154t153.5 -227.5t55.5 -278.5q0 -148 -55.5 -278t-153.5 -228t-228 -154t-278 -56zM782 264q-88 0 -160 31.5t-126 97.5q-52 66 -70 143t-18 151
q2 77 20.5 152.5t67.5 138.5q54 66 127 97.5t164 31.5q54 0 101.5 -11.5t93.5 -39.5q47 -28 82.5 -71t51.5 -98l-102 -32q-14 32 -37.5 61.5t-54.5 50.5q-29 21 -65 30.5t-74 9.5q-60 0 -112 -24.5t-88 -70.5q-35 -45 -48.5 -105t-13.5 -118q0 -65 15.5 -125.5t46.5 -104.5
q34 -46 86 -70t113 -24q80 0 143 39q30 20 51 47.5t36 61.5l104 -32q-23 -57 -57.5 -96t-67.5 -62q-45 -29 -95.5 -44t-113.5 -15zM776 84q124 0 232 46.5t190.5 129t129 192t46.5 234.5q0 124 -46.5 232t-129 190.5t-190.5 129t-232 46.5q-125 0 -234.5 -46.5t-192 -129
t-129 -190.5t-46.5 -232q0 -125 46.5 -234.5t129 -192t192 -129t234.5 -46.5z" />
    <glyph glyph-name="ordfeminine" unicode="&#xaa;" horiz-adv-x="626" 
d="M263 540q-90 0 -136.5 48t-46.5 114q0 62 34.5 101t95.5 58q55 16 129.5 26t143.5 20l-33 -41q5 79 -23 116.5t-104 37.5q-45 0 -81.5 -20.5t-50.5 -68.5l-91 27q20 71 76 111.5t148 40.5q74 0 127 -25.5t77 -78.5q12 -26 15 -55.5t3 -62.5v-333h-85v126l15 -19
q-33 -62 -85 -92t-128 -30zM279 620q69 0 110 35.5t51 80.5q8 25 9 57.5t1 46.5l35 -14q-71 -11 -129.5 -18.5t-99.5 -20.5q-34 -10 -57 -29.5t-23 -54.5q0 -33 24.5 -58t78.5 -25z" />
    <glyph glyph-name="guillemotleft" unicode="&#xab;" horiz-adv-x="1038" 
d="M826 109l-344 433l344 431l75 -59l-298 -372l298 -374zM504 109l-344 433l344 431l75 -59l-297 -372l297 -374z" />
    <glyph glyph-name="logicalnot" unicode="&#xac;" horiz-adv-x="1200" 
d="M975 396v252h-855v105h960v-357h-105z" />
    <glyph glyph-name="uni00AD" unicode="&#xad;" horiz-adv-x="840" 
d="M120 578v105h600v-105h-600z" />
    <glyph glyph-name="registered" unicode="&#xae;" horiz-adv-x="1230" 
d="M616 584q-99 0 -185.5 37t-151.5 102.5t-102 151.5t-37 185q0 98 37 184t102 151.5t151.5 102t185.5 36.5q98 0 184 -36.5t151 -102t102 -151.5t37 -184q0 -99 -37 -185t-102 -151.5t-151 -102.5t-184 -37zM616 684q103 0 188.5 51t136 136t50.5 189t-50.5 189
t-136 135.5t-188.5 50.5q-104 0 -189.5 -50.5t-136.5 -135.5t-51 -189t51 -189t136.5 -136t189.5 -51zM453 832v463h203q62 0 107 -44t46 -106q0 -39 -23 -77.5t-64 -57.5l88 -178h-86l-79 164h-117v-164h-75zM528 1067h127q30 0 53.5 23t23.5 55q0 36 -24.5 57.5
t-52.5 21.5h-127v-157z" />
    <glyph glyph-name="macron" unicode="&#xaf;" horiz-adv-x="971" 
d="M240 1680v105h491v-105h-491z" />
    <glyph glyph-name="degree" unicode="&#xb0;" horiz-adv-x="900" 
d="M420 750q-99 0 -181 48.5t-130.5 130t-48.5 181.5q0 98 50 180t132 131t178 49q99 0 180.5 -48.5t130.5 -130t49 -181.5t-49 -181.5t-130.5 -130t-180.5 -48.5zM420 858q68 0 125.5 34.5t92 92t34.5 125.5t-34.5 125.5t-92 92t-125.5 34.5t-125 -34.5t-92 -92t-35 -125.5
t35 -125.5t92 -92t125 -34.5z" />
    <glyph glyph-name="plusminus" unicode="&#xb1;" horiz-adv-x="1200" 
d="M548 440v268h-428v105h428v267h105v-267h427v-105h-427v-268h-105zM120 167v105h960v-105h-960z" />
    <glyph glyph-name="uni00B2" unicode="&#xb2;" horiz-adv-x="792" 
d="M100 540l2 88l404 368q52 46 69.5 88t17.5 87q0 83 -55.5 140t-137.5 57q-56 0 -101 -27.5t-70.5 -72t-24.5 -95.5h-99q0 83 39 148t105.5 102t151.5 37q83 0 148.5 -38.5t104 -104t38.5 -146.5q0 -57 -14.5 -99.5t-43.5 -79t-73 -76.5l-374 -339l-22 56h527v-93h-592z
" />
    <glyph glyph-name="uni00B3" unicode="&#xb3;" horiz-adv-x="770" 
d="M360 520q-99 0 -175 53.5t-105 146.5l93 27q22 -66 73 -100t114 -34q89 2 140 57t51 143q0 90 -52.5 145.5t-139.5 55.5q-24 0 -50 -6.5t-50 -17.5l-48 76l368 340l22 -58h-485v92h524v-94l-322 -306l-4 53q100 17 175.5 -15.5t118 -101.5t42.5 -163q0 -86 -37.5 -152
t-102.5 -103.5t-150 -37.5z" />
    <glyph glyph-name="acute" unicode="&#xb4;" horiz-adv-x="947" 
d="M490 1615h-107l108 290h107z" />
    <glyph glyph-name="uni00B5" unicode="&#xb5;" horiz-adv-x="1187" 
d="M140 -480v1560h116v-562q0 -102 20 -182t62 -136t104.5 -85t146.5 -29q89 0 153.5 30.5t106 85.5t62 130.5t20.5 164.5v583h116v-1080h-105v164q-60 -97 -156.5 -143t-210.5 -46q-110 0 -193.5 42.5t-136.5 122.5v-620h-105z" />
    <glyph glyph-name="paragraph" unicode="&#xb6;" horiz-adv-x="1216" 
d="M693 -282v843h-88q-18 0 -42.5 2t-53.5 6q-108 17 -185.5 77.5t-119 152t-41.5 202.5q0 109 41.5 201t118.5 152.5t186 77.5q29 5 53.5 6.5t42.5 1.5h203v-1722h-115zM937 -282v1722h115v-1722h-115z" />
    <glyph glyph-name="periodcentered" unicode="&#xb7;" horiz-adv-x="427" 
d="M216 537q-40 0 -68 26.5t-28 66.5q0 41 28 67t68 26q37 0 64 -26t27 -67q0 -40 -27 -66.5t-64 -26.5z" />
    <glyph glyph-name="cedilla" unicode="&#xb8;" horiz-adv-x="783" 
d="M364 -479q-35 0 -65.5 8.5t-58.5 21.5l33 87q48 -18 82 -18q42 0 64.5 26.5t22.5 59.5q0 48 -41.5 69t-91.5 37l75 205l96 1l-54 -148q52 -23 86 -63.5t34 -105.5q0 -76 -54 -128t-128 -52z" />
    <glyph glyph-name="uni00B9" unicode="&#xb9;" horiz-adv-x="627" 
d="M290 540v792l-170 -102v108l170 102h97v-900h-97z" />
    <glyph glyph-name="ordmasculine" unicode="&#xba;" horiz-adv-x="685" 
d="M342 540q-121 0 -191.5 80t-70.5 206q0 127 72 205.5t190 78.5q122 0 192.5 -79.5t70.5 -204.5q0 -127 -71 -206.5t-192 -79.5zM342 632q81 0 120.5 54t39.5 140q0 88 -40 140.5t-120 52.5q-82 0 -120.5 -53.5t-38.5 -139.5q0 -88 40 -141t119 -53z" />
    <glyph glyph-name="guillemotright" unicode="&#xbb;" horiz-adv-x="1038" 
d="M212 109l-75 59l297 374l-297 372l75 59l344 -431zM534 109l-76 59l298 374l-298 372l76 59l344 -431z" />
    <glyph glyph-name="onequarter" unicode="&#xbc;" horiz-adv-x="1905" 
d="M290 540v792l-170 -102v108l170 102h97v-900h-97zM1472 0v172h-421v93l301 635h109l-300 -635h311v261h97v-261h96v-93h-96v-172h-97zM334 0l-88 69l1073 1373l85 -67z" />
    <glyph glyph-name="onehalf" unicode="&#xbd;" horiz-adv-x="1815" 
d="M290 540v792l-170 -102v108l170 102h97v-900h-97zM1123 0l2 88l405 368q52 46 69 88t17 87q0 83 -55.5 140t-137.5 57q-56 0 -100.5 -27.5t-70.5 -72t-24 -95.5h-100q0 83 39 148t105.5 102t151.5 37q83 0 148.5 -38.5t104 -104t38.5 -146.5q0 -57 -14.5 -99.5t-43.5 -79
t-73 -76.5l-374 -339l-22 56h527v-93h-592zM334 0l-88 69l1073 1373l85 -67z" />
    <glyph glyph-name="threequarters" unicode="&#xbe;" horiz-adv-x="1926" 
d="M360 520q-99 0 -175 53.5t-105 146.5l93 27q22 -66 73 -100t114 -34q89 2 140 57t51 143q0 90 -52.5 145.5t-139.5 55.5q-24 0 -50 -6.5t-50 -17.5l-48 76l368 340l22 -58h-485v92h524v-94l-322 -306l-4 53q100 17 175.5 -15.5t118 -101.5t42.5 -163q0 -86 -37.5 -152
t-102.5 -103.5t-150 -37.5zM1613 0v172h-421v93l301 635h109l-300 -635h311v261h97v-261h96v-93h-96v-172h-97zM476 0l-87 69l1072 1373l86 -67z" />
    <glyph glyph-name="questiondown" unicode="&#xbf;" horiz-adv-x="1028" 
d="M599 687q0 -81 -5.5 -139t-38.5 -120q-31 -58 -78.5 -97.5t-98 -74t-90.5 -78.5q-38 -43 -51.5 -90t-13.5 -99q0 -55 14.5 -99t43.5 -77q44 -51 107 -70.5t129 -19.5q70 0 129 20t96 61q37 35 52.5 83t15.5 101h118q-2 -73 -28 -145t-80 -123q-60 -57 -140.5 -83.5
t-163.5 -26.5q-94 0 -179 29t-143 93q-48 53 -71 118t-23 140q0 76 27.5 145t77.5 120q35 38 83 72.5t92 70t67 79.5q27 48 28 95t1 115h123zM598 1080v-173h-122v173h122z" />
    <glyph glyph-name="Agrave" unicode="&#xc0;" horiz-adv-x="1243" 
d="M557 1615l-107 290h107l107 -290h-107zM1203 0h-122l-488 1380h59l-490 -1380h-122l510 1440h143zM992 362h-740v109h740v-109z" />
    <glyph glyph-name="Aacute" unicode="&#xc1;" horiz-adv-x="1243" 
d="M685 1615h-107l108 290h107zM40 0l510 1440h143l510 -1440h-122l-490 1380h58l-487 -1380h-122zM251 362v109h740v-109h-740z" />
    <glyph glyph-name="Acircumflex" unicode="&#xc2;" horiz-adv-x="1243" 
d="M350 1615l215 255h114l214 -255h-125l-146 172l-147 -172h-125zM40 0l510 1440h143l510 -1440h-122l-490 1380h58l-487 -1380h-122zM251 362v109h740v-109h-740z" />
    <glyph glyph-name="Atilde" unicode="&#xc3;" horiz-adv-x="1243" 
d="M766 1666q-41 0 -79.5 16t-75 36.5t-70 36.5t-63.5 16q-41 0 -51.5 -30.5t-0.5 -61.5h-88q-20 80 19.5 135.5t117.5 55.5q42 0 81 -16t76 -36.5t70 -36.5t63 -16q37 0 50.5 29t1.5 66h88q20 -78 -19 -136t-120 -58zM40 0l510 1440h143l510 -1440h-122l-490 1380h58
l-487 -1380h-122zM251 362v109h740v-109h-740z" />
    <glyph glyph-name="Adieresis" unicode="&#xc4;" horiz-adv-x="1243" 
d="M738 1665v140h140v-140h-140zM367 1665v140h140v-140h-140zM40 0l510 1440h143l510 -1440h-122l-490 1380h58l-487 -1380h-122zM251 362v109h740v-109h-740z" />
    <glyph glyph-name="Aring" unicode="&#xc5;" horiz-adv-x="1243" 
d="M622 1558q-56 0 -103 28t-75 75t-28 104t28 103.5t75 75t103 28.5q58 0 105 -28.5t74.5 -75t27.5 -103.5t-27.5 -104t-74.5 -75t-105 -28zM622 1655q47 0 78.5 32.5t31.5 77.5q0 46 -31.5 78t-78.5 32q-45 0 -77.5 -32t-32.5 -78q0 -45 32.5 -77.5t77.5 -32.5zM40 0
l510 1440h143l510 -1440h-122l-490 1380h58l-487 -1380h-122zM251 362v109h740v-109h-740z" />
    <glyph glyph-name="AE" unicode="&#xc6;" horiz-adv-x="1823" 
d="M40 0l510 1440h332v-112h-307l73 49l-486 -1377h-122zM251 362v109h656v-109h-656zM833 0v1440h890v-112h-774v-547h654v-112h-654v-557h774v-112h-890z" />
    <glyph glyph-name="Ccedilla" unicode="&#xc7;" horiz-adv-x="1415" 
d="M702 -479q-34 0 -65 8.5t-58 21.5l33 87q48 -18 81 -18q42 0 65 26.5t23 59.5q0 48 -41.5 69t-91.5 37l75 205l96 1l-54 -148q52 -23 86 -63.5t34 -105.5q0 -76 -54 -128t-129 -52zM715 -30q-215 0 -361 95.5t-220 264.5t-74 390t74 390t220 264.5t361 95.5
q251 0 407.5 -130t212.5 -348l-119 -29q-46 181 -171.5 287.5t-329.5 106.5q-177 0 -294.5 -81t-177 -225t-60.5 -331q-2 -187 57.5 -330.5t178.5 -225t296 -81.5q204 0 329.5 107t171.5 287l119 -29q-56 -218 -212.5 -348t-407.5 -130z" />
    <glyph glyph-name="Egrave" unicode="&#xc8;" horiz-adv-x="1130" 
d="M566 1615l-108 290h107l108 -290h-107zM140 0v1440h890v-112h-775v-547h655v-112h-655v-557h775v-112h-890z" />
    <glyph glyph-name="Eacute" unicode="&#xc9;" horiz-adv-x="1130" 
d="M662 1615h-108l108 290h107zM140 0v1440h890v-112h-775v-547h655v-112h-655v-557h775v-112h-890z" />
    <glyph glyph-name="Ecircumflex" unicode="&#xca;" horiz-adv-x="1130" 
d="M303 1615l214 255h114l215 -255h-125l-147 172l-146 -172h-125zM140 0v1440h890v-112h-775v-547h655v-112h-655v-557h775v-112h-890z" />
    <glyph glyph-name="Edieresis" unicode="&#xcb;" horiz-adv-x="1130" 
d="M675 1665v140h140v-140h-140zM304 1665v140h140v-140h-140zM140 0v1440h890v-112h-775v-547h655v-112h-655v-557h775v-112h-890z" />
    <glyph glyph-name="Igrave" unicode="&#xcc;" horiz-adv-x="435" 
d="M162 1615l-108 290h107l108 -290h-107zM160 0v1440h115v-1440h-115z" />
    <glyph glyph-name="Iacute" unicode="&#xcd;" horiz-adv-x="435" 
d="M274 1615h-107l107 290h107zM160 0v1440h115v-1440h-115z" />
    <glyph glyph-name="Icircumflex" unicode="&#xce;" horiz-adv-x="435" 
d="M-55 1615l215 255h114l215 -255h-125l-147 172l-147 -172h-125zM160 0v1440h115v-1440h-115z" />
    <glyph glyph-name="Idieresis" unicode="&#xcf;" horiz-adv-x="435" 
d="M333 1665v140h140v-140h-140zM-38 1665v140h140v-140h-140zM160 0v1440h115v-1440h-115z" />
    <glyph glyph-name="Eth" unicode="&#xd0;" horiz-adv-x="1306" 
d="M20 668v105h615v-105h-615zM123 0v1440h429q25 0 81.5 -1t107.5 -9q162 -22 269 -121.5t160 -252t53 -336.5q0 -185 -53 -337.5t-160 -251.5t-269 -121q-51 -7 -108.5 -8.5t-80.5 -1.5h-429zM244 113h308q45 0 93 2.5t82 8.5q134 24 216 106.5t119.5 209t37.5 280.5
q0 155 -38 281.5t-120 209t-215 105.5q-34 6 -83.5 8.5t-91.5 2.5h-308v-1214z" />
    <glyph glyph-name="Ntilde" unicode="&#xd1;" horiz-adv-x="1346" 
d="M845 1616q-40 0 -79 16t-75.5 36.5t-70 36.5t-63.5 16q-40 0 -51 -30.5t0 -61.5h-88q-21 80 18.5 135.5t118.5 55.5q41 0 80 -16t76 -36.5t70.5 -36.5t62.5 -16q37 0 50.5 29t1.5 66h88q20 -78 -19 -136t-120 -58zM140 0v1440h116l834 -1235v1235h116v-1440h-116
l-834 1237v-1237h-116z" />
    <glyph glyph-name="Ograve" unicode="&#xd2;" horiz-adv-x="1429" 
d="M663 1615l-108 290h108l107 -290h-107zM715 -30q-215 0 -361 95.5t-220 264.5t-74 390t74 390t220 264.5t361 95.5t360.5 -95.5t219.5 -264.5t74 -390t-74 -390t-219.5 -264.5t-360.5 -95.5zM715 83q177 -1 295 80.5t177 225.5t59 331t-59 331t-177 225t-295 81
q-177 1 -294.5 -80t-176.5 -225.5t-61 -331.5t57.5 -330.5t178.5 -225t296 -81.5z" />
    <glyph glyph-name="Oacute" unicode="&#xd3;" horiz-adv-x="1429" 
d="M788 1615h-107l108 290h107zM715 -30q-215 0 -361 95.5t-220 264.5t-74 390t74 390t220 264.5t361 95.5t360.5 -95.5t219.5 -264.5t74 -390t-74 -390t-219.5 -264.5t-360.5 -95.5zM715 83q177 -1 295 80.5t177 225.5t59 331t-59 331t-177 225t-295 81q-177 1 -294.5 -80
t-176.5 -225.5t-61 -331.5t57.5 -330.5t178.5 -225t296 -81.5z" />
    <glyph glyph-name="Ocircumflex" unicode="&#xd4;" horiz-adv-x="1429" 
d="M442 1615l215 255h114l215 -255h-125l-147 172l-147 -172h-125zM715 -30q-215 0 -361 95.5t-220 264.5t-74 390t74 390t220 264.5t361 95.5t360.5 -95.5t219.5 -264.5t74 -390t-74 -390t-219.5 -264.5t-360.5 -95.5zM715 83q177 -1 295 80.5t177 225.5t59 331t-59 331
t-177 225t-295 81q-177 1 -294.5 -80t-176.5 -225.5t-61 -331.5t57.5 -330.5t178.5 -225t296 -81.5z" />
    <glyph glyph-name="Otilde" unicode="&#xd5;" horiz-adv-x="1429" 
d="M715 -30q-215 0 -361 95.5t-220 264.5t-74 390t74 390t220 264.5t361 95.5t360.5 -95.5t219.5 -264.5t74 -390t-74 -390t-219.5 -264.5t-360.5 -95.5zM715 83q177 -1 295 80.5t177 225.5t59 331t-59 331t-177 225t-295 81q-177 1 -294.5 -80t-176.5 -225.5t-61 -331.5
t57.5 -330.5t178.5 -225t296 -81.5zM874 1616q-41 0 -79.5 16t-75 36.5t-70 36.5t-63.5 16q-41 0 -51.5 -30.5t-0.5 -61.5h-88q-20 80 19.5 135.5t117.5 55.5q42 0 81 -16t76 -36.5t70 -36.5t63 -16q37 0 50.5 29t1.5 66h88q20 -78 -19 -136t-120 -58z" />
    <glyph glyph-name="Odieresis" unicode="&#xd6;" horiz-adv-x="1429" 
d="M830 1665v140h140v-140h-140zM459 1665v140h140v-140h-140zM715 -30q-215 0 -361 95.5t-220 264.5t-74 390t74 390t220 264.5t361 95.5t360.5 -95.5t219.5 -264.5t74 -390t-74 -390t-219.5 -264.5t-360.5 -95.5zM715 83q177 -1 295 80.5t177 225.5t59 331t-59 331
t-177 225t-295 81q-177 1 -294.5 -80t-176.5 -225.5t-61 -331.5t57.5 -330.5t178.5 -225t296 -81.5z" />
    <glyph glyph-name="multiply" unicode="&#xd7;" horiz-adv-x="963" 
d="M769 358l-288 287l-287 -287l-74 75l287 287l-287 287l74 74l287 -287l287 287l75 -74l-288 -287l288 -287z" />
    <glyph glyph-name="Oslash" unicode="&#xd8;" horiz-adv-x="1429" 
d="M108 -26l-84 77l193 208l24 25l888 956l19 21l183 199l84 -74l-198 -217l-18 -17l-887 -957l-24 -27zM715 -30q-215 0 -361 95.5t-220 264.5t-74 390t74 390t220 264.5t361 95.5t360.5 -95.5t219.5 -264.5t74 -390t-74 -390t-219.5 -264.5t-360.5 -95.5zM715 83
q177 -1 295 80.5t177 225.5t59 331t-59 331t-177 225t-295 81q-177 1 -294.5 -80t-176.5 -225.5t-61 -331.5t57.5 -330.5t178.5 -225t296 -81.5z" />
    <glyph glyph-name="Ugrave" unicode="&#xd9;" horiz-adv-x="1392" 
d="M664 1615l-107 290h107l108 -290h-108zM696 -30q-162 0 -287.5 67.5t-197 190t-71.5 287.5v925h116v-901q0 -123 41.5 -210.5t108 -142.5t143 -81t147.5 -26t148 26t143 81t107.5 142.5t41.5 210.5v901h116v-925q0 -164 -71.5 -286.5t-197 -190.5t-287.5 -68z" />
    <glyph glyph-name="Uacute" unicode="&#xda;" horiz-adv-x="1392" 
d="M730 1615h-107l108 290h107zM696 -30q-162 0 -287.5 67.5t-197 190t-71.5 287.5v925h116v-901q0 -123 41.5 -210.5t108 -142.5t143 -81t147.5 -26t148 26t143 81t107.5 142.5t41.5 210.5v901h116v-925q0 -164 -71.5 -286.5t-197 -190.5t-287.5 -68z" />
    <glyph glyph-name="Ucircumflex" unicode="&#xdb;" horiz-adv-x="1392" 
d="M424 1615l214 255h114l215 -255h-125l-147 172l-146 -172h-125zM696 -30q-162 0 -287.5 67.5t-197 190t-71.5 287.5v925h116v-901q0 -123 41.5 -210.5t108 -142.5t143 -81t147.5 -26t148 26t143 81t107.5 142.5t41.5 210.5v901h116v-925q0 -164 -71.5 -286.5t-197 -190.5
t-287.5 -68z" />
    <glyph glyph-name="Udieresis" unicode="&#xdc;" horiz-adv-x="1392" 
d="M811 1665v140h140v-140h-140zM441 1665v140h140v-140h-140zM696 -30q-162 0 -287.5 67.5t-197 190t-71.5 287.5v925h116v-901q0 -123 41.5 -210.5t108 -142.5t143 -81t147.5 -26t148 26t143 81t107.5 142.5t41.5 210.5v901h116v-925q0 -164 -71.5 -286.5t-197 -190.5
t-287.5 -68z" />
    <glyph glyph-name="Yacute" unicode="&#xdd;" horiz-adv-x="1075" 
d="M568 1615h-107l107 290h107zM480 0v608l-480 832h133l405 -700l404 700h133l-479 -832v-608h-116z" />
    <glyph glyph-name="Thorn" unicode="&#xde;" horiz-adv-x="1166" 
d="M140 0v1440h116v-281h409q79 0 153 -28q45 -16 85.5 -42.5t72.5 -61.5q62 -60 96 -141t34 -166q0 -80 -30 -154.5t-81 -134.5q-59 -69 -147.5 -109.5t-182.5 -40.5h-409v-281h-116zM256 393h409q69 0 134 32t110 86q36 44 57 98t19 111q-1 66 -26 126t-71 106
q-42 43 -102 69t-121 26h-409v-654z" />
    <glyph glyph-name="germandbls" unicode="&#xdf;" horiz-adv-x="1174" 
d="M603 -28q-48 0 -94 5.5t-88 22.5v114q44 -15 85 -20.5t91 -5.5q150 0 243 83.5t93 235.5q0 141 -110 222.5t-290 84.5v109q71 9 133 39.5t100 87t38 142.5q0 125 -73 195.5t-197 70.5q-85 0 -154.5 -38.5t-96.5 -120.5q-12 -37 -16.5 -79.5t-4.5 -86.5v-1033h-122v1063
q0 53 6.5 99.5t20.5 82.5q29 74 80 124.5t123 75.5t163 25q116 0 204.5 -44t138 -129t49.5 -206q0 -108 -49 -191t-142 -114q46 -5 101.5 -31.5t105 -74t81.5 -116t32 -158.5q0 -196 -115.5 -315t-335.5 -119z" />
    <glyph glyph-name="agrave" unicode="&#xe0;" horiz-adv-x="1098" 
d="M512 1255l-107 290h107l107 -290h-107zM452 -30q-125 0 -207.5 44t-123.5 116.5t-41 157.5q0 92 38.5 154t103 100t142.5 57q89 20 192 34.5t196.5 25.5t152.5 19l-42 -25q4 175 -65.5 260.5t-244.5 85.5q-123 0 -202.5 -55.5t-111.5 -171.5l-118 33q37 147 149 226
t287 79q149 0 250.5 -58t141.5 -163q17 -43 23 -100.5t6 -115.5v-673h-105v284l39 -10q-49 -146 -171 -225t-289 -79zM458 76q110 0 193 39.5t134.5 111t65.5 168.5q10 54 11 117t1 93l50 -32q-65 -8 -155.5 -17t-184.5 -22t-170 -33q-47 -13 -94.5 -37.5t-79 -67.5
t-31.5 -109q0 -49 24.5 -98t81.5 -81t154 -32z" />
    <glyph glyph-name="aacute" unicode="&#xe1;" horiz-adv-x="1098" 
d="M612 1255h-107l107 290h107zM452 -30q-125 0 -207.5 44t-123.5 116.5t-41 157.5q0 92 38.5 154t103 100t142.5 57q89 20 192 34.5t196.5 25.5t152.5 19l-42 -25q4 175 -65.5 260.5t-244.5 85.5q-123 0 -202.5 -55.5t-111.5 -171.5l-118 33q37 147 149 226t287 79
q149 0 250.5 -58t141.5 -163q17 -43 23 -100.5t6 -115.5v-673h-105v284l39 -10q-49 -146 -171 -225t-289 -79zM458 76q110 0 193 39.5t134.5 111t65.5 168.5q10 54 11 117t1 93l50 -32q-65 -8 -155.5 -17t-184.5 -22t-170 -33q-47 -13 -94.5 -37.5t-79 -67.5t-31.5 -109
q0 -49 24.5 -98t81.5 -81t154 -32z" />
    <glyph glyph-name="acircumflex" unicode="&#xe2;" horiz-adv-x="1098" 
d="M293 1255l214 255h114l215 -255h-125l-147 172l-146 -172h-125zM452 -30q-125 0 -207.5 44t-123.5 116.5t-41 157.5q0 92 38.5 154t103 100t142.5 57q89 20 192 34.5t196.5 25.5t152.5 19l-42 -25q4 175 -65.5 260.5t-244.5 85.5q-123 0 -202.5 -55.5t-111.5 -171.5
l-118 33q37 147 149 226t287 79q149 0 250.5 -58t141.5 -163q17 -43 23 -100.5t6 -115.5v-673h-105v284l39 -10q-49 -146 -171 -225t-289 -79zM458 76q110 0 193 39.5t134.5 111t65.5 168.5q10 54 11 117t1 93l50 -32q-65 -8 -155.5 -17t-184.5 -22t-170 -33
q-47 -13 -94.5 -37.5t-79 -67.5t-31.5 -109q0 -49 24.5 -98t81.5 -81t154 -32z" />
    <glyph glyph-name="atilde" unicode="&#xe3;" horiz-adv-x="1098" 
d="M717 1256q-41 0 -79.5 16t-75.5 36.5t-70 36.5t-63 16q-41 0 -51.5 -30.5t-0.5 -61.5h-88q-20 80 19 135.5t118 55.5q42 0 81 -16t75.5 -36.5t70 -36.5t63.5 -16q36 0 50 29t1 66h88q21 -78 -18 -136t-120 -58zM452 -30q-125 0 -207.5 44t-123.5 116.5t-41 157.5
q0 92 38.5 154t103 100t142.5 57q89 20 192 34.5t196.5 25.5t152.5 19l-42 -25q4 175 -65.5 260.5t-244.5 85.5q-123 0 -202.5 -55.5t-111.5 -171.5l-118 33q37 147 149 226t287 79q149 0 250.5 -58t141.5 -163q17 -43 23 -100.5t6 -115.5v-673h-105v284l39 -10
q-49 -146 -171 -225t-289 -79zM458 76q110 0 193 39.5t134.5 111t65.5 168.5q10 54 11 117t1 93l50 -32q-65 -8 -155.5 -17t-184.5 -22t-170 -33q-47 -13 -94.5 -37.5t-79 -67.5t-31.5 -109q0 -49 24.5 -98t81.5 -81t154 -32z" />
    <glyph glyph-name="adieresis" unicode="&#xe4;" horiz-adv-x="1098" 
d="M689 1305v140h140v-140h-140zM318 1305v140h140v-140h-140zM452 -30q-125 0 -207.5 44t-123.5 116.5t-41 157.5q0 92 38.5 154t103 100t142.5 57q89 20 192 34.5t196.5 25.5t152.5 19l-42 -25q4 175 -65.5 260.5t-244.5 85.5q-123 0 -202.5 -55.5t-111.5 -171.5l-118 33
q37 147 149 226t287 79q149 0 250.5 -58t141.5 -163q17 -43 23 -100.5t6 -115.5v-673h-105v284l39 -10q-49 -146 -171 -225t-289 -79zM458 76q110 0 193 39.5t134.5 111t65.5 168.5q10 54 11 117t1 93l50 -32q-65 -8 -155.5 -17t-184.5 -22t-170 -33q-47 -13 -94.5 -37.5
t-79 -67.5t-31.5 -109q0 -49 24.5 -98t81.5 -81t154 -32z" />
    <glyph glyph-name="aring" unicode="&#xe5;" horiz-adv-x="1098" 
d="M564 1198q-57 0 -104 28t-75 75t-28 104t28 103.5t75 75t104 28.5t104 -28.5t74.5 -75t27.5 -103.5t-27.5 -104t-74.5 -75t-104 -28zM564 1295q46 0 78 32.5t32 77.5q0 46 -32 78t-78 32q-45 0 -77.5 -32t-32.5 -78q0 -45 32.5 -77.5t77.5 -32.5zM452 -30
q-125 0 -207.5 44t-123.5 116.5t-41 157.5q0 92 38.5 154t103 100t142.5 57q89 20 192 34.5t196.5 25.5t152.5 19l-42 -25q4 175 -65.5 260.5t-244.5 85.5q-123 0 -202.5 -55.5t-111.5 -171.5l-118 33q37 147 149 226t287 79q149 0 250.5 -58t141.5 -163q17 -43 23 -100.5
t6 -115.5v-673h-105v284l39 -10q-49 -146 -171 -225t-289 -79zM458 76q110 0 193 39.5t134.5 111t65.5 168.5q10 54 11 117t1 93l50 -32q-65 -8 -155.5 -17t-184.5 -22t-170 -33q-47 -13 -94.5 -37.5t-79 -67.5t-31.5 -109q0 -49 24.5 -98t81.5 -81t154 -32z" />
    <glyph glyph-name="ae" unicode="&#xe6;" horiz-adv-x="1888" 
d="M1343 -30q-153 0 -260 73t-162.5 201.5t-55.5 294.5q0 170 56 298.5t163.5 200.5t259.5 72q156 0 260 -76t155 -211.5t48 -315.5h-114v40q-5 210 -89 332t-263 122q-122 0 -202 -58.5t-119.5 -162.5t-39.5 -240q0 -207 91.5 -332.5t269.5 -125.5q113 0 203 56t142 170
l98 -46q-40 -95 -106 -160t-151 -98.5t-184 -33.5zM458 75q124 0 220 56t139 144q25 53 34.5 113t10.5 107t1 60l20 -39l-330 -4q-46 -1 -106.5 -6t-117 -25t-94 -65t-37.5 -124q0 -105 70 -161t190 -56zM461 -30q-179 0 -280 86.5t-101 235.5q0 91 34.5 149.5t90 92
t118.5 49t121.5 20t99.5 5.5l331 6l-13 -19q7 132 -22 222t-98.5 136t-183.5 46t-202.5 -49t-120.5 -167l-114 36q24 96 87 160.5t153.5 97.5t196.5 33q166 0 266 -72.5t135 -202.5q12 -42 15.5 -83.5t3.5 -80.5l-45 -386q-41 -121 -116.5 -190t-168.5 -97t-187 -28z
M939 507v105h806v-105h-806z" />
    <glyph glyph-name="ccedilla" unicode="&#xe7;" horiz-adv-x="1093" 
d="M528 -479q-35 0 -65.5 8.5t-58.5 21.5l33 87q48 -18 82 -18q42 0 64.5 26.5t22.5 59.5q0 48 -41 69t-92 37l75 205l96 1l-54 -148q52 -23 86 -63.5t34 -105.5q0 -76 -54 -128t-128 -52zM581 -30q-162 0 -273 72.5t-168.5 201t-59.5 296.5q2 171 60.5 299.5t169.5 199.5
t272 71q157 0 276.5 -75.5t165.5 -207.5l-112 -41q-41 101 -129 156.5t-202 55.5q-128 0 -211 -58.5t-124 -161.5t-43 -238q3 -207 97.5 -332.5t280.5 -125.5q115 0 199.5 53t129.5 154l114 -39q-63 -137 -176 -208.5t-267 -71.5z" />
    <glyph glyph-name="egrave" unicode="&#xe8;" horiz-adv-x="1158" 
d="M547 1255l-108 290h108l107 -290h-107zM585 -30q-155 0 -268 69.5t-175 197t-62 301.5q0 177 61.5 305.5t174 197.5t267.5 69q157 0 268.5 -71.5t170 -206.5t55.5 -325h-120v40q-5 222 -100 338t-272 116q-183 0 -282.5 -120.5t-99.5 -340.5q0 -218 99.5 -338t280.5 -120
q125 0 218.5 58.5t148.5 167.5l104 -46q-65 -140 -188 -216t-281 -76zM159 507v104h853v-104h-853z" />
    <glyph glyph-name="eacute" unicode="&#xe9;" horiz-adv-x="1158" 
d="M657 1255h-107l108 290h107zM585 -30q-155 0 -268 69.5t-175 197t-62 301.5q0 177 61.5 305.5t174 197.5t267.5 69q157 0 268.5 -71.5t170 -206.5t55.5 -325h-120v40q-5 222 -100 338t-272 116q-183 0 -282.5 -120.5t-99.5 -340.5q0 -218 99.5 -338t280.5 -120
q125 0 218.5 58.5t148.5 167.5l104 -46q-65 -140 -188 -216t-281 -76zM159 507v104h853v-104h-853z" />
    <glyph glyph-name="ecircumflex" unicode="&#xea;" horiz-adv-x="1158" 
d="M310 1255l215 255h114l215 -255h-125l-147 172l-147 -172h-125zM585 -30q-155 0 -268 69.5t-175 197t-62 301.5q0 177 61.5 305.5t174 197.5t267.5 69q157 0 268.5 -71.5t170 -206.5t55.5 -325h-120v40q-5 222 -100 338t-272 116q-183 0 -282.5 -120.5t-99.5 -340.5
q0 -218 99.5 -338t280.5 -120q125 0 218.5 58.5t148.5 167.5l104 -46q-65 -140 -188 -216t-281 -76zM159 507v104h853v-104h-853z" />
    <glyph glyph-name="edieresis" unicode="&#xeb;" horiz-adv-x="1158" 
d="M698 1305v140h140v-140h-140zM327 1305v140h140v-140h-140zM585 -30q-155 0 -268 69.5t-175 197t-62 301.5q0 177 61.5 305.5t174 197.5t267.5 69q157 0 268.5 -71.5t170 -206.5t55.5 -325h-120v40q-5 222 -100 338t-272 116q-183 0 -282.5 -120.5t-99.5 -340.5
q0 -218 99.5 -338t280.5 -120q125 0 218.5 58.5t148.5 167.5l104 -46q-65 -140 -188 -216t-281 -76zM159 507v104h853v-104h-853z" />
    <glyph glyph-name="igrave" unicode="&#xec;" horiz-adv-x="435" 
d="M162 1255l-108 290h107l108 -290h-107zM160 0v1080h115v-1080h-115z" />
    <glyph glyph-name="iacute" unicode="&#xed;" horiz-adv-x="435" 
d="M274 1255h-107l107 290h107zM160 0v1080h115v-1080h-115z" />
    <glyph glyph-name="icircumflex" unicode="&#xee;" horiz-adv-x="435" 
d="M-51 1255l214 255h114l215 -255h-125l-147 172l-146 -172h-125zM160 0v1080h115v-1080h-115z" />
    <glyph glyph-name="idieresis" unicode="&#xef;" horiz-adv-x="435" 
d="M333 1305v140h140v-140h-140zM-38 1305v140h140v-140h-140zM160 0v1080h115v-1080h-115z" />
    <glyph glyph-name="eth" unicode="&#xf0;" horiz-adv-x="1155" 
d="M579 -30q-156 -2 -267 64.5t-170.5 187.5t-61.5 282q2 163 62 283.5t171.5 186t265.5 64.5q108 1 208 -41t166 -128q-18 148 -82 257t-170.5 172.5t-250.5 73.5l16 103q172 -9 299.5 -87t201.5 -217q44 -77 68 -165t32 -207.5t8 -291.5q0 -164 -60 -285.5t-171.5 -187.5
t-264.5 -64zM579 80q184 0 280 115t96 311q0 197 -99 310.5t-277 111.5q-184 2 -281.5 -113.5t-97.5 -310.5q0 -199 98 -311.5t281 -112.5zM612 1141l-80 66l287 357l79 -65z" />
    <glyph glyph-name="ntilde" unicode="&#xf1;" 
d="M728 1256q-40 0 -79 16t-75.5 36.5t-70 36.5t-63.5 16q-40 0 -51 -30.5t0 -61.5h-88q-21 80 18.5 135.5t118.5 55.5q41 0 80 -16t76 -36.5t70.5 -36.5t62.5 -16q37 0 50.5 29t1.5 66h88q20 -78 -19 -136t-120 -58zM931 0v562q0 102 -20.5 182t-62 136t-104 85t-147.5 29
q-88 0 -152.5 -30.5t-106 -85.5t-62 -130.5t-20.5 -164.5l-91 11q0 175 59.5 288.5t160.5 168t227 54.5q89 0 159.5 -26t122.5 -73.5t86 -112t50.5 -141.5t16.5 -161v-591h-116zM140 0v1080h105v-243h11v-837h-116z" />
    <glyph glyph-name="ograve" unicode="&#xf2;" horiz-adv-x="1166" 
d="M521 1255l-107 290h107l107 -290h-107zM583 -30q-161 0 -273 73t-171 202t-59 297q0 169 60 297.5t172.5 199.5t270.5 71q161 0 273.5 -72.5t171 -200.5t58.5 -295q0 -171 -59 -299.5t-172 -200.5t-272 -72zM583 82q191 0 285.5 128t94.5 332q0 208 -95 332t-285 124
q-129 0 -213 -58.5t-125.5 -161t-41.5 -236.5q0 -208 96.5 -334t283.5 -126z" />
    <glyph glyph-name="oacute" unicode="&#xf3;" horiz-adv-x="1166" 
d="M634 1255h-107l108 290h107zM583 -30q-161 0 -273 73t-171 202t-59 297q0 169 60 297.5t172.5 199.5t270.5 71q161 0 273.5 -72.5t171 -200.5t58.5 -295q0 -171 -59 -299.5t-172 -200.5t-272 -72zM583 82q191 0 285.5 128t94.5 332q0 208 -95 332t-285 124
q-129 0 -213 -58.5t-125.5 -161t-41.5 -236.5q0 -208 96.5 -334t283.5 -126z" />
    <glyph glyph-name="ocircumflex" unicode="&#xf4;" horiz-adv-x="1166" 
d="M311 1255l214 255h114l215 -255h-125l-147 172l-146 -172h-125zM583 -30q-161 0 -273 73t-171 202t-59 297q0 169 60 297.5t172.5 199.5t270.5 71q161 0 273.5 -72.5t171 -200.5t58.5 -295q0 -171 -59 -299.5t-172 -200.5t-272 -72zM583 82q191 0 285.5 128t94.5 332
q0 208 -95 332t-285 124q-129 0 -213 -58.5t-125.5 -161t-41.5 -236.5q0 -208 96.5 -334t283.5 -126z" />
    <glyph glyph-name="otilde" unicode="&#xf5;" horiz-adv-x="1166" 
d="M728 1256q-40 0 -79 16t-75.5 36.5t-70 36.5t-63.5 16q-40 0 -51 -30.5t0 -61.5h-88q-21 80 18.5 135.5t118.5 55.5q41 0 80 -16t76 -36.5t70.5 -36.5t62.5 -16q37 0 50.5 29t1.5 66h88q20 -78 -19 -136t-120 -58zM583 -30q-161 0 -273 73t-171 202t-59 297
q0 169 60 297.5t172.5 199.5t270.5 71q161 0 273.5 -72.5t171 -200.5t58.5 -295q0 -171 -59 -299.5t-172 -200.5t-272 -72zM583 82q191 0 285.5 128t94.5 332q0 208 -95 332t-285 124q-129 0 -213 -58.5t-125.5 -161t-41.5 -236.5q0 -208 96.5 -334t283.5 -126z" />
    <glyph glyph-name="odieresis" unicode="&#xf6;" horiz-adv-x="1166" 
d="M698 1305v140h140v-140h-140zM328 1305v140h140v-140h-140zM583 -30q-161 0 -273 73t-171 202t-59 297q0 169 60 297.5t172.5 199.5t270.5 71q161 0 273.5 -72.5t171 -200.5t58.5 -295q0 -171 -59 -299.5t-172 -200.5t-272 -72zM583 82q191 0 285.5 128t94.5 332
q0 208 -95 332t-285 124q-129 0 -213 -58.5t-125.5 -161t-41.5 -236.5q0 -208 96.5 -334t283.5 -126z" />
    <glyph glyph-name="divide" unicode="&#xf7;" horiz-adv-x="1080" 
d="M120 668v105h840v-105h-840zM484 902v145h145v-145h-145zM484 418v145h145v-145h-145z" />
    <glyph glyph-name="oslash" unicode="&#xf8;" horiz-adv-x="1166" 
d="M116 -5l-80 80l167 167l32 25l649 647l25 32l141 139l80 -79l-163 -160l-29 -23l-635 -635l-27 -33zM583 -30q-161 0 -273 73t-171 202t-59 297q0 169 60 297.5t172.5 199.5t270.5 71q161 0 273.5 -72.5t171 -200.5t58.5 -295q0 -171 -59 -299.5t-172 -200.5t-272 -72z
M583 82q191 0 285.5 128t94.5 332q0 208 -95 332t-285 124q-129 0 -213 -58.5t-125.5 -161t-41.5 -236.5q0 -208 96.5 -334t283.5 -126z" />
    <glyph glyph-name="ugrave" unicode="&#xf9;" 
d="M543 1255l-108 290h107l108 -290h-107zM555 -25q-89 0 -159.5 26t-122.5 73.5t-86 112t-50.5 141.5t-16.5 161v591h116v-562q0 -102 20.5 -182t62 -136t104 -85t147.5 -29q88 0 152.5 30.5t106 85.5t62 130.5t20.5 164.5l91 -11q0 -175 -59.5 -288.5t-160.5 -168
t-227 -54.5zM922 0v243h-11v837h116v-1080h-105z" />
    <glyph glyph-name="uacute" unicode="&#xfa;" 
d="M623 1255h-108l108 290h107zM555 -25q-89 0 -159.5 26t-122.5 73.5t-86 112t-50.5 141.5t-16.5 161v591h116v-562q0 -102 20.5 -182t62 -136t104 -85t147.5 -29q88 0 152.5 30.5t106 85.5t62 130.5t20.5 164.5l91 -11q0 -175 -59.5 -288.5t-160.5 -168t-227 -54.5zM922 0
v243h-11v837h116v-1080h-105z" />
    <glyph glyph-name="ucircumflex" unicode="&#xfb;" 
d="M300 1255l215 255h114l215 -255h-125l-147 172l-147 -172h-125zM555 -25q-89 0 -159.5 26t-122.5 73.5t-86 112t-50.5 141.5t-16.5 161v591h116v-562q0 -102 20.5 -182t62 -136t104 -85t147.5 -29q88 0 152.5 30.5t106 85.5t62 130.5t20.5 164.5l91 -11
q0 -175 -59.5 -288.5t-160.5 -168t-227 -54.5zM922 0v243h-11v837h116v-1080h-105z" />
    <glyph glyph-name="udieresis" unicode="&#xfc;" 
d="M688 1305v140h140v-140h-140zM317 1305v140h140v-140h-140zM555 -25q-89 0 -159.5 26t-122.5 73.5t-86 112t-50.5 141.5t-16.5 161v591h116v-562q0 -102 20.5 -182t62 -136t104 -85t147.5 -29q88 0 152.5 30.5t106 85.5t62 130.5t20.5 164.5l91 -11q0 -175 -59.5 -288.5
t-160.5 -168t-227 -54.5zM922 0v243h-11v837h116v-1080h-105z" />
    <glyph glyph-name="yacute" unicode="&#xfd;" horiz-adv-x="1033" 
d="M566 1255h-107l107 290h107zM298 -480l210 565l2 -168l-473 1163h123l406 -1010h-64l369 1010h121l-574 -1560h-120z" />
    <glyph glyph-name="thorn" unicode="&#xfe;" horiz-adv-x="1168" 
d="M140 796v644h116v-644h-116zM613 -30q-146 0 -247 76t-154 205t-53 291q0 163 53 291.5t157 202.5t255 74q147 0 251 -75t158.5 -204t54.5 -289q0 -162 -55.5 -291.5t-161 -205t-258.5 -75.5zM140 -480v1560h105v-832h10v-728h-115zM606 80q119 0 198.5 61t120 165.5
t40.5 235.5q0 130 -39.5 233.5t-119 164t-202.5 60.5q-119 0 -199 -58.5t-120 -162.5t-40 -237q0 -132 39.5 -236.5t120 -165t201.5 -60.5z" />
    <glyph glyph-name="ydieresis" unicode="&#xff;" horiz-adv-x="1033" 
d="M641 1305v140h140v-140h-140zM270 1305v140h140v-140h-140zM298 -480l210 565l2 -168l-473 1163h123l406 -1010h-64l369 1010h121l-574 -1560h-120z" />
    <glyph glyph-name="Amacron" unicode="&#x100;" horiz-adv-x="1243" 
d="M377 1680v105h491v-105h-491zM40 0l510 1440h143l510 -1440h-122l-490 1380h58l-487 -1380h-122zM251 362v109h740v-109h-740z" />
    <glyph glyph-name="amacron" unicode="&#x101;" horiz-adv-x="1098" 
d="M348 1320v105h491v-105h-491zM452 -30q-125 0 -207.5 44t-123.5 116.5t-41 157.5q0 92 38.5 154t103 100t142.5 57q89 20 192 34.5t196.5 25.5t152.5 19l-42 -25q4 175 -65.5 260.5t-244.5 85.5q-123 0 -202.5 -55.5t-111.5 -171.5l-118 33q37 147 149 226t287 79
q149 0 250.5 -58t141.5 -163q17 -43 23 -100.5t6 -115.5v-673h-105v284l39 -10q-49 -146 -171 -225t-289 -79zM458 76q110 0 193 39.5t134.5 111t65.5 168.5q10 54 11 117t1 93l50 -32q-65 -8 -155.5 -17t-184.5 -22t-170 -33q-47 -13 -94.5 -37.5t-79 -67.5t-31.5 -109
q0 -49 24.5 -98t81.5 -81t154 -32z" />
    <glyph glyph-name="Abreve" unicode="&#x102;" horiz-adv-x="1243" 
d="M622 1570q-67 0 -122 33t-88 88t-33 122h100q0 -58 42.5 -100.5t100.5 -42.5q60 0 101.5 42.5t41.5 100.5h100q0 -67 -32.5 -122t-87.5 -88t-123 -33zM40 0l510 1440h143l510 -1440h-122l-490 1380h58l-487 -1380h-122zM251 362v109h740v-109h-740z" />
    <glyph glyph-name="abreve" unicode="&#x103;" horiz-adv-x="1098" 
d="M565 1210q-67 0 -122.5 33t-88 88t-32.5 122h100q0 -58 42.5 -100.5t100.5 -42.5q60 0 101.5 42.5t41.5 100.5h100q0 -67 -32.5 -122t-87.5 -88t-123 -33zM452 -30q-125 0 -207.5 44t-123.5 116.5t-41 157.5q0 92 38.5 154t103 100t142.5 57q89 20 192 34.5t196.5 25.5
t152.5 19l-42 -25q4 175 -65.5 260.5t-244.5 85.5q-123 0 -202.5 -55.5t-111.5 -171.5l-118 33q37 147 149 226t287 79q149 0 250.5 -58t141.5 -163q17 -43 23 -100.5t6 -115.5v-673h-105v284l39 -10q-49 -146 -171 -225t-289 -79zM458 76q110 0 193 39.5t134.5 111
t65.5 168.5q10 54 11 117t1 93l50 -32q-65 -8 -155.5 -17t-184.5 -22t-170 -33q-47 -13 -94.5 -37.5t-79 -67.5t-31.5 -109q0 -49 24.5 -98t81.5 -81t154 -32z" />
    <glyph glyph-name="Aogonek" unicode="&#x104;" horiz-adv-x="1243" 
d="M1050 -483q-50 0 -91.5 26t-67 69t-25.5 93q0 62 36.5 128t96.5 129t133 115l71 -77q-61 -38 -113 -88.5t-84 -104t-32 -99.5q0 -41 25 -66t57 -25q25 0 51 15t47 38l58 -67q-34 -43 -76 -64.5t-86 -21.5zM40 0l510 1440h143l510 -1440h-122l-490 1380h58l-487 -1380
h-122zM251 362v109h740v-109h-740z" />
    <glyph glyph-name="aogonek" unicode="&#x105;" horiz-adv-x="1098" 
d="M825 -483q-50 0 -92 26t-67 69t-25 93q0 62 36 128t96.5 129t133.5 115l71 -77q-61 -38 -113 -88.5t-84 -104t-32 -99.5q0 -41 25 -66t57 -25q25 0 51 15t47 38l58 -67q-34 -43 -76 -64.5t-86 -21.5zM452 -30q-125 0 -207.5 44t-123.5 116.5t-41 157.5q0 92 38.5 154
t103 100t142.5 57q89 20 192 34.5t196.5 25.5t152.5 19l-42 -25q4 175 -65.5 260.5t-244.5 85.5q-123 0 -202.5 -55.5t-111.5 -171.5l-118 33q37 147 149 226t287 79q149 0 250.5 -58t141.5 -163q17 -43 23 -100.5t6 -115.5v-673h-105v284l39 -10q-49 -146 -171 -225
t-289 -79zM458 76q110 0 193 39.5t134.5 111t65.5 168.5q10 54 11 117t1 93l50 -32q-65 -8 -155.5 -17t-184.5 -22t-170 -33q-47 -13 -94.5 -37.5t-79 -67.5t-31.5 -109q0 -49 24.5 -98t81.5 -81t154 -32z" />
    <glyph glyph-name="Cacute" unicode="&#x106;" horiz-adv-x="1415" 
d="M778 1615h-107l108 290h107zM715 -30q-215 0 -361 95.5t-220 264.5t-74 390t74 390t220 264.5t361 95.5q251 0 407.5 -130t212.5 -348l-119 -29q-46 181 -171.5 287.5t-329.5 106.5q-177 0 -294.5 -81t-177 -225t-60.5 -331q-2 -187 57.5 -330.5t178.5 -225t296 -81.5
q204 0 329.5 107t171.5 287l119 -29q-56 -218 -212.5 -348t-407.5 -130z" />
    <glyph glyph-name="cacute" unicode="&#x107;" horiz-adv-x="1093" 
d="M653 1255h-107l108 290h107zM581 -30q-162 0 -273 72.5t-168.5 201t-59.5 296.5q2 171 60.5 299.5t169.5 199.5t272 71q157 0 276.5 -75.5t165.5 -207.5l-112 -41q-41 101 -129 156.5t-202 55.5q-128 0 -211 -58.5t-124 -161.5t-43 -238q3 -207 97.5 -332.5t280.5 -125.5
q115 0 199.5 53t129.5 154l114 -39q-63 -137 -176 -208.5t-267 -71.5z" />
    <glyph glyph-name="Ccircumflex" unicode="&#x108;" horiz-adv-x="1415" 
d="M443 1615l215 255h114l215 -255h-125l-147 172l-147 -172h-125zM715 -30q-215 0 -361 95.5t-220 264.5t-74 390t74 390t220 264.5t361 95.5q251 0 407.5 -130t212.5 -348l-119 -29q-46 181 -171.5 287.5t-329.5 106.5q-177 0 -294.5 -81t-177 -225t-60.5 -331
q-2 -187 57.5 -330.5t178.5 -225t296 -81.5q204 0 329.5 107t171.5 287l119 -29q-56 -218 -212.5 -348t-407.5 -130z" />
    <glyph glyph-name="ccircumflex" unicode="&#x109;" horiz-adv-x="1093" 
d="M311 1255l214 255h114l215 -255h-125l-147 172l-146 -172h-125zM581 -30q-162 0 -273 72.5t-168.5 201t-59.5 296.5q2 171 60.5 299.5t169.5 199.5t272 71q157 0 276.5 -75.5t165.5 -207.5l-112 -41q-41 101 -129 156.5t-202 55.5q-128 0 -211 -58.5t-124 -161.5
t-43 -238q3 -207 97.5 -332.5t280.5 -125.5q115 0 199.5 53t129.5 154l114 -39q-63 -137 -176 -208.5t-267 -71.5z" />
    <glyph glyph-name="Cdotaccent" unicode="&#x10a;" horiz-adv-x="1415" 
d="M660 1675v145h145v-145h-145zM715 -30q-215 0 -361 95.5t-220 264.5t-74 390t74 390t220 264.5t361 95.5q251 0 407.5 -130t212.5 -348l-119 -29q-46 181 -171.5 287.5t-329.5 106.5q-177 0 -294.5 -81t-177 -225t-60.5 -331q-2 -187 57.5 -330.5t178.5 -225t296 -81.5
q204 0 329.5 107t171.5 287l119 -29q-56 -218 -212.5 -348t-407.5 -130z" />
    <glyph glyph-name="cdotaccent" unicode="&#x10b;" horiz-adv-x="1093" 
d="M523 1315v145h145v-145h-145zM581 -30q-162 0 -273 72.5t-168.5 201t-59.5 296.5q2 171 60.5 299.5t169.5 199.5t272 71q157 0 276.5 -75.5t165.5 -207.5l-112 -41q-41 101 -129 156.5t-202 55.5q-128 0 -211 -58.5t-124 -161.5t-43 -238q3 -207 97.5 -332.5
t280.5 -125.5q115 0 199.5 53t129.5 154l114 -39q-63 -137 -176 -208.5t-267 -71.5z" />
    <glyph glyph-name="Ccaron" unicode="&#x10c;" horiz-adv-x="1415" 
d="M493 1870h125l146 -172l147 172h125l-215 -255h-114zM715 -30q-215 0 -361 95.5t-220 264.5t-74 390t74 390t220 264.5t361 95.5q251 0 407.5 -130t212.5 -348l-119 -29q-46 181 -171.5 287.5t-329.5 106.5q-177 0 -294.5 -81t-177 -225t-60.5 -331q-2 -187 57.5 -330.5
t178.5 -225t296 -81.5q204 0 329.5 107t171.5 287l119 -29q-56 -218 -212.5 -348t-407.5 -130z" />
    <glyph glyph-name="ccaron" unicode="&#x10d;" horiz-adv-x="1093" 
d="M309 1510h125l147 -172l147 172h125l-215 -255h-114zM581 -30q-162 0 -273 72.5t-168.5 201t-59.5 296.5q2 171 60.5 299.5t169.5 199.5t272 71q157 0 276.5 -75.5t165.5 -207.5l-112 -41q-41 101 -129 156.5t-202 55.5q-128 0 -211 -58.5t-124 -161.5t-43 -238
q3 -207 97.5 -332.5t280.5 -125.5q115 0 199.5 53t129.5 154l114 -39q-63 -137 -176 -208.5t-267 -71.5z" />
    <glyph glyph-name="Dcaron" unicode="&#x10e;" horiz-adv-x="1323" 
d="M307 1870h125l147 -172l146 172h125l-214 -255h-114zM140 0v1440h429q25 0 81.5 -1t107.5 -9q162 -22 269 -121.5t160 -252t53 -336.5q0 -185 -53 -337.5t-160 -251.5t-269 -121q-51 -7 -108.5 -8.5t-80.5 -1.5h-429zM261 113h308q45 0 93 2.5t82 8.5q134 24 216 106.5
t119.5 209t37.5 280.5q0 155 -38 281.5t-120 209t-215 105.5q-34 6 -83.5 8.5t-91.5 2.5h-308v-1214z" />
    <glyph glyph-name="dcaron" unicode="&#x10f;" horiz-adv-x="1391" 
d="M555 -30q-153 0 -258.5 75.5t-161 205t-55.5 291.5q0 160 55 289t158.5 204t250.5 75q151 0 255 -74t157 -202.5t53 -291.5q0 -162 -53 -291t-154 -205t-247 -76zM562 80q121 0 201.5 60.5t120 165t39.5 236.5q0 133 -40 237t-120 162.5t-199 58.5q-123 0 -203 -60.5
t-119 -164t-39 -233.5q0 -131 40.5 -235.5t120 -165.5t198.5 -61zM923 0v832h-10v608h115v-1440h-105zM1243 1068l8 62q37 -2 52 16.5t17.5 49t0.5 65.5h-78v195h145v-245q0 -79 -41 -118t-104 -25z" />
    <glyph glyph-name="Dcroat" unicode="&#x110;" horiz-adv-x="1306" 
d="M20 668v105h615v-105h-615zM123 0v1440h429q25 0 81.5 -1t107.5 -9q162 -22 269 -121.5t160 -252t53 -336.5q0 -185 -53 -337.5t-160 -251.5t-269 -121q-51 -7 -108.5 -8.5t-80.5 -1.5h-429zM244 113h308q45 0 93 2.5t82 8.5q134 24 216 106.5t119.5 209t37.5 280.5
q0 155 -38 281.5t-120 209t-215 105.5q-34 6 -83.5 8.5t-91.5 2.5h-308v-1214z" />
    <glyph glyph-name="dcroat" unicode="&#x111;" horiz-adv-x="1168" 
d="M682 1193v105h490v-105h-490zM555 -30q-153 0 -258.5 75.5t-161 205t-55.5 291.5q0 160 55 289t158.5 204t250.5 75q151 0 255 -74t157 -202.5t53 -291.5q0 -162 -53 -291t-154 -205t-247 -76zM562 80q121 0 201.5 60.5t120 165t39.5 236.5q0 133 -40 237t-120 162.5
t-199 58.5q-123 0 -203 -60.5t-119 -164t-39 -233.5q0 -131 40.5 -235.5t120 -165.5t198.5 -61zM923 0v832h-10v608h115v-1440h-105z" />
    <glyph glyph-name="Emacron" unicode="&#x112;" horiz-adv-x="1130" 
d="M341 1680v105h491v-105h-491zM140 0v1440h890v-112h-775v-547h655v-112h-655v-557h775v-112h-890z" />
    <glyph glyph-name="emacron" unicode="&#x113;" horiz-adv-x="1158" 
d="M357 1320v105h491v-105h-491zM585 -30q-155 0 -268 69.5t-175 197t-62 301.5q0 177 61.5 305.5t174 197.5t267.5 69q157 0 268.5 -71.5t170 -206.5t55.5 -325h-120v40q-5 222 -100 338t-272 116q-183 0 -282.5 -120.5t-99.5 -340.5q0 -218 99.5 -338t280.5 -120
q125 0 218.5 58.5t148.5 167.5l104 -46q-65 -140 -188 -216t-281 -76zM159 507v104h853v-104h-853z" />
    <glyph glyph-name="Edotaccent" unicode="&#x116;" horiz-adv-x="1130" 
d="M520 1675v145h146v-145h-146zM140 0v1440h890v-112h-775v-547h655v-112h-655v-557h775v-112h-890z" />
    <glyph glyph-name="edotaccent" unicode="&#x117;" horiz-adv-x="1158" 
d="M510 1315v145h146v-145h-146zM585 -30q-155 0 -268 69.5t-175 197t-62 301.5q0 177 61.5 305.5t174 197.5t267.5 69q157 0 268.5 -71.5t170 -206.5t55.5 -325h-120v40q-5 222 -100 338t-272 116q-183 0 -282.5 -120.5t-99.5 -340.5q0 -218 99.5 -338t280.5 -120
q125 0 218.5 58.5t148.5 167.5l104 -46q-65 -140 -188 -216t-281 -76zM159 507v104h853v-104h-853z" />
    <glyph glyph-name="Eogonek" unicode="&#x118;" horiz-adv-x="1130" 
d="M877 -483q-50 0 -91.5 26t-66.5 69t-25 93q0 62 36 128t96 129t133 115l71 -77q-61 -38 -113 -88.5t-83.5 -104t-31.5 -99.5q0 -41 25 -66t57 -25q25 0 50.5 15t47.5 38l57 -67q-33 -43 -75.5 -64.5t-86.5 -21.5zM140 0v1440h890v-112h-775v-547h655v-112h-655v-557h775
v-112h-890z" />
    <glyph glyph-name="eogonek" unicode="&#x119;" horiz-adv-x="1158" 
d="M873 -463q-57 -24 -112.5 -11.5t-92.5 51.5q-37 38 -45.5 89.5t8.5 107.5q13 45 37.5 87t52.5 80q19 27 61 73.5t86.5 104t73.5 116.5l98 1q-21 -45 -55 -96t-69.5 -98.5t-64.5 -85t-42 -55.5q-25 -39 -47 -79t-33 -78q-6 -24 -5.5 -50t20.5 -46q37 -37 82 -22t79 46
l59 -69q-17 -20 -40 -37t-51 -29zM585 -30q-155 0 -268 69.5t-175 197t-62 301.5q0 177 61.5 305.5t174 197.5t267.5 69q157 0 268.5 -71.5t170 -206.5t55.5 -325h-120v40q-5 222 -100 338t-272 116q-183 0 -282.5 -120.5t-99.5 -340.5q0 -218 99.5 -338t280.5 -120
q125 0 218.5 58.5t148.5 167.5l104 -46q-65 -140 -188 -216t-281 -76zM159 507v104h853v-104h-853z" />
    <glyph glyph-name="Ecaron" unicode="&#x11a;" horiz-adv-x="1130" 
d="M319 1870h125l147 -172l147 172h125l-215 -255h-114zM140 0v1440h890v-112h-775v-547h655v-112h-655v-557h775v-112h-890z" />
    <glyph glyph-name="ecaron" unicode="&#x11b;" horiz-adv-x="1158" 
d="M310 1510h125l147 -172l147 172h125l-215 -255h-114zM585 -30q-155 0 -268 69.5t-175 197t-62 301.5q0 177 61.5 305.5t174 197.5t267.5 69q157 0 268.5 -71.5t170 -206.5t55.5 -325h-120v40q-5 222 -100 338t-272 116q-183 0 -282.5 -120.5t-99.5 -340.5
q0 -218 99.5 -338t280.5 -120q125 0 218.5 58.5t148.5 167.5l104 -46q-65 -140 -188 -216t-281 -76zM159 507v104h853v-104h-853z" />
    <glyph glyph-name="Gcircumflex" unicode="&#x11c;" horiz-adv-x="1392" 
d="M423 1615l214 255h115l214 -255h-125l-146 172l-147 -172h-125zM712 -30q-157 0 -278.5 54t-204.5 153t-126 237t-43 306q0 223 75.5 391.5t220.5 262.5t356 94q218 0 358.5 -102t197.5 -268l-114 -35q-50 133 -162.5 212.5t-276.5 80.5q-177 0 -294.5 -80.5
t-176.5 -224.5t-61 -331t57.5 -330.5t178.5 -225t296 -81.5q169 -1 276.5 66t160 188.5t56.5 284.5h-358v105h478q3 -25 3.5 -49t0.5 -37q0 -191 -66.5 -343t-204 -240t-349.5 -88z" />
    <glyph glyph-name="gcircumflex" unicode="&#x11d;" horiz-adv-x="1168" 
d="M289 1255l215 255h114l215 -255h-125l-147 172l-147 -172h-125zM560 -510q-80 0 -159.5 23.5t-148.5 76t-117 139.5l104 62q49 -100 139 -143t183 -43q131 0 207.5 48.5t109.5 145t33 239.5v283h12v759h105v-1042q0 -48 -2 -92t-9 -88q-18 -125 -74 -206.5t-151.5 -121.5
t-231.5 -40zM555 -30q-153 0 -258.5 75.5t-161 205t-55.5 291.5q0 160 55 289t158.5 204t250.5 75q151 0 255 -74t157 -202.5t53 -291.5q0 -162 -53 -291t-154 -205t-247 -76zM562 80q121 0 201.5 60.5t120 165t39.5 236.5q0 133 -40 237t-120 162.5t-199 58.5
q-123 0 -203 -60.5t-119 -164t-39 -233.5q0 -131 40.5 -235.5t120 -165.5t198.5 -61z" />
    <glyph glyph-name="Gbreve" unicode="&#x11e;" horiz-adv-x="1392" 
d="M717 1570q-67 0 -122 33t-88 88t-33 122h100q0 -58 42.5 -100.5t100.5 -42.5q60 0 101.5 42.5t41.5 100.5h100q0 -67 -32.5 -122t-88 -88t-122.5 -33zM712 -30q-157 0 -278.5 54t-204.5 153t-126 237t-43 306q0 223 75.5 391.5t220.5 262.5t356 94q218 0 358.5 -102
t197.5 -268l-114 -35q-50 133 -162.5 212.5t-276.5 80.5q-177 0 -294.5 -80.5t-176.5 -224.5t-61 -331t57.5 -330.5t178.5 -225t296 -81.5q169 -1 276.5 66t160 188.5t56.5 284.5h-358v105h478q3 -25 3.5 -49t0.5 -37q0 -191 -66.5 -343t-204 -240t-349.5 -88z" />
    <glyph glyph-name="gbreve" unicode="&#x11f;" horiz-adv-x="1168" 
d="M618 1210q-67 0 -122 33t-88 88t-33 122h100q0 -58 42.5 -100.5t100.5 -42.5q60 0 101.5 42.5t41.5 100.5h100q0 -67 -32.5 -122t-87.5 -88t-123 -33zM560 -510q-80 0 -159.5 23.5t-148.5 76t-117 139.5l104 62q49 -100 139 -143t183 -43q131 0 207.5 48.5t109.5 145
t33 239.5v283h12v759h105v-1042q0 -48 -2 -92t-9 -88q-18 -125 -74 -206.5t-151.5 -121.5t-231.5 -40zM555 -30q-153 0 -258.5 75.5t-161 205t-55.5 291.5q0 160 55 289t158.5 204t250.5 75q151 0 255 -74t157 -202.5t53 -291.5q0 -162 -53 -291t-154 -205t-247 -76zM562 80
q121 0 201.5 60.5t120 165t39.5 236.5q0 133 -40 237t-120 162.5t-199 58.5q-123 0 -203 -60.5t-119 -164t-39 -233.5q0 -131 40.5 -235.5t120 -165.5t198.5 -61z" />
    <glyph glyph-name="Gdotaccent" unicode="&#x120;" horiz-adv-x="1392" 
d="M659 1675v145h146v-145h-146zM712 -30q-157 0 -278.5 54t-204.5 153t-126 237t-43 306q0 223 75.5 391.5t220.5 262.5t356 94q218 0 358.5 -102t197.5 -268l-114 -35q-50 133 -162.5 212.5t-276.5 80.5q-177 0 -294.5 -80.5t-176.5 -224.5t-61 -331t57.5 -330.5
t178.5 -225t296 -81.5q169 -1 276.5 66t160 188.5t56.5 284.5h-358v105h478q3 -25 3.5 -49t0.5 -37q0 -191 -66.5 -343t-204 -240t-349.5 -88z" />
    <glyph glyph-name="gdotaccent" unicode="&#x121;" horiz-adv-x="1168" 
d="M544 1315v145h146v-145h-146zM560 -510q-80 0 -159.5 23.5t-148.5 76t-117 139.5l104 62q49 -100 139 -143t183 -43q131 0 207.5 48.5t109.5 145t33 239.5v283h12v759h105v-1042q0 -48 -2 -92t-9 -88q-18 -125 -74 -206.5t-151.5 -121.5t-231.5 -40zM555 -30
q-153 0 -258.5 75.5t-161 205t-55.5 291.5q0 160 55 289t158.5 204t250.5 75q151 0 255 -74t157 -202.5t53 -291.5q0 -162 -53 -291t-154 -205t-247 -76zM562 80q121 0 201.5 60.5t120 165t39.5 236.5q0 133 -40 237t-120 162.5t-199 58.5q-123 0 -203 -60.5t-119 -164
t-39 -233.5q0 -131 40.5 -235.5t120 -165.5t198.5 -61z" />
    <glyph glyph-name="uni0122" unicode="&#x122;" horiz-adv-x="1392" 
d="M649 -530v69q11 0 30 7.5t33.5 25.5t11.5 50h-75v143h142v-143q0 -80 -46.5 -116t-95.5 -36zM712 -30q-157 0 -278.5 54t-204.5 153t-126 237t-43 306q0 223 75.5 391.5t220.5 262.5t356 94q218 0 358.5 -102t197.5 -268l-114 -35q-50 133 -162.5 212.5t-276.5 80.5
q-177 0 -294.5 -80.5t-176.5 -224.5t-61 -331t57.5 -330.5t178.5 -225t296 -81.5q169 -1 276.5 66t160 188.5t56.5 284.5h-358v105h478q3 -25 3.5 -49t0.5 -37q0 -191 -66.5 -343t-204 -240t-349.5 -88z" />
    <glyph glyph-name="uni0123" unicode="&#x123;" horiz-adv-x="1168" 
d="M667 1610v-69q-11 0 -30 -7.5t-33 -25.5t-12 -51h75v-142h-142v142q0 81 46.5 117t95.5 36zM560 -510q-80 0 -159.5 23.5t-148.5 76t-117 139.5l104 62q49 -100 139 -143t183 -43q131 0 207.5 48.5t109.5 145t33 239.5v283h12v759h105v-1042q0 -48 -2 -92t-9 -88
q-18 -125 -74 -206.5t-151.5 -121.5t-231.5 -40zM555 -30q-153 0 -258.5 75.5t-161 205t-55.5 291.5q0 160 55 289t158.5 204t250.5 75q151 0 255 -74t157 -202.5t53 -291.5q0 -162 -53 -291t-154 -205t-247 -76zM562 80q121 0 201.5 60.5t120 165t39.5 236.5q0 133 -40 237
t-120 162.5t-199 58.5q-123 0 -203 -60.5t-119 -164t-39 -233.5q0 -131 40.5 -235.5t120 -165.5t198.5 -61z" />
    <glyph glyph-name="Hcircumflex" unicode="&#x124;" horiz-adv-x="1345" 
d="M400 1615l215 255h114l214 -255h-125l-146 172l-147 -172h-125zM140 0v1440h115v-664h834v664h116v-1440h-116v664h-834v-664h-115z" />
    <glyph glyph-name="hcircumflex" unicode="&#x125;" 
d="M-80 1615l215 255h114l214 -255h-125l-146 172l-147 -172h-125zM931 0v562q0 102 -20.5 182t-62 136t-104 85t-147.5 29q-88 0 -152.5 -30.5t-106 -85.5t-62 -130.5t-20.5 -164.5l-91 11q0 175 59.5 288.5t160.5 168t227 54.5q89 0 159.5 -26t122.5 -73.5t86 -112
t50.5 -141.5t16.5 -161v-591h-116zM140 0v1440h105v-832h11v-608h-116z" />
    <glyph glyph-name="Hbar" unicode="&#x126;" horiz-adv-x="1385" 
d="M160 0v1440h115v-664h834v664h116v-1440h-116v664h-834v-664h-115zM20 995v112h1345v-112h-1345z" />
    <glyph glyph-name="hbar" unicode="&#x127;" 
d="M6 1193v105h491v-105h-491zM931 0v562q0 102 -20.5 182t-62 136t-104 85t-147.5 29q-88 0 -152.5 -30.5t-106 -85.5t-62 -130.5t-20.5 -164.5l-91 11q0 175 59.5 288.5t160.5 168t227 54.5q89 0 159.5 -26t122.5 -73.5t86 -112t50.5 -141.5t16.5 -161v-591h-116zM140 0
v1440h105v-832h11v-608h-116z" />
    <glyph glyph-name="Itilde" unicode="&#x128;" horiz-adv-x="435" 
d="M362 1616q-40 0 -79 16t-75.5 36.5t-70 36.5t-63.5 16q-41 0 -51.5 -30.5t0.5 -61.5h-88q-21 80 18.5 135.5t118.5 55.5q41 0 80 -16t76 -36.5t70 -36.5t63 -16q37 0 50.5 29t1.5 66h88q20 -78 -19 -136t-120 -58zM160 0v1440h115v-1440h-115z" />
    <glyph glyph-name="itilde" unicode="&#x129;" horiz-adv-x="435" 
d="M362 1256q-40 0 -79 16t-75.5 36.5t-70 36.5t-63.5 16q-41 0 -51.5 -30.5t0.5 -61.5h-88q-21 80 18.5 135.5t118.5 55.5q41 0 80 -16t76 -36.5t70 -36.5t63 -16q37 0 50.5 29t1.5 66h88q20 -78 -19 -136t-120 -58zM160 0v1080h115v-1080h-115z" />
    <glyph glyph-name="Imacron" unicode="&#x12a;" horiz-adv-x="435" 
d="M-28 1680v105h491v-105h-491zM160 0v1440h115v-1440h-115z" />
    <glyph glyph-name="imacron" unicode="&#x12b;" horiz-adv-x="435" 
d="M-28 1320v105h491v-105h-491zM160 0v1080h115v-1080h-115z" />
    <glyph glyph-name="Iogonek" unicode="&#x12e;" horiz-adv-x="435" 
d="M123 -483q-50 0 -92 26t-67 69t-25 93q0 62 36 128t96.5 129t133.5 115l70 -77q-61 -38 -113 -88.5t-83.5 -104t-31.5 -99.5q0 -41 25 -66t57 -25q25 0 51 15t47 38l57 -67q-33 -43 -75.5 -64.5t-85.5 -21.5zM160 0v1440h115v-1440h-115z" />
    <glyph glyph-name="iogonek" unicode="&#x12f;" horiz-adv-x="435" 
d="M123 -483q-50 0 -92 26t-67 69t-25 93q0 62 36 128t96.5 129t133.5 115l70 -77q-61 -38 -113 -88.5t-83.5 -104t-31.5 -99.5q0 -41 25 -66t57 -25q25 0 51 15t47 38l57 -67q-33 -43 -75.5 -64.5t-85.5 -21.5zM160 1298v147h115v-147h-115zM160 0v1080h115v-1080h-115z
" />
    <glyph glyph-name="Idotaccent" unicode="&#x130;" horiz-adv-x="435" 
d="M145 1675v145h145v-145h-145zM160 0v1440h115v-1440h-115z" />
    <glyph glyph-name="dotlessi" unicode="&#x131;" horiz-adv-x="435" 
d="M160 0v1080h115v-1080h-115z" />
    <glyph glyph-name="Jcircumflex" unicode="&#x134;" horiz-adv-x="903" 
d="M411 1615l214 255h114l215 -255h-125l-147 172l-146 -172h-125zM372 -28q-137 0 -238 78t-134 208l116 27q21 -85 91 -143t166 -58q61 0 122.5 28.5t96.5 94.5q25 47 29 99.5t4 126.5v1007h116v-1007q0 -57 -1 -105t-10.5 -92t-34.5 -89q-50 -88 -135.5 -131.5
t-187.5 -43.5z" />
    <glyph glyph-name="jcircumflex" unicode="&#x135;" horiz-adv-x="475" 
d="M-20 -480v114h65q68 0 113 36.5t45 127.5v1282h116v-1296q0 -136 -60.5 -200t-192.5 -64h-86zM-12 1255l215 255h114l215 -255h-125l-147 172l-146 -172h-126z" />
    <glyph glyph-name="uni0136" unicode="&#x136;" horiz-adv-x="1152" 
d="M534 -530v69q11 0 30 7.5t33.5 25.5t12.5 50h-76v143h143v-143q0 -80 -47 -116t-96 -36zM140 0v1440h115v-684l685 684h152l-689 -692l749 -748h-154l-743 736v-736h-115z" />
    <glyph glyph-name="uni0137" unicode="&#x137;" horiz-adv-x="964" 
d="M455 -530v69q11 0 30 7.5t33.5 25.5t11.5 50h-75v143h142v-143q0 -80 -46.5 -116t-95.5 -36zM140 0v1440h116v-880l511 520h161l-535 -540l611 -540h-179l-569 520v-520h-116z" />
    <glyph glyph-name="Lacute" unicode="&#x139;" horiz-adv-x="1005" 
d="M274 1615h-107l107 290h107zM160 0v1440h115v-1328h700v-112h-815z" />
    <glyph glyph-name="lacute" unicode="&#x13a;" horiz-adv-x="435" 
d="M274 1615h-107l107 290h107zM160 0v1470h115v-1470h-115z" />
    <glyph glyph-name="uni013B" unicode="&#x13b;" horiz-adv-x="1005" 
d="M496 -530v69q11 0 30 7.5t33.5 25.5t12.5 50h-76v143h143v-143q0 -80 -47 -116t-96 -36zM160 0v1440h115v-1328h700v-112h-815z" />
    <glyph glyph-name="uni013C" unicode="&#x13c;" horiz-adv-x="435" 
d="M146 -530v69q11 0 30 7.5t33.5 25.5t12.5 50h-76v143h143v-143q0 -80 -47 -116t-96 -36zM160 0v1470h115v-1470h-115z" />
    <glyph glyph-name="Lcaron" unicode="&#x13d;" horiz-adv-x="1005" 
d="M160 0v1440h115v-1328h700v-112h-815zM638 1068l8 62q37 -2 52 16.5t17.5 49t0.5 65.5h-78v195h145v-245q0 -79 -41 -118t-104 -25z" />
    <glyph glyph-name="lcaron" unicode="&#x13e;" horiz-adv-x="591" 
d="M160 0v1470h115v-1470h-115zM444 1068l8 62q37 -2 52 16.5t17.5 49t0.5 65.5h-78v195h145v-245q0 -79 -41 -118t-104 -25z" />
    <glyph glyph-name="Lslash" unicode="&#x141;" horiz-adv-x="1012" 
d="M91 429v132l558 320v-130zM167 0v1440h115v-1328h700v-112h-815z" />
    <glyph glyph-name="lslash" unicode="&#x142;" horiz-adv-x="737" 
d="M89 509v132l559 320v-130zM312 0v1470h115v-1470h-115z" />
    <glyph glyph-name="Nacute" unicode="&#x143;" horiz-adv-x="1346" 
d="M747 1615h-107l108 290h107zM140 0v1440h116l834 -1235v1235h116v-1440h-116l-834 1237v-1237h-116z" />
    <glyph glyph-name="nacute" unicode="&#x144;" 
d="M665 1255h-107l108 290h107zM931 0v562q0 102 -20.5 182t-62 136t-104 85t-147.5 29q-88 0 -152.5 -30.5t-106 -85.5t-62 -130.5t-20.5 -164.5l-91 11q0 175 59.5 288.5t160.5 168t227 54.5q89 0 159.5 -26t122.5 -73.5t86 -112t50.5 -141.5t16.5 -161v-591h-116zM140 0
v1080h105v-243h11v-837h-116z" />
    <glyph glyph-name="uni0145" unicode="&#x145;" horiz-adv-x="1346" 
d="M622 -530v69q11 0 30 7.5t33.5 25.5t11.5 50h-75v143h143v-143q0 -80 -47 -116t-96 -36zM140 0v1440h116l834 -1235v1235h116v-1440h-116l-834 1237v-1237h-116z" />
    <glyph glyph-name="uni0146" unicode="&#x146;" 
d="M524 -530v69q11 0 30 7.5t33.5 25.5t11.5 50h-75v143h143v-143q0 -80 -47 -116t-96 -36zM931 0v562q0 102 -20.5 182t-62 136t-104 85t-147.5 29q-88 0 -152.5 -30.5t-106 -85.5t-62 -130.5t-20.5 -164.5l-91 11q0 175 59.5 288.5t160.5 168t227 54.5q89 0 159.5 -26
t122.5 -73.5t86 -112t50.5 -141.5t16.5 -161v-591h-116zM140 0v1080h105v-243h11v-837h-116z" />
    <glyph glyph-name="Ncaron" unicode="&#x147;" horiz-adv-x="1346" 
d="M428 1870h125l146 -172l147 172h125l-215 -255h-114zM140 0v1440h116l834 -1235v1235h116v-1440h-116l-834 1237v-1237h-116z" />
    <glyph glyph-name="ncaron" unicode="&#x148;" 
d="M317 1510h125l147 -172l146 172h125l-214 -255h-114zM931 0v562q0 102 -20.5 182t-62 136t-104 85t-147.5 29q-88 0 -152.5 -30.5t-106 -85.5t-62 -130.5t-20.5 -164.5l-91 11q0 175 59.5 288.5t160.5 168t227 54.5q89 0 159.5 -26t122.5 -73.5t86 -112t50.5 -141.5
t16.5 -161v-591h-116zM140 0v1080h105v-243h11v-837h-116z" />
    <glyph glyph-name="Eng" unicode="&#x14a;" horiz-adv-x="1346" 
d="M1090 1440h116v-1628q0 -97 -42 -143.5t-134 -46.5q-23 0 -45 2.5t-50 9.5v101q20 -3 34.5 -4.5t27.5 -1.5q57 0 79.5 32t22.5 121q0 52 -13 97.5t-42 89.5l-788 1168v-1237h-116v1440h116l834 -1235v1235z" />
    <glyph glyph-name="eng" unicode="&#x14b;" 
d="M925 -375q-47 -6 -81.5 -2.5t-68.5 11.5v100q45 -6 75 -3.5t47.5 18.5t25.5 49.5t8 87.5v116h116v-190q0 -90 -34 -133t-88 -54zM931 0v562q0 102 -20.5 182t-62 136t-104 85t-147.5 29q-88 0 -152.5 -30.5t-106 -85.5t-62 -130.5t-20.5 -164.5l-91 11q0 175 59.5 288.5
t160.5 168t227 54.5q89 0 159.5 -26t122.5 -73.5t86 -112t50.5 -141.5t16.5 -161v-591h-116zM140 0v1080h105v-243h11v-837h-116z" />
    <glyph glyph-name="Omacron" unicode="&#x14c;" horiz-adv-x="1429" 
d="M469 1680v105h491v-105h-491zM715 -30q-215 0 -361 95.5t-220 264.5t-74 390t74 390t220 264.5t361 95.5t360.5 -95.5t219.5 -264.5t74 -390t-74 -390t-219.5 -264.5t-360.5 -95.5zM715 83q177 -1 295 80.5t177 225.5t59 331t-59 331t-177 225t-295 81q-177 1 -294.5 -80
t-176.5 -225.5t-61 -331.5t57.5 -330.5t178.5 -225t296 -81.5z" />
    <glyph glyph-name="omacron" unicode="&#x14d;" horiz-adv-x="1166" 
d="M338 1320v105h490v-105h-490zM583 -30q-161 0 -273 73t-171 202t-59 297q0 169 60 297.5t172.5 199.5t270.5 71q161 0 273.5 -72.5t171 -200.5t58.5 -295q0 -171 -59 -299.5t-172 -200.5t-272 -72zM583 82q191 0 285.5 128t94.5 332q0 208 -95 332t-285 124
q-129 0 -213 -58.5t-125.5 -161t-41.5 -236.5q0 -208 96.5 -334t283.5 -126z" />
    <glyph glyph-name="Ohungarumlaut" unicode="&#x150;" horiz-adv-x="1429" 
d="M948 1615h-107l108 290h107zM586 1615h-108l108 290h107zM715 -30q-215 0 -361 95.5t-220 264.5t-74 390t74 390t220 264.5t361 95.5t360.5 -95.5t219.5 -264.5t74 -390t-74 -390t-219.5 -264.5t-360.5 -95.5zM715 83q177 -1 295 80.5t177 225.5t59 331t-59 331t-177 225
t-295 81q-177 1 -294.5 -80t-176.5 -225.5t-61 -331.5t57.5 -330.5t178.5 -225t296 -81.5z" />
    <glyph glyph-name="ohungarumlaut" unicode="&#x151;" horiz-adv-x="1166" 
d="M819 1255h-107l107 290h107zM456 1255h-107l108 290h107zM583 -30q-161 0 -273 73t-171 202t-59 297q0 169 60 297.5t172.5 199.5t270.5 71q161 0 273.5 -72.5t171 -200.5t58.5 -295q0 -171 -59 -299.5t-172 -200.5t-272 -72zM583 82q191 0 285.5 128t94.5 332
q0 208 -95 332t-285 124q-129 0 -213 -58.5t-125.5 -161t-41.5 -236.5q0 -208 96.5 -334t283.5 -126z" />
    <glyph glyph-name="OE" unicode="&#x152;" horiz-adv-x="2244" 
d="M715 -30q-215 0 -361 95.5t-220 264.5t-74 390t74 390t220 264.5t361 95.5t360.5 -95.5t219.5 -264.5t74 -390t-74 -390t-219.5 -264.5t-360.5 -95.5zM715 83q177 -1 295 80.5t177 225.5t59 331t-59 331t-177 225t-295 81q-177 1 -294.5 -80t-176.5 -225.5t-61 -331.5
t57.5 -330.5t178.5 -225t296 -81.5zM1254 0v1440h890v-112h-775v-547h655v-112h-655v-557h775v-112h-890z" />
    <glyph glyph-name="oe" unicode="&#x153;" horiz-adv-x="2042" 
d="M1469 -30q-155 0 -268 69.5t-175 197t-62 301.5q0 177 61.5 305.5t174 197.5t267.5 69q157 0 268.5 -71.5t170 -206.5t55.5 -325h-120v40q-5 222 -100 338t-272 116q-183 0 -282.5 -120.5t-99.5 -340.5q0 -218 99.5 -338t280.5 -120q125 0 218.5 58.5t148.5 167.5
l104 -46q-65 -140 -188 -216t-281 -76zM1043 507v104h853v-104h-853zM583 -30q-161 0 -273 73t-171 202t-59 297q0 169 60 297.5t172.5 199.5t270.5 71q161 0 273.5 -72.5t171 -200.5t58.5 -295q0 -171 -59 -299.5t-172 -200.5t-272 -72zM583 82q191 0 285.5 128t94.5 332
q0 208 -95 332t-285 124q-129 0 -213 -58.5t-125.5 -161t-41.5 -236.5q0 -208 96.5 -334t283.5 -126z" />
    <glyph glyph-name="Racute" unicode="&#x154;" horiz-adv-x="1242" 
d="M618 1615h-107l108 290h107zM140 0v1440h543q21 0 45.5 -1.5t51.5 -6.5q108 -17 185.5 -77.5t118.5 -152t41 -201.5q0 -159 -85 -277t-237 -150l-33 -13h-515v-561h-115zM1027 0l-284 586l107 54l312 -640h-135zM255 674h426q18 0 41.5 2t47.5 6q78 16 130 63.5t78 114.5
t26 141t-26 140.5t-78 114t-130 63.5q-24 5 -47.5 7t-41.5 2h-426v-654z" />
    <glyph glyph-name="racute" unicode="&#x155;" horiz-adv-x="696" 
d="M374 1255h-107l107 290h107zM140 0v1080h105v-259l-26 34q18 46 45.5 85.5t56.5 64.5q43 40 101 60.5t117 24t107 -9.5v-109q-64 15 -136 6t-135 -62q-55 -48 -80 -111.5t-32 -133t-7 -135.5v-535h-116z" />
    <glyph glyph-name="uni0156" unicode="&#x156;" horiz-adv-x="1242" 
d="M532 -530v69q11 0 30 7.5t33.5 25.5t11.5 50h-75v143h143v-143q0 -80 -47 -116t-96 -36zM140 0v1440h543q21 0 45.5 -1.5t51.5 -6.5q108 -17 185.5 -77.5t118.5 -152t41 -201.5q0 -159 -85 -277t-237 -150l-33 -13h-515v-561h-115zM1027 0l-284 586l107 54l312 -640h-135
zM255 674h426q18 0 41.5 2t47.5 6q78 16 130 63.5t78 114.5t26 141t-26 140.5t-78 114t-130 63.5q-24 5 -47.5 7t-41.5 2h-426v-654z" />
    <glyph glyph-name="uni0157" unicode="&#x157;" horiz-adv-x="696" 
d="M127 -530v69q11 0 30 7.5t33.5 25.5t11.5 50h-75v143h142v-143q0 -80 -46.5 -116t-95.5 -36zM140 0v1080h105v-259l-26 34q18 46 45.5 85.5t56.5 64.5q43 40 101 60.5t117 24t107 -9.5v-109q-64 15 -136 6t-135 -62q-55 -48 -80 -111.5t-32 -133t-7 -135.5v-535h-116z
" />
    <glyph glyph-name="Rcaron" unicode="&#x158;" horiz-adv-x="1242" 
d="M292 1870h125l147 -172l146 172h125l-214 -255h-114zM140 0v1440h543q21 0 45.5 -1.5t51.5 -6.5q108 -17 185.5 -77.5t118.5 -152t41 -201.5q0 -159 -85 -277t-237 -150l-33 -13h-515v-561h-115zM1027 0l-284 586l107 54l312 -640h-135zM255 674h426q18 0 41.5 2t47.5 6
q78 16 130 63.5t78 114.5t26 141t-26 140.5t-78 114t-130 63.5q-24 5 -47.5 7t-41.5 2h-426v-654z" />
    <glyph glyph-name="rcaron" unicode="&#x159;" horiz-adv-x="696" 
d="M121 1510h125l146 -172l147 172h125l-215 -255h-114zM140 0v1080h105v-259l-26 34q18 46 45.5 85.5t56.5 64.5q43 40 101 60.5t117 24t107 -9.5v-109q-64 15 -136 6t-135 -62q-55 -48 -80 -111.5t-32 -133t-7 -135.5v-535h-116z" />
    <glyph glyph-name="Sacute" unicode="&#x15a;" horiz-adv-x="1205" 
d="M664 1615h-107l108 290h107zM629 -30q-148 0 -266.5 49t-196 139t-103.5 214l118 20q37 -144 158.5 -227t292.5 -83q116 0 205 37t139 104.5t50 157.5q0 65 -23.5 109t-60.5 72.5t-79 46t-79 28.5l-362 108q-72 21 -128.5 52.5t-95 73t-59 94.5t-20.5 118q0 116 62 203
t170.5 135.5t249.5 48.5q142 -1 255 -52.5t185.5 -145.5t93.5 -223l-119 -21q-14 99 -71.5 173t-146.5 115t-198 41q-105 1 -185.5 -35t-126.5 -97t-46 -138q0 -80 43.5 -127.5t107 -74.5t121.5 -44l290 -86q41 -12 98 -34t112 -62.5t91.5 -107t36.5 -166.5q0 -97 -37 -174
t-106 -130.5t-163 -82t-207 -28.5z" />
    <glyph glyph-name="sacute" unicode="&#x15b;" horiz-adv-x="1039" 
d="M579 1255h-108l108 290h107zM539 -28q-187 0 -308.5 79t-150.5 220l118 20q25 -96 118 -153t228 -57q134 0 213 57t79 156q0 54 -24.5 88.5t-96.5 63.5t-214 68q-150 40 -234.5 80t-119 91t-34.5 125q0 89 51 156.5t142.5 105.5t211.5 38t216 -39.5t155 -110t68 -163.5
l-118 -22q-17 104 -105 164.5t-220 61.5q-125 2 -204 -49.5t-79 -135.5q0 -48 27.5 -81.5t97.5 -61.5t198 -60q156 -40 243.5 -82t123.5 -98.5t36 -139.5q0 -150 -111.5 -235.5t-306.5 -85.5z" />
    <glyph glyph-name="Scircumflex" unicode="&#x15c;" horiz-adv-x="1205" 
d="M346 1615l215 255h114l215 -255h-125l-147 172l-147 -172h-125zM629 -30q-148 0 -266.5 49t-196 139t-103.5 214l118 20q37 -144 158.5 -227t292.5 -83q116 0 205 37t139 104.5t50 157.5q0 65 -23.5 109t-60.5 72.5t-79 46t-79 28.5l-362 108q-72 21 -128.5 52.5t-95 73
t-59 94.5t-20.5 118q0 116 62 203t170.5 135.5t249.5 48.5q142 -1 255 -52.5t185.5 -145.5t93.5 -223l-119 -21q-14 99 -71.5 173t-146.5 115t-198 41q-105 1 -185.5 -35t-126.5 -97t-46 -138q0 -80 43.5 -127.5t107 -74.5t121.5 -44l290 -86q41 -12 98 -34t112 -62.5
t91.5 -107t36.5 -166.5q0 -97 -37 -174t-106 -130.5t-163 -82t-207 -28.5z" />
    <glyph glyph-name="scircumflex" unicode="&#x15d;" horiz-adv-x="1039" 
d="M267 1255l215 255h114l215 -255h-125l-147 172l-147 -172h-125zM539 -28q-187 0 -308.5 79t-150.5 220l118 20q25 -96 118 -153t228 -57q134 0 213 57t79 156q0 54 -24.5 88.5t-96.5 63.5t-214 68q-150 40 -234.5 80t-119 91t-34.5 125q0 89 51 156.5t142.5 105.5
t211.5 38t216 -39.5t155 -110t68 -163.5l-118 -22q-17 104 -105 164.5t-220 61.5q-125 2 -204 -49.5t-79 -135.5q0 -48 27.5 -81.5t97.5 -61.5t198 -60q156 -40 243.5 -82t123.5 -98.5t36 -139.5q0 -150 -111.5 -235.5t-306.5 -85.5z" />
    <glyph glyph-name="Scedilla" unicode="&#x15e;" horiz-adv-x="1205" 
d="M591 -479q-35 0 -65.5 8.5t-58.5 21.5l33 87q48 -18 82 -18q42 0 64.5 26.5t22.5 59.5q0 48 -41 69t-92 37l75 205l96 1l-54 -148q52 -23 86 -63.5t34 -105.5q0 -76 -54 -128t-128 -52zM629 -30q-148 0 -266.5 49t-196 139t-103.5 214l118 20q37 -144 158.5 -227
t292.5 -83q116 0 205 37t139 104.5t50 157.5q0 65 -23.5 109t-60.5 72.5t-79 46t-79 28.5l-362 108q-72 21 -128.5 52.5t-95 73t-59 94.5t-20.5 118q0 116 62 203t170.5 135.5t249.5 48.5q142 -1 255 -52.5t185.5 -145.5t93.5 -223l-119 -21q-14 99 -71.5 173t-146.5 115
t-198 41q-105 1 -185.5 -35t-126.5 -97t-46 -138q0 -80 43.5 -127.5t107 -74.5t121.5 -44l290 -86q41 -12 98 -34t112 -62.5t91.5 -107t36.5 -166.5q0 -97 -37 -174t-106 -130.5t-163 -82t-207 -28.5z" />
    <glyph glyph-name="scedilla" unicode="&#x15f;" horiz-adv-x="1039" 
d="M507 -479q-34 0 -65 8.5t-59 21.5l33 87q49 -18 82 -18q42 0 65 26.5t23 59.5q0 48 -41.5 69t-92.5 37l75 205l97 1l-55 -148q53 -23 87 -63.5t34 -105.5q0 -76 -54 -128t-129 -52zM539 -28q-187 0 -308.5 79t-150.5 220l118 20q25 -96 118 -153t228 -57q134 0 213 57
t79 156q0 54 -24.5 88.5t-96.5 63.5t-214 68q-150 40 -234.5 80t-119 91t-34.5 125q0 89 51 156.5t142.5 105.5t211.5 38t216 -39.5t155 -110t68 -163.5l-118 -22q-17 104 -105 164.5t-220 61.5q-125 2 -204 -49.5t-79 -135.5q0 -48 27.5 -81.5t97.5 -61.5t198 -60
q156 -40 243.5 -82t123.5 -98.5t36 -139.5q0 -150 -111.5 -235.5t-306.5 -85.5z" />
    <glyph glyph-name="Scaron" unicode="&#x160;" horiz-adv-x="1205" 
d="M357 1870h125l147 -172l147 172h125l-215 -255h-114zM629 -30q-148 0 -266.5 49t-196 139t-103.5 214l118 20q37 -144 158.5 -227t292.5 -83q116 0 205 37t139 104.5t50 157.5q0 65 -23.5 109t-60.5 72.5t-79 46t-79 28.5l-362 108q-72 21 -128.5 52.5t-95 73t-59 94.5
t-20.5 118q0 116 62 203t170.5 135.5t249.5 48.5q142 -1 255 -52.5t185.5 -145.5t93.5 -223l-119 -21q-14 99 -71.5 173t-146.5 115t-198 41q-105 1 -185.5 -35t-126.5 -97t-46 -138q0 -80 43.5 -127.5t107 -74.5t121.5 -44l290 -86q41 -12 98 -34t112 -62.5t91.5 -107
t36.5 -166.5q0 -97 -37 -174t-106 -130.5t-163 -82t-207 -28.5z" />
    <glyph glyph-name="scaron" unicode="&#x161;" horiz-adv-x="1039" 
d="M271 1510h125l147 -172l147 172h125l-215 -255h-114zM539 -28q-187 0 -308.5 79t-150.5 220l118 20q25 -96 118 -153t228 -57q134 0 213 57t79 156q0 54 -24.5 88.5t-96.5 63.5t-214 68q-150 40 -234.5 80t-119 91t-34.5 125q0 89 51 156.5t142.5 105.5t211.5 38
t216 -39.5t155 -110t68 -163.5l-118 -22q-17 104 -105 164.5t-220 61.5q-125 2 -204 -49.5t-79 -135.5q0 -48 27.5 -81.5t97.5 -61.5t198 -60q156 -40 243.5 -82t123.5 -98.5t36 -139.5q0 -150 -111.5 -235.5t-306.5 -85.5z" />
    <glyph glyph-name="uni0162" unicode="&#x162;" horiz-adv-x="1187" 
d="M536 0v1328h-516v112h1147v-112h-516v-1328h-115zM526 -491q-35 0 -65.5 8.5t-58.5 21.5l33 87q48 -18 82 -18q42 0 64.5 26.5t22.5 59.5q0 48 -41.5 69t-91.5 37l75 205l96 1l-54 -148q52 -23 86 -63.5t34 -105.5q0 -76 -54 -128t-128 -52z" />
    <glyph glyph-name="uni0163" unicode="&#x163;" horiz-adv-x="780" 
d="M417 -479q-34 0 -65 8.5t-59 21.5l33 87q49 -18 82 -18q42 0 65 26.5t23 59.5q0 48 -41.5 69t-92.5 37l75 205l97 1l-55 -148q53 -23 87 -63.5t34 -105.5q0 -76 -54 -128t-129 -52zM713 0q-86 -19 -170 -14.5t-149.5 38t-98.5 103.5q-27 57 -30 115t-3 133v1005h116
v-1003q0 -68 1.5 -112.5t20.5 -81.5q36 -69 114 -83.5t199 4.5v-104zM20 975v105h693v-105h-693z" />
    <glyph glyph-name="Tcaron" unicode="&#x164;" horiz-adv-x="1187" 
d="M321 1870h125l147 -172l146 172h125l-214 -255h-114zM536 0v1328h-516v112h1147v-112h-516v-1328h-115z" />
    <glyph glyph-name="tcaron" unicode="&#x165;" horiz-adv-x="780" 
d="M713 0q-86 -19 -170 -14.5t-149.5 38t-98.5 103.5q-27 57 -30 115t-3 133v1005h116v-1003q0 -68 1.5 -112.5t20.5 -81.5q36 -69 114 -83.5t199 4.5v-104zM20 975v105h693v-105h-693zM598 1235l8 62q37 -2 52 16.5t17.5 49t0.5 65.5h-78v195h145v-245q0 -79 -41 -118
t-104 -25z" />
    <glyph glyph-name="Tbar" unicode="&#x166;" horiz-adv-x="1187" 
d="M163 662v116h860v-116h-860zM536 0v1328h-516v112h1147v-112h-516v-1328h-115z" />
    <glyph glyph-name="tbar" unicode="&#x167;" horiz-adv-x="820" 
d="M20 491v105h700v-105h-700zM713 0q-86 -19 -170 -14.5t-149.5 38t-98.5 103.5q-27 57 -30 115t-3 133v1005h116v-1003q0 -68 1.5 -112.5t20.5 -81.5q36 -69 114 -83.5t199 4.5v-104zM20 975v105h693v-105h-693z" />
    <glyph glyph-name="Utilde" unicode="&#x168;" horiz-adv-x="1392" 
d="M696 -30q-162 0 -287.5 67.5t-197 190t-71.5 287.5v925h116v-901q0 -123 41.5 -210.5t108 -142.5t143 -81t147.5 -26t148 26t143 81t107.5 142.5t41.5 210.5v901h116v-925q0 -164 -71.5 -286.5t-197 -190.5t-287.5 -68zM848 1616q-41 0 -79.5 16t-75 36.5t-70 36.5
t-63.5 16q-41 0 -51.5 -30.5t-0.5 -61.5h-88q-20 80 19.5 135.5t117.5 55.5q42 0 81 -16t76 -36.5t70 -36.5t63 -16q37 0 50.5 29t1.5 66h88q20 -78 -19 -136t-120 -58z" />
    <glyph glyph-name="utilde" unicode="&#x169;" 
d="M555 -25q-89 0 -159.5 26t-122.5 73.5t-86 112t-50.5 141.5t-16.5 161v591h116v-562q0 -102 20.5 -182t62 -136t104 -85t147.5 -29q88 0 152.5 30.5t106 85.5t62 130.5t20.5 164.5l91 -11q0 -175 -59.5 -288.5t-160.5 -168t-227 -54.5zM922 0v243h-11v837h116v-1080h-105
zM741 1256q-41 0 -79.5 16t-75 36.5t-70 36.5t-63.5 16q-41 0 -51.5 -30.5t-0.5 -61.5h-88q-20 80 19.5 135.5t117.5 55.5q42 0 81 -16t76 -36.5t70 -36.5t63 -16q37 0 50.5 29t1.5 66h88q20 -78 -19 -136t-120 -58z" />
    <glyph glyph-name="Umacron" unicode="&#x16a;" horiz-adv-x="1392" 
d="M451 1680v105h490v-105h-490zM696 -30q-162 0 -287.5 67.5t-197 190t-71.5 287.5v925h116v-901q0 -123 41.5 -210.5t108 -142.5t143 -81t147.5 -26t148 26t143 81t107.5 142.5t41.5 210.5v901h116v-925q0 -164 -71.5 -286.5t-197 -190.5t-287.5 -68z" />
    <glyph glyph-name="umacron" unicode="&#x16b;" 
d="M327 1320v105h491v-105h-491zM555 -25q-89 0 -159.5 26t-122.5 73.5t-86 112t-50.5 141.5t-16.5 161v591h116v-562q0 -102 20.5 -182t62 -136t104 -85t147.5 -29q88 0 152.5 30.5t106 85.5t62 130.5t20.5 164.5l91 -11q0 -175 -59.5 -288.5t-160.5 -168t-227 -54.5z
M922 0v243h-11v837h116v-1080h-105z" />
    <glyph glyph-name="Ubreve" unicode="&#x16c;" horiz-adv-x="1392" 
d="M696 1570q-67 0 -122 33t-88 88t-33 122h100q0 -58 42.5 -100.5t100.5 -42.5q60 0 101.5 42.5t41.5 100.5h100q0 -67 -32.5 -122t-88 -88t-122.5 -33zM696 -30q-162 0 -287.5 67.5t-197 190t-71.5 287.5v925h116v-901q0 -123 41.5 -210.5t108 -142.5t143 -81t147.5 -26
t148 26t143 81t107.5 142.5t41.5 210.5v901h116v-925q0 -164 -71.5 -286.5t-197 -190.5t-287.5 -68z" />
    <glyph glyph-name="ubreve" unicode="&#x16d;" 
d="M574 1210q-68 0 -123 33t-88 88t-33 122h101q0 -58 42 -100.5t101 -42.5q60 0 101.5 42.5t41.5 100.5h100q0 -67 -33 -122t-88 -88t-122 -33zM555 -25q-89 0 -159.5 26t-122.5 73.5t-86 112t-50.5 141.5t-16.5 161v591h116v-562q0 -102 20.5 -182t62 -136t104 -85
t147.5 -29q88 0 152.5 30.5t106 85.5t62 130.5t20.5 164.5l91 -11q0 -175 -59.5 -288.5t-160.5 -168t-227 -54.5zM922 0v243h-11v837h116v-1080h-105z" />
    <glyph glyph-name="Uring" unicode="&#x16e;" horiz-adv-x="1392" 
d="M697 1558q-56 0 -103 28t-75 75t-28 104t28 103.5t75 75t103 28.5q58 0 105 -28.5t74.5 -75t27.5 -103.5t-27.5 -104t-74.5 -75t-105 -28zM697 1655q47 0 78.5 32.5t31.5 77.5q0 46 -31.5 78t-78.5 32q-45 0 -77.5 -32t-32.5 -78q0 -45 32.5 -77.5t77.5 -32.5zM696 -30
q-162 0 -287.5 67.5t-197 190t-71.5 287.5v925h116v-901q0 -123 41.5 -210.5t108 -142.5t143 -81t147.5 -26t148 26t143 81t107.5 142.5t41.5 210.5v901h116v-925q0 -164 -71.5 -286.5t-197 -190.5t-287.5 -68z" />
    <glyph glyph-name="uring" unicode="&#x16f;" 
d="M574 1198q-56 0 -103 28t-75 75t-28 104t28 103.5t75 75t103 28.5q58 0 105 -28.5t74.5 -75t27.5 -103.5t-27.5 -104t-74.5 -75t-105 -28zM574 1295q47 0 78.5 32.5t31.5 77.5q0 46 -31.5 78t-78.5 32q-45 0 -77.5 -32t-32.5 -78q0 -45 32.5 -77.5t77.5 -32.5zM555 -25
q-89 0 -159.5 26t-122.5 73.5t-86 112t-50.5 141.5t-16.5 161v591h116v-562q0 -102 20.5 -182t62 -136t104 -85t147.5 -29q88 0 152.5 30.5t106 85.5t62 130.5t20.5 164.5l91 -11q0 -175 -59.5 -288.5t-160.5 -168t-227 -54.5zM922 0v243h-11v837h116v-1080h-105z" />
    <glyph glyph-name="Uhungarumlaut" unicode="&#x170;" horiz-adv-x="1392" 
d="M916 1615h-107l108 290h107zM554 1615h-108l108 290h107zM696 -30q-162 0 -287.5 67.5t-197 190t-71.5 287.5v925h116v-901q0 -123 41.5 -210.5t108 -142.5t143 -81t147.5 -26t148 26t143 81t107.5 142.5t41.5 210.5v901h116v-925q0 -164 -71.5 -286.5t-197 -190.5
t-287.5 -68z" />
    <glyph glyph-name="uhungarumlaut" unicode="&#x171;" 
d="M800 1255h-107l108 290h107zM438 1255h-107l107 290h107zM555 -25q-89 0 -159.5 26t-122.5 73.5t-86 112t-50.5 141.5t-16.5 161v591h116v-562q0 -102 20.5 -182t62 -136t104 -85t147.5 -29q88 0 152.5 30.5t106 85.5t62 130.5t20.5 164.5l91 -11q0 -175 -59.5 -288.5
t-160.5 -168t-227 -54.5zM922 0v243h-11v837h116v-1080h-105z" />
    <glyph glyph-name="Uogonek" unicode="&#x172;" horiz-adv-x="1392" 
d="M696 -30q-162 0 -287.5 67.5t-197 190t-71.5 287.5v925h116v-901q0 -123 41.5 -210.5t108 -142.5t143 -81t147.5 -26t148 26t143 81t107.5 142.5t41.5 210.5v901h116v-925q0 -164 -71.5 -286.5t-197 -190.5t-287.5 -68zM880 -414q-50 0 -91.5 26t-66.5 69t-25 93
q0 62 36 128t96 129t133 115l71 -77q-61 -38 -113 -88.5t-83.5 -104t-31.5 -99.5q0 -41 25 -66t57 -25q25 0 50.5 15t47.5 38l57 -67q-33 -43 -75.5 -64.5t-86.5 -21.5z" />
    <glyph glyph-name="uogonek" unicode="&#x173;" 
d="M874 -483q-50 0 -91.5 26t-66.5 69t-25 93q0 62 36 128t96 129t133 115l71 -77q-61 -38 -113 -88.5t-83.5 -104t-31.5 -99.5q0 -41 25 -66t57 -25q25 0 50.5 15t47.5 38l57 -67q-33 -43 -75.5 -64.5t-86.5 -21.5zM555 -25q-89 0 -159.5 26t-122.5 73.5t-86 112
t-50.5 141.5t-16.5 161v591h116v-562q0 -102 20.5 -182t62 -136t104 -85t147.5 -29q88 0 152.5 30.5t106 85.5t62 130.5t20.5 164.5l91 -11q0 -175 -59.5 -288.5t-160.5 -168t-227 -54.5zM922 0v243h-11v837h116v-1080h-105z" />
    <glyph glyph-name="Wcircumflex" unicode="&#x174;" horiz-adv-x="1845" 
d="M651 1615l215 255h114l214 -255h-125l-146 172l-147 -172h-125zM450 0l-413 1440h119l353 -1238l352 1238h121l353 -1238l352 1238h121l-414 -1440h-118l-354 1234l-354 -1234h-118z" />
    <glyph glyph-name="wcircumflex" unicode="&#x175;" horiz-adv-x="1511" 
d="M483 1255l215 255h114l215 -255h-125l-147 172l-147 -172h-125zM370 0l-330 1080h118l271 -887l271 887h111l272 -887l272 887h116l-330 -1080h-108l-277 899l-278 -899h-108z" />
    <glyph glyph-name="Ycircumflex" unicode="&#x176;" horiz-adv-x="1075" 
d="M266 1615l215 255h114l214 -255h-125l-146 172l-147 -172h-125zM480 0v608l-480 832h133l405 -700l404 700h133l-479 -832v-608h-116z" />
    <glyph glyph-name="ycircumflex" unicode="&#x177;" horiz-adv-x="1033" 
d="M260 1255l215 255h114l215 -255h-125l-147 172l-147 -172h-125zM298 -480l210 565l2 -168l-473 1163h123l406 -1010h-64l369 1010h121l-574 -1560h-120z" />
    <glyph glyph-name="Ydieresis" unicode="&#x178;" horiz-adv-x="1075" 
d="M654 1665v140h140v-140h-140zM283 1665v140h140v-140h-140zM480 0v608l-480 832h133l405 -700l404 700h133l-479 -832v-608h-116z" />
    <glyph glyph-name="Zacute" unicode="&#x179;" horiz-adv-x="1195" 
d="M638 1615h-107l108 290h107zM100 0v31l812 1297h-802v112h985v-34l-808 -1295h805v-111h-992z" />
    <glyph glyph-name="zacute" unicode="&#x17a;" horiz-adv-x="1057" 
d="M620 1255h-107l108 290h107zM40 0v31l738 936h-688v113h887v-34l-738 -933h694v-113h-893z" />
    <glyph glyph-name="Zdotaccent" unicode="&#x17b;" horiz-adv-x="1195" 
d="M574 1675v145h145v-145h-145zM100 0v31l812 1297h-802v112h985v-34l-808 -1295h805v-111h-992z" />
    <glyph glyph-name="zdotaccent" unicode="&#x17c;" horiz-adv-x="1057" 
d="M464 1315v145h145v-145h-145zM40 0v31l738 936h-688v113h887v-34l-738 -933h694v-113h-893z" />
    <glyph glyph-name="Zcaron" unicode="&#x17d;" horiz-adv-x="1195" 
d="M369 1870h125l147 -172l147 172h125l-215 -255h-114zM100 0v31l812 1297h-802v112h985v-34l-808 -1295h805v-111h-992z" />
    <glyph glyph-name="zcaron" unicode="&#x17e;" horiz-adv-x="1057" 
d="M280 1510h125l147 -172l146 172h125l-214 -255h-114zM40 0v31l738 936h-688v113h887v-34l-738 -933h694v-113h-893z" />
    <glyph glyph-name="florin" unicode="&#x192;" horiz-adv-x="1442" 
d="M312 -30q-59 0 -112.5 13t-90.5 27.5t-46 18.5l49 101q5 -2 34.5 -13.5t72.5 -22.5t91 -11q38 0 80 13t82 46t71 92.5t46 153.5l116 715q15 86 48 148.5t78.5 105t97.5 67t103 35.5t94 11q65 0 120.5 -12.5t91 -27.5t41.5 -21l-56 -97l-26 11.5t-71 22.5t-100 11
q-33 0 -78.5 -8.5t-92 -34.5t-82.5 -76.5t-50 -135.5l-120 -732q-21 -128 -66.5 -206.5t-103 -121t-116 -57.5t-105.5 -15zM260 668v105h976v-105h-976z" />
    <glyph glyph-name="Ohorn" unicode="&#x1a0;" horiz-adv-x="1429" 
d="M1120 1624h104q11 -73 -1.5 -134.5t-67.5 -100.5q-42 -29 -113.5 -37t-141.5 36v61q51 -15 86 -15.5t65 14.5q55 27 65 74.5t4 101.5zM715 -30q-215 0 -361 95.5t-220 264.5t-74 390t74 390t220 264.5t361 95.5t360.5 -95.5t219.5 -264.5t74 -390t-74 -390t-219.5 -264.5
t-360.5 -95.5zM715 83q177 -1 295 80.5t177 225.5t59 331t-59 331t-177 225t-295 81q-177 1 -294.5 -80t-176.5 -225.5t-61 -331.5t57.5 -330.5t178.5 -225t296 -81.5z" />
    <glyph glyph-name="ohorn" unicode="&#x1a1;" horiz-adv-x="1166" 
d="M975 1260h104q12 -73 -0.5 -134.5t-68.5 -101.5q-42 -28 -113.5 -36.5t-141.5 35.5v61q51 -15 86 -15t65 15q55 27 65 74t4 102zM583 -30q-161 0 -273 73t-171 202t-59 297q0 169 60 297.5t172.5 199.5t270.5 71q161 0 273.5 -72.5t171 -200.5t58.5 -295
q0 -171 -59 -299.5t-172 -200.5t-272 -72zM583 82q191 0 285.5 128t94.5 332q0 208 -95 332t-285 124q-129 0 -213 -58.5t-125.5 -161t-41.5 -236.5q0 -208 96.5 -334t283.5 -126z" />
    <glyph glyph-name="Uhorn" unicode="&#x1af;" horiz-adv-x="1392" 
d="M1329 1620h104q11 -73 -1.5 -135t-66.5 -101q-42 -29 -95 -32t-112 6v82q22 1 46 1t48 6q65 14 74 65.5t3 107.5zM696 -30q-162 0 -287.5 67.5t-197 190t-71.5 287.5v925h116v-901q0 -123 41.5 -210.5t108 -142.5t143 -81t147.5 -26t148 26t143 81t107.5 142.5
t41.5 210.5v901h116v-925q0 -164 -71.5 -286.5t-197 -190.5t-287.5 -68z" />
    <glyph glyph-name="uhorn" unicode="&#x1b0;" 
d="M1094 1260h104q11 -73 -1.5 -135t-66.5 -101q-42 -29 -95 -32t-112 6v82q22 1 46 1t48 6q65 14 74 65.5t3 107.5zM555 -25q-89 0 -159.5 26t-122.5 73.5t-86 112t-50.5 141.5t-16.5 161v591h116v-562q0 -102 20.5 -182t62 -136t104 -85t147.5 -29q88 0 152.5 30.5
t106 85.5t62 130.5t20.5 164.5l91 -11q0 -175 -59.5 -288.5t-160.5 -168t-227 -54.5zM922 0v243h-11v837h116v-1080h-105z" />
    <glyph glyph-name="uni0218" unicode="&#x218;" horiz-adv-x="1205" 
d="M583 -530v69q11 0 30 7.5t33.5 25.5t11.5 50h-75v143h142v-143q0 -80 -46.5 -116t-95.5 -36zM629 -30q-148 0 -266.5 49t-196 139t-103.5 214l118 20q37 -144 158.5 -227t292.5 -83q116 0 205 37t139 104.5t50 157.5q0 65 -23.5 109t-60.5 72.5t-79 46t-79 28.5l-362 108
q-72 21 -128.5 52.5t-95 73t-59 94.5t-20.5 118q0 116 62 203t170.5 135.5t249.5 48.5q142 -1 255 -52.5t185.5 -145.5t93.5 -223l-119 -21q-14 99 -71.5 173t-146.5 115t-198 41q-105 1 -185.5 -35t-126.5 -97t-46 -138q0 -80 43.5 -127.5t107 -74.5t121.5 -44l290 -86
q41 -12 98 -34t112 -62.5t91.5 -107t36.5 -166.5q0 -97 -37 -174t-106 -130.5t-163 -82t-207 -28.5z" />
    <glyph glyph-name="uni0219" unicode="&#x219;" horiz-adv-x="1039" 
d="M456 -530v69q11 0 30 7.5t33.5 25.5t11.5 50h-75v143h142v-143q0 -80 -46.5 -116t-95.5 -36zM539 -28q-187 0 -308.5 79t-150.5 220l118 20q25 -96 118 -153t228 -57q134 0 213 57t79 156q0 54 -24.5 88.5t-96.5 63.5t-214 68q-150 40 -234.5 80t-119 91t-34.5 125
q0 89 51 156.5t142.5 105.5t211.5 38t216 -39.5t155 -110t68 -163.5l-118 -22q-17 104 -105 164.5t-220 61.5q-125 2 -204 -49.5t-79 -135.5q0 -48 27.5 -81.5t97.5 -61.5t198 -60q156 -40 243.5 -82t123.5 -98.5t36 -139.5q0 -150 -111.5 -235.5t-306.5 -85.5z" />
    <glyph glyph-name="uni021A" unicode="&#x21a;" horiz-adv-x="1187" 
d="M522 -530v69q11 0 30 7.5t33.5 25.5t11.5 50h-75v143h143v-143q0 -80 -47 -116t-96 -36zM536 0v1328h-516v112h1147v-112h-516v-1328h-115z" />
    <glyph glyph-name="uni021B" unicode="&#x21b;" horiz-adv-x="780" 
d="M325 -530v69q11 0 30 7.5t33.5 25.5t12.5 50h-76v143h143v-143q0 -80 -47 -116t-96 -36zM713 0q-86 -19 -170 -14.5t-149.5 38t-98.5 103.5q-27 57 -30 115t-3 133v1005h116v-1003q0 -68 1.5 -112.5t20.5 -81.5q36 -69 114 -83.5t199 4.5v-104zM20 975v105h693v-105h-693
z" />
    <glyph glyph-name="uni0259" unicode="&#x259;" horiz-adv-x="1158" 
d="M572 1110q156 0 269.5 -69.5t175 -197t61.5 -301.5q0 -177 -61.5 -305t-174 -197.5t-267.5 -69.5q-157 0 -269 71.5t-170 206.5t-55 325h120v-40q5 -221 100 -337.5t272 -116.5q183 0 282.5 120.5t99.5 340.5q0 218 -99.5 338t-280.5 120q-124 0 -218 -58t-149 -168
l-104 46q65 140 188.5 216t279.5 76zM999 573v-104h-853v104h853z" />
    <glyph glyph-name="circumflex" unicode="&#x2c6;" horiz-adv-x="1010" 
d="M233 1615l214 255h114l215 -255h-125l-147 172l-146 -172h-125z" />
    <glyph glyph-name="caron" unicode="&#x2c7;" horiz-adv-x="990" 
d="M233 1870h125l146 -172l147 172h125l-215 -255h-114z" />
    <glyph glyph-name="breve" unicode="&#x2d8;" horiz-adv-x="966" 
d="M483 1570q-67 0 -122.5 33t-88 88t-32.5 122h100q0 -58 42.5 -100.5t100.5 -42.5q60 0 101.5 42.5t41.5 100.5h100q0 -67 -32.5 -122t-88 -88t-122.5 -33z" />
    <glyph glyph-name="dotaccent" unicode="&#x2d9;" horiz-adv-x="625" 
d="M240 1675v145h145v-145h-145z" />
    <glyph glyph-name="ring" unicode="&#x2da;" horiz-adv-x="920" 
d="M460 1558q-56 0 -103 28t-75.5 75t-28.5 104t28.5 103.5t75 75t103.5 28.5q58 0 104.5 -28.5t74.5 -75t28 -103.5t-28 -104t-75 -75t-104 -28zM460 1655q47 0 78.5 32.5t31.5 77.5q0 46 -31.5 78t-78.5 32q-45 0 -77.5 -32t-32.5 -78q0 -45 32.5 -77.5t77.5 -32.5z" />
    <glyph glyph-name="ogonek" unicode="&#x2db;" horiz-adv-x="827" 
d="M423 -483q-50 0 -91.5 26t-66.5 69t-25 93q0 62 36 128t96 129t133 115l71 -77q-61 -38 -113 -88.5t-83.5 -104t-31.5 -99.5q0 -41 25 -66t57 -25q25 0 50.5 15t47.5 38l57 -67q-33 -43 -75.5 -64.5t-86.5 -21.5z" />
    <glyph glyph-name="tilde" unicode="&#x2dc;" horiz-adv-x="1055" 
d="M672 1616q-41 0 -79.5 16t-75 36.5t-70 36.5t-63.5 16q-41 0 -51.5 -30.5t-0.5 -61.5h-88q-20 80 19.5 135.5t117.5 55.5q42 0 81 -16t76 -36.5t70 -36.5t63 -16q37 0 50.5 29t1.5 66h88q20 -78 -19 -136t-120 -58z" />
    <glyph glyph-name="hungarumlaut" unicode="&#x2dd;" horiz-adv-x="1028" 
d="M689 1615h-107l107 290h107zM326 1615h-107l108 290h107z" />
    <glyph glyph-name="uni0374" unicode="&#x374;" horiz-adv-x="495" 
d="M227 1150h-107l108 290h107z" />
    <glyph glyph-name="uni0375" unicode="&#x375;" horiz-adv-x="495" 
d="M227 -397h-107l108 290h107z" />
    <glyph glyph-name="uni037E" unicode="&#x37e;" horiz-adv-x="585" 
d="M220 -193l8 62q37 -2 52 16.5t17.5 49t0.5 65.5h-78v195h145v-245q0 -79 -41 -118t-104 -25zM220 935v145h145v-145h-145z" />
    <glyph glyph-name="tonos" unicode="&#x384;" horiz-adv-x="1200" 
d="M589 1150h-107l108 290h107z" />
    <glyph glyph-name="dieresistonos" unicode="&#x385;" horiz-adv-x="1200" 
d="M772 1305v140h135v-140h-135zM295 1305v140h135v-140h-135zM610 1255h-107l108 290h107z" />
    <glyph glyph-name="Alphatonos" unicode="&#x386;" horiz-adv-x="1248" 
d="M46 0l510 1440h143l510 -1440h-122l-490 1380h58l-487 -1380h-122zM257 362v109h740v-109h-740zM229 1150h-107l108 290h107z" />
    <glyph glyph-name="anoteleia" unicode="&#x387;" horiz-adv-x="1200" 
d="M216 537q-40 0 -68 26.5t-28 66.5q0 41 28 67t68 26q37 0 64 -26t27 -67q0 -40 -27 -66.5t-64 -26.5z" />
    <glyph glyph-name="Epsilontonos" unicode="&#x388;" horiz-adv-x="1388" 
d="M398 0v1440h890v-112h-775v-547h655v-112h-655v-557h775v-112h-890zM146 1150h-107l108 290h107z" />
    <glyph glyph-name="Etatonos" unicode="&#x389;" horiz-adv-x="1600" 
d="M395 0v1440h115v-664h834v664h116v-1440h-116v664h-834v-664h-115zM142 1150h-107l108 290h107z" />
    <glyph glyph-name="Iotatonos" unicode="&#x38a;" horiz-adv-x="648" 
d="M392 0v1440h115v-1440h-115zM142 1150h-107l108 290h107z" />
    <glyph glyph-name="Omicrontonos" unicode="&#x38c;" horiz-adv-x="1616" 
d="M901 -30q-215 0 -361 95.5t-220 264.5t-74 390t74 390t220 264.5t361 95.5t360.5 -95.5t219.5 -264.5t74 -390t-74 -390t-219.5 -264.5t-360.5 -95.5zM901 83q177 -1 295 80.5t177 225.5t59 331t-59 331t-177 225t-295 81q-177 1 -294.5 -80t-176.5 -225.5t-61 -331.5
t57.5 -330.5t178.5 -225t296 -81.5zM166 1150h-107l108 290h107z" />
    <glyph glyph-name="Upsilontonos" unicode="&#x38e;" horiz-adv-x="1428" 
d="M833 0v608l-480 832h133l405 -700l404 700h133l-479 -832v-608h-116zM179 1150h-107l108 290h107z" />
    <glyph glyph-name="Omegatonos" unicode="&#x38f;" horiz-adv-x="1646" 
d="M246 0v112h293q-135 105 -215.5 267t-80.5 373q0 152 44 282.5t129 228t206 151.5t276 54q154 0 275.5 -54t206 -151.5t128.5 -228t44 -282.5q0 -211 -80 -373t-216 -267h291v-112h-462l2 112q75 40 152.5 122.5t131.5 205t58 281.5q4 128 -31.5 242t-104.5 202.5
t-169 139.5t-226 51q-125 0 -223.5 -50t-167.5 -137.5t-105 -200t-36 -238.5q0 -124 32 -225.5t84 -179t112 -131t116 -82.5v-112h-464zM169 1150h-107l108 290h107z" />
    <glyph glyph-name="iotadieresistonos" unicode="&#x390;" horiz-adv-x="710" 
d="M433 -10q-68 10 -121.5 41.5t-85.5 94.5q-27 56 -30 114t-3 135v705h116v-703q0 -69 0.5 -112t21.5 -83q22 -41 55 -60.5t79 -25.5q44 -3 91 -1.5t88 9.5v-104q-34 -8 -71 -11.5t-73 -3t-67 4.5zM454 1305v140h135v-140h-135zM-23 1305v140h135v-140h-135zM292 1255h-107
l108 290h107z" />
    <glyph glyph-name="Alpha" unicode="&#x391;" horiz-adv-x="1243" 
d="M40 0l510 1440h143l510 -1440h-122l-490 1380h58l-487 -1380h-122zM251 362v109h740v-109h-740z" />
    <glyph glyph-name="Beta" unicode="&#x392;" horiz-adv-x="1214" 
d="M140 0v1440h551q112 0 201.5 -47.5t141 -129.5t51.5 -185q0 -116 -64 -208.5t-170 -129.5l-4 48q142 -43 225.5 -143.5t83.5 -248.5q0 -124 -54.5 -212.5t-150.5 -136t-218 -47.5h-593zM256 113h439q96 0 172.5 33t121 95t44.5 150q0 87 -40.5 157.5t-109.5 112
t-155 41.5h-472v-589zM256 813h434q75 0 137.5 35t99.5 95.5t37 138.5q0 111 -78.5 179t-195.5 68h-434v-516z" />
    <glyph glyph-name="Gamma" unicode="&#x393;" horiz-adv-x="1050" 
d="M140 0v1440h890v-112h-775v-1328h-115z" />
    <glyph glyph-name="uni0394" unicode="&#x394;" horiz-adv-x="1243" 
d="M130 0v112h983v-112h-983zM550 1440h143l510 -1440h-122l-461 1296l-458 -1296h-122z" />
    <glyph glyph-name="Epsilon" unicode="&#x395;" horiz-adv-x="1130" 
d="M140 0v1440h890v-112h-775v-547h655v-112h-655v-557h775v-112h-890z" />
    <glyph glyph-name="Zeta" unicode="&#x396;" horiz-adv-x="1195" 
d="M100 0v31l812 1297h-802v112h985v-34l-808 -1295h805v-111h-992z" />
    <glyph glyph-name="Eta" unicode="&#x397;" horiz-adv-x="1345" 
d="M140 0v1440h115v-664h834v664h116v-1440h-116v664h-834v-664h-115z" />
    <glyph glyph-name="Theta" unicode="&#x398;" horiz-adv-x="1429" 
d="M469 668v104h491v-104h-491zM715 -30q-215 0 -361 95.5t-220 264.5t-74 390t74 390t220 264.5t361 95.5t360.5 -95.5t219.5 -264.5t74 -390t-74 -390t-219.5 -264.5t-360.5 -95.5zM715 83q177 -1 295 80.5t177 225.5t59 331t-59 331t-177 225t-295 81q-177 1 -294.5 -80
t-176.5 -225.5t-61 -331.5t57.5 -330.5t178.5 -225t296 -81.5z" />
    <glyph glyph-name="Iota" unicode="&#x399;" horiz-adv-x="435" 
d="M160 0v1440h115v-1440h-115z" />
    <glyph glyph-name="Kappa" unicode="&#x39a;" horiz-adv-x="1152" 
d="M140 0v1440h115v-684l685 684h152l-689 -692l749 -748h-154l-743 736v-736h-115z" />
    <glyph glyph-name="Lambda" unicode="&#x39b;" horiz-adv-x="1183" 
d="M520 1440h143l510 -1440h-122l-461 1296l-458 -1296h-122z" />
    <glyph glyph-name="Mu" unicode="&#x39c;" horiz-adv-x="1672" 
d="M140 0v1440h107l590 -1274l584 1274h111v-1438h-113v1173l-536 -1175h-94l-537 1175v-1175h-112z" />
    <glyph glyph-name="Nu" unicode="&#x39d;" horiz-adv-x="1346" 
d="M140 0v1440h116l834 -1235v1235h116v-1440h-116l-834 1237v-1237h-116z" />
    <glyph glyph-name="Xi" unicode="&#x39e;" horiz-adv-x="1361" 
d="M140 1328v112h1081v-112h-1081zM140 0v112h1081v-112h-1081zM240 664v112h881v-112h-881z" />
    <glyph glyph-name="Omicron" unicode="&#x39f;" horiz-adv-x="1429" 
d="M715 -30q-215 0 -361 95.5t-220 264.5t-74 390t74 390t220 264.5t361 95.5t360.5 -95.5t219.5 -264.5t74 -390t-74 -390t-219.5 -264.5t-360.5 -95.5zM715 83q177 -1 295 80.5t177 225.5t59 331t-59 331t-177 225t-295 81q-177 1 -294.5 -80t-176.5 -225.5t-61 -331.5
t57.5 -330.5t178.5 -225t296 -81.5z" />
    <glyph glyph-name="Pi" unicode="&#x3a0;" horiz-adv-x="1361" 
d="M140 0v1440h1081v-1440h-115v1328h-851v-1328h-115z" />
    <glyph glyph-name="Rho" unicode="&#x3a1;" horiz-adv-x="1185" 
d="M140 0v1440h543q21 0 45.5 -1.5t51.5 -6.5q108 -17 185.5 -77.5t118.5 -152t41 -201.5q0 -111 -41 -202.5t-118.5 -152t-185.5 -77.5q-27 -4 -51.5 -6t-45.5 -2h-428v-561h-115zM255 674h426q18 0 41.5 2t47.5 6q78 16 130 63.5t78 114.5t26 141t-26 140.5t-78 114
t-130 63.5q-24 5 -47.5 7t-41.5 2h-426v-654z" />
    <glyph glyph-name="Sigma" unicode="&#x3a3;" horiz-adv-x="1310" 
d="M140 0v107l603 613l-603 609v111h1030v-112h-856l585 -592v-32l-585 -592h824v-112h-998z" />
    <glyph glyph-name="Tau" unicode="&#x3a4;" horiz-adv-x="1187" 
d="M536 0v1328h-516v112h1147v-112h-516v-1328h-115z" />
    <glyph glyph-name="Upsilon" unicode="&#x3a5;" horiz-adv-x="1075" 
d="M480 0v608l-480 832h133l405 -700l404 700h133l-479 -832v-608h-116z" />
    <glyph glyph-name="Phi" unicode="&#x3a6;" horiz-adv-x="1403" 
d="M644 0v187q-111 -19 -215.5 10.5t-187.5 103.5t-132 191t-49 273q0 157 49 273.5t132 191t187.5 104.5t215.5 11v95h115v-95q111 19 215.5 -11t187.5 -104.5t132 -191t49 -273.5q0 -156 -49 -273t-132 -191t-187.5 -103.5t-215.5 -10.5v-187h-115zM644 300v934
q-98 14 -182.5 -14t-147 -91t-98 -155t-35.5 -209q0 -116 35.5 -208t98 -154t147 -89t182.5 -14zM759 300q98 -13 182 14t147 88.5t98.5 154t35.5 207.5q0 116 -35.5 208t-98.5 156t-147 92t-182 14v-934z" />
    <glyph glyph-name="Chi" unicode="&#x3a7;" horiz-adv-x="1179" 
d="M20 0l502 730l-490 710h139l418 -615l419 615h139l-490 -710l502 -730h-139l-431 633l-430 -633h-139z" />
    <glyph glyph-name="Psi" unicode="&#x3a8;" horiz-adv-x="1405" 
d="M645 0v362q-120 3 -213.5 44.5t-158.5 114.5t-99 168q-25 66 -29.5 118.5t-4.5 82.5v550h112v-459q0 -33 2.5 -89.5t16.5 -114.5q34 -137 131.5 -220.5t242.5 -85.5v969h115v-969q147 0 245.5 86t129.5 222q13 58 15.5 113.5t2.5 88.5v459h112v-550q0 -31 -4 -82.5
t-30 -117.5q-34 -97 -100 -169.5t-159.5 -114t-211.5 -44.5v-362h-115z" />
    <glyph glyph-name="uni03A9" unicode="&#x3a9;" horiz-adv-x="1429" 
d="M63 0v112h293q-135 105 -215.5 267t-80.5 373q0 152 44 282.5t129 228t206 151.5t276 54q154 0 275.5 -54t206 -151.5t128.5 -228t44 -282.5q0 -211 -80 -373t-216 -267h291v-112h-462l2 112q75 40 152.5 122.5t131.5 205t58 281.5q4 128 -31.5 242t-104.5 202.5
t-169 139.5t-226 51q-125 0 -223.5 -50t-167.5 -137.5t-105 -200t-36 -238.5q0 -124 32 -225.5t84 -179t112 -131t116 -82.5v-112h-464z" />
    <glyph glyph-name="Iotadieresis" unicode="&#x3aa;" horiz-adv-x="435" 
d="M333 1665v140h140v-140h-140zM-38 1665v140h140v-140h-140zM160 0v1440h115v-1440h-115z" />
    <glyph glyph-name="Upsilondieresis" unicode="&#x3ab;" horiz-adv-x="1075" 
d="M654 1665v140h140v-140h-140zM283 1665v140h140v-140h-140zM480 0v608l-480 832h133l405 -700l404 700h133l-479 -832v-608h-116z" />
    <glyph glyph-name="alphatonos" unicode="&#x3ac;" horiz-adv-x="1205" 
d="M636 1255h-107l108 290h107zM556 -30q-153 0 -259 75.5t-161.5 204.5t-55.5 290t55 290t162 204.5t262 75.5q169 0 281 -95.5t143 -262.5l-23 -53v381h105v-1080h-105v385l23 -54q-31 -169 -145 -265t-282 -96zM563 80q120 0 200.5 60.5t120 165t39.5 236.5
q0 133 -40 237t-120 162.5t-199 58.5q-121 0 -201.5 -59.5t-120 -163.5t-39.5 -236q0 -130 40.5 -234.5t120.5 -165.5t199 -61z" />
    <glyph glyph-name="epsilontonos" unicode="&#x3ad;" horiz-adv-x="1003" 
d="M526 1255h-107l108 290h107zM473 -30q-112 0 -201 40.5t-140.5 114t-51.5 172.5q0 63 23 124.5t70.5 105.5t123.5 53l-10 -48q-84 39 -132.5 106t-48.5 164q0 96 47.5 165t130 106t186.5 37q135 0 242 -46.5t185 -138.5l-80 -78q-58 67 -146.5 109t-190.5 42
q-104 0 -180 -50t-76 -152q0 -92 71 -139t190 -47h142v-103h-144q-101 0 -164 -21t-92 -65t-29 -112q0 -106 78.5 -166.5t206.5 -60.5q123 0 216.5 57.5t153.5 166.5l94 -57q-68 -132 -187.5 -205.5t-286.5 -73.5z" />
    <glyph glyph-name="etatonos" unicode="&#x3ae;" 
d="M665 1255h-107l108 290h107zM931 0v562q0 102 -20.5 182t-62 136t-104 85t-147.5 29q-88 0 -152.5 -30.5t-106 -85.5t-62 -130.5t-20.5 -164.5l-91 11q0 175 59.5 288.5t160.5 168t227 54.5q89 0 159.5 -26t122.5 -73.5t86 -112t50.5 -141.5t16.5 -161v-591h-116zM140 0
v1080h105v-243h11v-837h-116z" />
    <glyph glyph-name="iotatonos" unicode="&#x3af;" horiz-adv-x="678" 
d="M275 1255h-107l108 290h107zM400 -10q-68 10 -121.5 41.5t-85.5 94.5q-27 56 -30 114t-3 135v705h116v-703q0 -69 0.5 -112t21.5 -83q22 -41 55 -60.5t79 -25.5q44 -3 91 -1.5t88 9.5v-104q-34 -8 -71 -11.5t-73 -3t-67 4.5z" />
    <glyph glyph-name="upsilondieresistonos" unicode="&#x3b0;" horiz-adv-x="1139" 
d="M120 492v588h116v-562q0 -102 20.5 -182t62 -136t104 -85t147.5 -29q84 0 146.5 29t104.5 85t62 136t20 182v562h116v-588q0 -88 -16.5 -167t-51.5 -143t-88.5 -110.5t-126.5 -71.5t-166 -25q-94 0 -167 25t-126.5 71.5t-88.5 110.5t-51.5 143t-16.5 167zM741 1305v140
h135v-140h-135zM264 1305v140h135v-140h-135zM579 1255h-107l108 290h107z" />
    <glyph glyph-name="alpha" unicode="&#x3b1;" horiz-adv-x="1205" 
d="M556 -30q-153 0 -259 75.5t-161.5 204.5t-55.5 290t55 290t162 204.5t262 75.5q169 0 281 -95.5t143 -262.5l-23 -53v381h105v-1080h-105v385l23 -54q-31 -169 -145 -265t-282 -96zM563 80q120 0 200.5 60.5t120 165t39.5 236.5q0 133 -40 237t-120 162.5t-199 58.5
q-121 0 -201.5 -59.5t-120 -163.5t-39.5 -236q0 -130 40.5 -234.5t120.5 -165.5t199 -61z" />
    <glyph glyph-name="beta" unicode="&#x3b2;" horiz-adv-x="1110" 
d="M140 -480v1560q0 46 6.5 88.5t19.5 76.5q24 69 74.5 119.5t123 78t166.5 27.5q117 0 205.5 -44.5t138 -128t49.5 -202.5q0 -112 -47.5 -195t-143.5 -114q53 -7 108.5 -34t103.5 -75.5t78 -119t30 -165.5q0 -121 -53.5 -216.5t-156.5 -150.5t-251 -55q-112 0 -197 35
t-140 94v-579h-114zM597 84q98 0 173.5 39.5t118.5 110t43 164.5q0 148 -108 229.5t-293 86.5v109q74 9 135.5 40t98.5 88t37 145q0 121 -73 191.5t-197 70.5q-84 0 -153 -38t-98 -121q-13 -39 -17 -82.5t-4 -83.5v-618q0 -38 4.5 -75t11.5 -64q26 -88 117.5 -140t203.5 -52
z" />
    <glyph glyph-name="gamma" unicode="&#x3b3;" horiz-adv-x="986" 
d="M432 -360v360l-392 1080h120l333 -923l334 923h119l-392 -1080v-360h-122z" />
    <glyph glyph-name="delta" unicode="&#x3b4;" horiz-adv-x="1166" 
d="M582 -28q-160 0 -272 65.5t-171 183t-59 273.5q0 157 60 276.5t172.5 182.5t270.5 51v28q161 0 273.5 -67t171 -186.5t58.5 -275.5q0 -158 -59 -277.5t-172 -186.5t-273 -67zM583 84q188 0 282 116t94 306q0 191 -94 302.5t-282 111.5q-190 0 -283 -115t-93 -302
q0 -192 96 -305.5t280 -113.5zM726 918q-65 21 -149 43t-162.5 55t-130 88.5t-51.5 143.5q0 50 19.5 93t60 74t102.5 44q34 8 65.5 9.5t51.5 1.5h385v-100h-360q-28 0 -53.5 -2.5t-46.5 -7.5q-48 -11 -79 -39t-31 -75q0 -43 30 -75t86 -58.5t134.5 -52.5t174.5 -57z" />
    <glyph glyph-name="epsilon" unicode="&#x3b5;" horiz-adv-x="1003" 
d="M473 -30q-112 0 -201 40.5t-140.5 114t-51.5 172.5q0 63 23 124.5t70.5 105.5t123.5 53l-10 -48q-84 39 -132.5 106t-48.5 164q0 96 47.5 165t130 106t186.5 37q135 0 242 -46.5t185 -138.5l-80 -78q-58 67 -146.5 109t-190.5 42q-104 0 -180 -50t-76 -152q0 -92 71 -139
t190 -47h142v-103h-144q-101 0 -164 -21t-92 -65t-29 -112q0 -106 78.5 -166.5t206.5 -60.5q123 0 216.5 57.5t153.5 166.5l94 -57q-68 -132 -187.5 -205.5t-286.5 -73.5z" />
    <glyph glyph-name="zeta" unicode="&#x3b6;" horiz-adv-x="994" 
d="M851 -240q5 85 -9.5 133t-51.5 71t-99 29.5t-152 6.5q-84 0 -166 10.5t-148 45.5t-105.5 106.5t-39.5 193.5q0 70 21.5 145t84 171.5t188.5 230.5q32 33 95 98t146 150.5t176 178.5h-651v110h821v-103q-39 -40 -85.5 -88t-97 -99t-100.5 -102t-97.5 -99t-88.5 -88
q-117 -120 -180 -206.5t-87 -155t-24 -134.5q0 -101 44.5 -156.5t131 -77.5t213.5 -22q12 0 42 -1t66 -3.5t66 -8.5q65 -13 114 -50.5t72 -107t8 -178.5h-107z" />
    <glyph glyph-name="eta" unicode="&#x3b7;" 
d="M931 0v562q0 102 -20.5 182t-62 136t-104 85t-147.5 29q-88 0 -152.5 -30.5t-106 -85.5t-62 -130.5t-20.5 -164.5l-91 11q0 175 59.5 288.5t160.5 168t227 54.5q89 0 159.5 -26t122.5 -73.5t86 -112t50.5 -141.5t16.5 -161v-591h-116zM140 0v1080h105v-243h11v-837h-116z
" />
    <glyph glyph-name="theta" unicode="&#x3b8;" horiz-adv-x="1295" 
d="M158 668v104h980v-104h-980zM648 -30q-144 0 -251 61t-177 166t-105 240t-35 283q0 149 35 283t105 239t177 165.5t251 60.5t250.5 -60.5t176.5 -165.5t105 -239t35 -283q0 -154 -35 -290t-105 -239.5t-176.5 -162t-250.5 -58.5zM648 83q110 0 193 51t138.5 139.5
t83.5 204t29 242.5q2 127 -26 242t-84 203.5t-140 139.5t-194 51q-111 0 -194 -51t-138 -139.5t-83 -203.5t-30 -242q-1 -127 26.5 -242.5t83.5 -204t140 -139.5t195 -51z" />
    <glyph glyph-name="iota" unicode="&#x3b9;" horiz-adv-x="678" 
d="M400 -10q-68 10 -121.5 41.5t-85.5 94.5q-27 56 -30 114t-3 135v705h116v-703q0 -69 0.5 -112t21.5 -83q22 -41 55 -60.5t79 -25.5q44 -3 91 -1.5t88 9.5v-104q-34 -8 -71 -11.5t-73 -3t-67 4.5z" />
    <glyph glyph-name="kappa" unicode="&#x3ba;" horiz-adv-x="964" 
d="M140 0v1080h116v-520l511 520h161l-535 -540l611 -540h-179l-569 520v-520h-116z" />
    <glyph glyph-name="lambda" unicode="&#x3bb;" horiz-adv-x="1026" 
d="M80 0l392 1080q-36 95 -63.5 159t-70 96t-123.5 32h-51v103h63q21 0 50.5 -1.5t54.5 -7.5q74 -16 120 -73t78 -138t64 -170l392 -1080h-120l-333 923l-334 -923h-119z" />
    <glyph glyph-name="uni03BC" unicode="&#x3bc;" horiz-adv-x="1187" 
d="M140 -480v1560h116v-562q0 -102 20 -182t62 -136t104.5 -85t146.5 -29q89 0 153.5 30.5t106 85.5t62 130.5t20.5 164.5v583h116v-1080h-105v164q-60 -97 -156.5 -143t-210.5 -46q-110 0 -193.5 42.5t-136.5 122.5v-620h-105z" />
    <glyph glyph-name="nu" unicode="&#x3bd;" horiz-adv-x="986" 
d="M432 0l-392 1080h119l334 -923l333 923h120l-392 -1080h-122z" />
    <glyph glyph-name="xi" unicode="&#x3be;" horiz-adv-x="1087" 
d="M971 -240q9 114 -20 164.5t-104 63t-204 12.5q-207 0 -330.5 53.5t-178 147.5t-54.5 216q0 143 65.5 231.5t180.5 120.5q-88 45 -143 129.5t-55 201.5q0 95 36 165t99 115t143 67.5t168 22.5q181 0 302 -83t190 -217l-105 -62q-62 117 -150.5 183.5t-236.5 66.5
q-139 0 -231 -64t-92 -197q0 -124 86 -193t237 -77q22 -1 57.5 -1.5t66 -0.5h37.5v-112h-19t-41.5 -1.5t-104.5 -4.5q-107 -5 -189.5 -29t-130 -83t-47.5 -166q0 -114 56 -184.5t164.5 -103t264.5 -32.5q14 0 48 -1t73.5 -3.5t72.5 -8.5q62 -12 114 -48.5t76 -106.5t7 -181
h-108z" />
    <glyph glyph-name="omicron" unicode="&#x3bf;" horiz-adv-x="1166" 
d="M583 -30q-161 0 -273 73t-171 202t-59 297q0 169 60 297.5t172.5 199.5t270.5 71q161 0 273.5 -72.5t171 -200.5t58.5 -295q0 -171 -59 -299.5t-172 -200.5t-272 -72zM583 82q191 0 285.5 128t94.5 332q0 208 -95 332t-285 124q-129 0 -213 -58.5t-125.5 -161
t-41.5 -236.5q0 -208 96.5 -334t283.5 -126z" />
    <glyph glyph-name="pi" unicode="&#x3c0;" horiz-adv-x="1294" 
d="M273 0v970h-226v110h1200v-110h-226v-970h-116v970h-516v-970h-116z" />
    <glyph glyph-name="rho" unicode="&#x3c1;" horiz-adv-x="1169" 
d="M140 -480v958q0 54 1.5 95t3.5 69q12 135 69.5 241t157.5 166.5t240 60.5q157 0 263 -75t160 -204t54 -289q0 -162 -55 -291.5t-160.5 -205t-254.5 -75.5q-126 0 -220.5 54.5t-143.5 141.5v-646h-115zM608 80q119 0 199 60.5t121 165t41 236.5t-39.5 235t-119.5 163
t-202 60q-121 0 -199 -58.5t-116 -161.5t-38 -237q0 -133 38 -238t116 -165t199 -60z" />
    <glyph glyph-name="uni03C2" unicode="&#x3c2;" horiz-adv-x="1093" 
d="M857 -240q9 115 -21.5 164t-103 60t-189.5 16q-122 4 -204 40.5t-133.5 92.5t-78.5 122.5t-37 134t-10 123.5q0 191 58.5 324.5t169 203t267.5 69.5q162 0 281 -74t168 -209l-112 -41q-41 101 -129 156.5t-207 55.5q-124 0 -205.5 -60t-122.5 -164t-42 -235
q0 -60 12 -133.5t48 -141t107 -111.5t188 -44q24 0 61 -0.5t76.5 -3t71.5 -9.5q66 -13 115.5 -51t72 -107.5t7.5 -177.5h-108z" />
    <glyph glyph-name="sigma" unicode="&#x3c3;" horiz-adv-x="1189" 
d="M583 -30q-154 0 -267 71.5t-174.5 197t-61.5 287.5q0 147 50 263t142 189.5t219 93.5q40 7 89 7.5t96 0.5h470v-110h-340l46 35q108 -61 171 -188t63 -291q0 -162 -61.5 -287.5t-175 -197t-266.5 -71.5zM583 82q186 0 283 123.5t97 320.5q0 195 -97 318t-283 124
q-127 0 -211.5 -58t-126.5 -158t-42 -226q0 -200 99.5 -322t280.5 -122z" />
    <glyph glyph-name="tau" unicode="&#x3c4;" horiz-adv-x="1013" 
d="M680 -10q-67 10 -120.5 41.5t-85.5 94.5q-28 56 -30.5 114t-2.5 135v595h-391v110h897v-110h-391v-593q0 -69 0.5 -112t21.5 -83q23 -41 56 -60.5t78 -25.5q44 -3 91.5 -1.5t87.5 9.5v-104q-33 -8 -70 -11.5t-73.5 -3t-67.5 4.5z" />
    <glyph glyph-name="upsilon" unicode="&#x3c5;" horiz-adv-x="1139" 
d="M120 492v588h116v-562q0 -102 20.5 -182t62 -136t104 -85t147.5 -29q84 0 146.5 29t104.5 85t62 136t20 182v562h116v-588q0 -88 -16.5 -167t-51.5 -143t-88.5 -110.5t-126.5 -71.5t-166 -25q-94 0 -167 25t-126.5 71.5t-88.5 110.5t-51.5 143t-16.5 167z" />
    <glyph glyph-name="phi" unicode="&#x3c6;" horiz-adv-x="1451" 
d="M654 -450v429q-158 -25 -288.5 34.5t-208 193.5t-77.5 331q0 198 77.5 332.5t208 195t288.5 35.5v334h110v-334q158 25 288.5 -35.5t208 -195t77.5 -332.5q0 -197 -77.5 -331t-208 -193.5t-288.5 -34.5v-429h-110zM654 89v902q-81 14 -161 -5t-146.5 -73.5t-106 -147
t-39.5 -227.5q0 -134 40 -226.5t106.5 -146t146.5 -71.5t160 -5zM764 89q80 -13 160 5t147 71.5t106.5 146t39.5 226.5q0 135 -39.5 228t-106 147t-146.5 73t-161 5v-902z" />
    <glyph glyph-name="chi" unicode="&#x3c7;" horiz-adv-x="1036" 
d="M20 0l431 546l-421 534h140l349 -447l347 447h140l-421 -534l431 -546h-142l-355 459l-357 -459h-142z" />
    <glyph glyph-name="psi" unicode="&#x3c8;" horiz-adv-x="1365" 
d="M626 -450v415q-116 4 -210 45.5t-161 114.5t-101 168q-25 65 -29.5 118.5t-4.5 81.5v587h112v-496q0 -31 2.5 -89t16.5 -115q22 -91 77 -159.5t132 -107t166 -39.5v1006h113v-1006q90 1 167.5 40.5t132.5 108.5t76 160q13 56 15.5 113.5t2.5 87.5v496h112v-587
q0 -29 -4 -81.5t-30 -118.5q-33 -91 -98.5 -163.5t-160 -116.5t-213.5 -48v-415h-113z" />
    <glyph glyph-name="omega" unicode="&#x3c9;" horiz-adv-x="1538" 
d="M477 -32q-134 0 -222 65.5t-131.5 180.5t-43.5 264q0 218 88.5 374.5t279.5 257.5l68 -101q-167 -91 -240 -217t-73 -306q0 -115 30.5 -206.5t93.5 -145t158 -53.5q98 0 147 49.5t65 130t16 175.5v251h112v-251q0 -93 16 -173.5t65 -131t147 -50.5t160 55t92 146.5
t30 203.5q0 184 -73.5 309t-238.5 214l68 101q194 -103 280.5 -260.5t86.5 -371.5q0 -151 -44 -266t-132 -179.5t-219 -64.5q-114 0 -200.5 61t-109.5 193h33q-23 -132 -109 -193t-200 -61z" />
    <glyph glyph-name="iotadieresis" unicode="&#x3ca;" horiz-adv-x="644" 
d="M333 1305v140h140v-140h-140zM-38 1305v140h140v-140h-140zM400 -10q-68 10 -121.5 41.5t-85.5 94.5q-27 56 -30 114t-3 135v705h116v-703q0 -69 0.5 -112t21.5 -83q22 -41 55 -60.5t79 -25.5q44 -3 91 -1.5t88 9.5v-104q-34 -8 -71 -11.5t-73 -3t-67 4.5z" />
    <glyph glyph-name="upsilondieresis" unicode="&#x3cb;" horiz-adv-x="1139" 
d="M685 1305v140h140v-140h-140zM314 1305v140h140v-140h-140zM120 492v588h116v-562q0 -102 20.5 -182t62 -136t104 -85t147.5 -29q84 0 146.5 29t104.5 85t62 136t20 182v562h116v-588q0 -88 -16.5 -167t-51.5 -143t-88.5 -110.5t-126.5 -71.5t-166 -25q-94 0 -167 25
t-126.5 71.5t-88.5 110.5t-51.5 143t-16.5 167z" />
    <glyph glyph-name="omicrontonos" unicode="&#x3cc;" horiz-adv-x="1166" 
d="M634 1255h-107l108 290h107zM583 -30q-161 0 -273 73t-171 202t-59 297q0 169 60 297.5t172.5 199.5t270.5 71q161 0 273.5 -72.5t171 -200.5t58.5 -295q0 -171 -59 -299.5t-172 -200.5t-272 -72zM583 82q191 0 285.5 128t94.5 332q0 208 -95 332t-285 124
q-129 0 -213 -58.5t-125.5 -161t-41.5 -236.5q0 -208 96.5 -334t283.5 -126z" />
    <glyph glyph-name="upsilontonos" unicode="&#x3cd;" horiz-adv-x="1139" 
d="M597 1255h-107l108 290h107zM120 492v588h116v-562q0 -102 20.5 -182t62 -136t104 -85t147.5 -29q84 0 146.5 29t104.5 85t62 136t20 182v562h116v-588q0 -88 -16.5 -167t-51.5 -143t-88.5 -110.5t-126.5 -71.5t-166 -25q-94 0 -167 25t-126.5 71.5t-88.5 110.5
t-51.5 143t-16.5 167z" />
    <glyph glyph-name="omegatonos" unicode="&#x3ce;" horiz-adv-x="1538" 
d="M803 1255h-107l108 290h107zM477 -32q-134 0 -222 65.5t-131.5 180.5t-43.5 264q0 218 88.5 374.5t279.5 257.5l68 -101q-167 -91 -240 -217t-73 -306q0 -115 30.5 -206.5t93.5 -145t158 -53.5q98 0 147 49.5t65 130t16 175.5v251h112v-251q0 -93 16 -173.5t65 -131
t147 -50.5t160 55t92 146.5t30 203.5q0 184 -73.5 309t-238.5 214l68 101q194 -103 280.5 -260.5t86.5 -371.5q0 -151 -44 -266t-132 -179.5t-219 -64.5q-114 0 -200.5 61t-109.5 193h33q-23 -132 -109 -193t-200 -61z" />
    <glyph glyph-name="uni0400" unicode="&#x400;" horiz-adv-x="1130" 
d="M566 1615l-108 290h107l108 -290h-107zM140 0v1440h890v-112h-775v-547h655v-112h-655v-557h775v-112h-890z" />
    <glyph glyph-name="uni0401" unicode="&#x401;" horiz-adv-x="1130" 
d="M675 1665v140h140v-140h-140zM304 1665v140h140v-140h-140zM140 0v1440h890v-112h-775v-547h655v-112h-655v-557h775v-112h-890z" />
    <glyph glyph-name="uni0402" unicode="&#x402;" horiz-adv-x="1272" 
d="M143 0v1330h-143v110h570v-110h-322v-417q64 102 175.5 149.5t255.5 47.5q246 0 379.5 -135t133.5 -409q0 -168 -53.5 -295.5t-164 -199t-278.5 -71.5v116q123 0 207.5 55t128.5 158t44 249t-46.5 238.5t-136 136t-221.5 43.5q-152 0 -251 -60t-137 -189
q-17 -63 -21 -131.5t-4 -132.5v-483h-116z" />
    <glyph glyph-name="uni0403" unicode="&#x403;" horiz-adv-x="1050" 
d="M490 1615h-107l108 290h107zM140 0v1440h890v-112h-775v-1328h-115z" />
    <glyph glyph-name="uni0404" unicode="&#x404;" horiz-adv-x="1428" 
d="M745 -30q-214 0 -360.5 100t-221 270t-70.5 380q4 225 79.5 393.5t219 262.5t353.5 94q240 0 404.5 -130t218.5 -367l-118 -18q-41 185 -173 291.5t-329 109.5q-166 2 -281.5 -72t-178 -205.5t-71.5 -302.5h535v-112h-534q4 -105 29.5 -204t94.5 -192q72 -95 177.5 -139
t228.5 -46q182 -3 314 98.5t182 280.5l114 -31q-36 -145 -122 -248t-211 -158t-280 -55z" />
    <glyph glyph-name="uni0405" unicode="&#x405;" horiz-adv-x="1205" 
d="M629 -30q-148 0 -266.5 49t-196 139t-103.5 214l118 20q37 -144 158.5 -227t292.5 -83q116 0 205 37t139 104.5t50 157.5q0 65 -23.5 109t-60.5 72.5t-79 46t-79 28.5l-362 108q-72 21 -128.5 52.5t-95 73t-59 94.5t-20.5 118q0 116 62 203t170.5 135.5t249.5 48.5
q142 -1 255 -52.5t185.5 -145.5t93.5 -223l-119 -21q-14 99 -71.5 173t-146.5 115t-198 41q-105 1 -185.5 -35t-126.5 -97t-46 -138q0 -80 43.5 -127.5t107 -74.5t121.5 -44l290 -86q41 -12 98 -34t112 -62.5t91.5 -107t36.5 -166.5q0 -97 -37 -174t-106 -130.5t-163 -82
t-207 -28.5z" />
    <glyph glyph-name="uni0406" unicode="&#x406;" horiz-adv-x="435" 
d="M160 0v1440h115v-1440h-115z" />
    <glyph glyph-name="uni0407" unicode="&#x407;" horiz-adv-x="435" 
d="M333 1665v140h140v-140h-140zM-38 1665v140h140v-140h-140zM160 0v1440h115v-1440h-115z" />
    <glyph glyph-name="uni0408" unicode="&#x408;" horiz-adv-x="903" 
d="M372 -28q-137 0 -238 78t-134 208l116 27q21 -85 91 -143t166 -58q61 0 122.5 28.5t96.5 94.5q25 47 29 99.5t4 126.5v1007h116v-1007q0 -57 -1 -105t-10.5 -92t-34.5 -89q-50 -88 -135.5 -131.5t-187.5 -43.5z" />
    <glyph glyph-name="uni0409" unicode="&#x409;" horiz-adv-x="2173" 
d="M1108 0v1440h115v-561h428q21 0 45 -1.5t51 -6.5q108 -17 185.5 -77.5t119 -152t41.5 -202.5q0 -110 -41 -201.5t-118.5 -152t-186.5 -77.5q-27 -4 -51 -6t-45 -2h-543zM1223 112h426q17 0 41 2t47 7q79 16 131 63.5t78 114t26 140.5t-26 141t-78 114.5t-131 63.5
q-23 5 -47 6.5t-41 1.5h-426v-654zM20 0v108q58 -7 94.5 2.5t59.5 44.5t39.5 106t33.5 189q18 116 31 227.5t23 229t18 248.5t14 285h890v-1440h-115v1328h-660q-7 -116 -14 -228.5t-16 -226.5t-21.5 -233.5t-32.5 -251.5q-14 -94 -33.5 -175.5t-55.5 -138.5t-97 -78.5
t-158 4.5z" />
    <glyph glyph-name="uni040A" unicode="&#x40a;" horiz-adv-x="2087" 
d="M140 0v1440h115v-562h835v-112h-835v-766h-115zM1022 0v1440h116v-561h427q21 0 45.5 -1.5t51.5 -6.5q108 -17 185.5 -77.5t118.5 -152t41 -202.5q0 -110 -41 -201.5t-118.5 -152t-185.5 -77.5q-27 -4 -51.5 -6t-45.5 -2h-543zM1138 112h425q18 0 42 2t47 7
q78 16 130.5 63.5t78.5 114t26 140.5t-26 141t-78.5 114.5t-130.5 63.5q-23 5 -47 6.5t-42 1.5h-425v-654z" />
    <glyph glyph-name="uni040B" unicode="&#x40b;" horiz-adv-x="1274" 
d="M0 1330v110h570v-110h-570zM256 1440v-688l-42 64q72 50 172.5 81t229.5 31q189 0 302.5 -68.5t164.5 -189t51 -274.5v-396h-116v352q0 110 -22.5 195t-71.5 144.5t-125.5 90t-185.5 30.5q-138 0 -238.5 -40.5t-150.5 -89.5l32 117v-799h-116v1440h116z" />
    <glyph glyph-name="uni040C" unicode="&#x40c;" horiz-adv-x="1152" 
d="M140 0v1440h115v-684l685 684h152l-689 -692l749 -748h-154l-743 736v-736h-115zM658 1615h-107l108 290h107z" />
    <glyph glyph-name="uni040D" unicode="&#x40d;" horiz-adv-x="1346" 
d="M140 0v1440h116v-1235l834 1235h116v-1440h-116v1237l-834 -1237h-116zM643 1615l-107 290h107l107 -290h-107z" />
    <glyph glyph-name="uni040E" unicode="&#x40e;" horiz-adv-x="1237" 
d="M604 1570q-67 0 -122.5 33t-88 88t-32.5 122h100q0 -58 42 -100.5t101 -42.5q60 0 101.5 42.5t41.5 100.5h100q0 -67 -32.5 -122t-88 -88t-122.5 -33zM400 0l154 326l-517 1114h126l451 -988l458 988h123l-666 -1440h-129z" />
    <glyph glyph-name="uni040F" unicode="&#x40f;" horiz-adv-x="1443" 
d="M664 -240v240h-524v1440h115v-1328h933v1328h115v-1440h-524v-240h-115z" />
    <glyph glyph-name="uni0410" unicode="&#x410;" horiz-adv-x="1243" 
d="M40 0l510 1440h143l510 -1440h-122l-490 1380h58l-487 -1380h-122zM251 362v109h740v-109h-740z" />
    <glyph glyph-name="uni0411" unicode="&#x411;" horiz-adv-x="1185" 
d="M140 0v1440h865v-112h-750v-456h428q21 0 45.5 -1.5t51.5 -6.5q107 -15 184.5 -75t119 -152t41.5 -201t-41.5 -200.5t-119 -152t-184.5 -75.5q-27 -4 -51.5 -6t-45.5 -2h-543zM255 112h426q18 0 41.5 2t47.5 6q118 23 176 114.5t58 201.5q0 111 -58 202t-176 114
q-24 5 -47.5 6.5t-41.5 1.5h-426v-648z" />
    <glyph glyph-name="uni0412" unicode="&#x412;" horiz-adv-x="1214" 
d="M140 0v1440h551q112 0 201.5 -47.5t141 -129.5t51.5 -185q0 -116 -64 -208.5t-170 -129.5l-4 48q142 -43 225.5 -143.5t83.5 -248.5q0 -124 -54.5 -212.5t-150.5 -136t-218 -47.5h-593zM256 113h439q96 0 172.5 33t121 95t44.5 150q0 87 -40.5 157.5t-109.5 112
t-155 41.5h-472v-589zM256 813h434q75 0 137.5 35t99.5 95.5t37 138.5q0 111 -78.5 179t-195.5 68h-434v-516z" />
    <glyph glyph-name="uni0413" unicode="&#x413;" horiz-adv-x="1050" 
d="M140 0v1440h890v-112h-775v-1328h-115z" />
    <glyph glyph-name="uni0414" unicode="&#x414;" horiz-adv-x="1466" 
d="M77 -240v352q88 0 140 45t79 119.5t40.5 164.5t22.5 181q15 136 24 262t15.5 260.5t14.5 295.5h871v-1328h102v-352h-116v240h-1078v-240h-115zM326 112h843v1216h-646q-6 -127 -12.5 -249.5t-15.5 -246t-22 -254.5q-12 -117 -27.5 -207.5t-43.5 -155t-76 -103.5z" />
    <glyph glyph-name="uni0415" unicode="&#x415;" horiz-adv-x="1130" 
d="M140 0v1440h890v-112h-775v-547h655v-112h-655v-557h775v-112h-890z" />
    <glyph glyph-name="uni0416" unicode="&#x416;" horiz-adv-x="1765" 
d="M20 0l670 748l-610 692h150l595 -681v681h115v-681l595 681h150l-610 -692l670 -748h-153l-652 733v-733h-115v733l-653 -733h-152z" />
    <glyph glyph-name="uni0417" unicode="&#x417;" horiz-adv-x="1157" 
d="M584 -30q-145 0 -250 42.5t-172 113t-99 154.5l110 56q24 -72 78.5 -129.5t139 -90.5t197.5 -33q121 0 206.5 38.5t131 110t45.5 170.5q0 105 -48.5 163t-131.5 82.5t-187 28.5q-73 3 -104 4.5t-41.5 1.5h-19.5v112h38t66.5 0.5t56.5 1.5q153 8 238 83t85 198
q0 133 -92.5 207t-237.5 74q-138 0 -229 -67t-151 -183l-105 62q67 133 190.5 216.5t297.5 83.5q90 0 171.5 -25t144 -73.5t98.5 -122t36 -170.5q0 -123 -56.5 -211.5t-141.5 -129.5q114 -32 180 -116.5t66 -222.5q0 -130 -61.5 -226.5t-176 -149.5t-272.5 -53z" />
    <glyph glyph-name="uni0418" unicode="&#x418;" horiz-adv-x="1346" 
d="M1206 0h-116v1237l-834 -1237h-116v1440h116v-1235l834 1235h116v-1440z" />
    <glyph glyph-name="uni0419" unicode="&#x419;" horiz-adv-x="1346" 
d="M140 0v1440h116v-1235l834 1235h116v-1440h-116v1237l-834 -1237h-116zM689 1570q-67 0 -122 33t-88 88t-33 122h100q0 -58 42.5 -100.5t100.5 -42.5q60 0 101.5 42.5t41.5 100.5h100q0 -67 -32.5 -122t-88 -88t-122.5 -33z" />
    <glyph glyph-name="uni041A" unicode="&#x41a;" horiz-adv-x="1152" 
d="M140 0v1440h115v-684l685 684h152l-689 -692l749 -748h-154l-743 736v-736h-115z" />
    <glyph glyph-name="uni041B" unicode="&#x41b;" horiz-adv-x="1383" 
d="M40 0v108q58 -7 94.5 2.5t59.5 44.5t39.5 106t33.5 189q18 116 31 227.5t23 229t18 248.5t14 285h890v-1440h-115v1328h-660q-7 -116 -14 -228.5t-16 -226.5t-21.5 -233.5t-32.5 -251.5q-14 -94 -33.5 -175.5t-55.5 -138.5t-97 -78.5t-158 4.5z" />
    <glyph glyph-name="uni041C" unicode="&#x41c;" horiz-adv-x="1672" 
d="M140 0v1440h107l590 -1274l584 1274h111v-1438h-113v1173l-536 -1175h-94l-537 1175v-1175h-112z" />
    <glyph glyph-name="uni041D" unicode="&#x41d;" horiz-adv-x="1345" 
d="M140 0v1440h115v-664h834v664h116v-1440h-116v664h-834v-664h-115z" />
    <glyph glyph-name="uni041E" unicode="&#x41e;" horiz-adv-x="1429" 
d="M715 -30q-215 0 -361 95.5t-220 264.5t-74 390t74 390t220 264.5t361 95.5t360.5 -95.5t219.5 -264.5t74 -390t-74 -390t-219.5 -264.5t-360.5 -95.5zM715 83q177 -1 295 80.5t177 225.5t59 331t-59 331t-177 225t-295 81q-177 1 -294.5 -80t-176.5 -225.5t-61 -331.5
t57.5 -330.5t178.5 -225t296 -81.5z" />
    <glyph glyph-name="uni041F" unicode="&#x41f;" horiz-adv-x="1361" 
d="M140 0v1440h1081v-1440h-115v1328h-851v-1328h-115z" />
    <glyph glyph-name="uni0420" unicode="&#x420;" horiz-adv-x="1185" 
d="M140 0v1440h543q21 0 45.5 -1.5t51.5 -6.5q108 -17 185.5 -77.5t118.5 -152t41 -201.5q0 -111 -41 -202.5t-118.5 -152t-185.5 -77.5q-27 -4 -51.5 -6t-45.5 -2h-428v-561h-115zM255 674h426q18 0 41.5 2t47.5 6q78 16 130 63.5t78 114.5t26 141t-26 140.5t-78 114
t-130 63.5q-24 5 -47.5 7t-41.5 2h-426v-654z" />
    <glyph glyph-name="uni0421" unicode="&#x421;" horiz-adv-x="1415" 
d="M715 -30q-215 0 -361 95.5t-220 264.5t-74 390t74 390t220 264.5t361 95.5q251 0 407.5 -130t212.5 -348l-119 -29q-46 181 -171.5 287.5t-329.5 106.5q-177 0 -294.5 -81t-177 -225t-60.5 -331q-2 -187 57.5 -330.5t178.5 -225t296 -81.5q204 0 329.5 107t171.5 287
l119 -29q-56 -218 -212.5 -348t-407.5 -130z" />
    <glyph glyph-name="uni0422" unicode="&#x422;" horiz-adv-x="1187" 
d="M536 0v1328h-516v112h1147v-112h-516v-1328h-115z" />
    <glyph glyph-name="uni0423" unicode="&#x423;" horiz-adv-x="1237" 
d="M400 0l154 326l-517 1114h126l451 -988l458 988h123l-666 -1440h-129z" />
    <glyph glyph-name="uni0424" unicode="&#x424;" horiz-adv-x="1403" 
d="M644 0v187q-111 -19 -215.5 10.5t-187.5 103.5t-132 191t-49 273q0 157 49 273.5t132 191t187.5 104.5t215.5 11v95h115v-95q111 19 215.5 -11t187.5 -104.5t132 -191t49 -273.5q0 -156 -49 -273t-132 -191t-187.5 -103.5t-215.5 -10.5v-187h-115zM644 300v934
q-98 14 -182.5 -14t-147 -91t-98 -155t-35.5 -209q0 -116 35.5 -208t98 -154t147 -89t182.5 -14zM759 300q98 -13 182 14t147 88.5t98.5 154t35.5 207.5q0 116 -35.5 208t-98.5 156t-147 92t-182 14v-934z" />
    <glyph glyph-name="uni0425" unicode="&#x425;" horiz-adv-x="1179" 
d="M20 0l502 730l-490 710h139l418 -615l419 615h139l-490 -710l502 -730h-139l-431 633l-430 -633h-139z" />
    <glyph glyph-name="uni0426" unicode="&#x426;" horiz-adv-x="1410" 
d="M1275 -173v173h-1135v1440h115v-1330h870v1323h115v-1323h150v-283h-115z" />
    <glyph glyph-name="uni0427" unicode="&#x427;" horiz-adv-x="1274" 
d="M1018 0v688l41 -64q-71 -49 -171 -80.5t-230 -31.5q-189 0 -303 68.5t-164.5 189t-50.5 274.5v396h116v-352q0 -109 22.5 -194.5t71 -145t125.5 -90t185 -30.5q139 0 240 41t150 89l-32 -117v799h116v-1440h-116z" />
    <glyph glyph-name="uni0428" unicode="&#x428;" horiz-adv-x="1787" 
d="M140 0v1440h115v-1328h581v1328h115v-1328h580v1328h116v-1440h-1507z" />
    <glyph glyph-name="uni0429" unicode="&#x429;" horiz-adv-x="1817" 
d="M1682 -173v173h-140v110h255v-283h-115zM140 0v1440h115v-1328h581v1328h115v-1328h580v1328h116v-1440h-1507z" />
    <glyph glyph-name="uni042A" unicode="&#x42a;" horiz-adv-x="1209" 
d="M167 0v1335h-184v105h299v-561h428q21 0 45 -1.5t51 -6.5q108 -17 185.5 -77.5t119 -152t41.5 -202.5q0 -110 -41 -201.5t-118.5 -152t-186.5 -77.5q-27 -4 -51 -6t-45 -2h-543zM282 112h426q17 0 41 2t47 7q79 16 131 63.5t78 114t26 140.5t-26 141t-78 114.5t-131 63.5
q-23 5 -47 6.5t-41 1.5h-426v-654z" />
    <glyph glyph-name="uni042B" unicode="&#x42b;" horiz-adv-x="1521" 
d="M140 0v1440h115v-561h428q21 0 45 -1.5t51 -6.5q108 -17 185.5 -77.5t119 -152t41.5 -202.5q0 -110 -41 -201.5t-118.5 -152t-186.5 -77.5q-27 -4 -51 -6t-45 -2h-543zM255 112h426q17 0 41 2t47 7q79 16 131 63.5t78 114t26 140.5t-26 141t-78 114.5t-131 63.5
q-23 5 -47 6.5t-41 1.5h-426v-654zM1265 0v1440h115v-1440h-115z" />
    <glyph glyph-name="uni042C" unicode="&#x42c;" horiz-adv-x="1205" 
d="M140 0v1440h115v-561h428q21 0 45 -1.5t51 -6.5q108 -17 185.5 -77.5t119 -152t41.5 -202.5q0 -110 -41 -201.5t-118.5 -152t-186.5 -77.5q-27 -4 -51 -6t-45 -2h-543zM255 112h426q17 0 41 2t47 7q79 16 131 63.5t78 114t26 140.5t-26 141t-78 114.5t-131 63.5
q-23 5 -47 6.5t-41 1.5h-426v-654z" />
    <glyph glyph-name="uni042D" unicode="&#x42d;" horiz-adv-x="1395" 
d="M683 -30q-154 0 -279.5 55t-211.5 158t-122 248l114 31q51 -179 182.5 -280.5t313.5 -98.5q123 2 229 46t177 139q70 93 95.5 192t29.5 204h-534v112h534q-9 171 -71.5 302.5t-177.5 205.5t-282 72q-197 -3 -328.5 -109.5t-172.5 -291.5l-119 18q54 237 219.5 367
t403.5 130q210 0 354 -94t219 -262.5t79 -393.5q4 -210 -70 -380t-221 -270t-361 -100z" />
    <glyph glyph-name="uni042E" unicode="&#x42e;" horiz-adv-x="1815" 
d="M140 0v1440h115v-662h430v-116h-430v-662h-115zM1188 -30q-144 0 -251 61t-177 166t-105 240t-35 283q0 149 35 283t105 239t177 165.5t251 60.5t250.5 -60.5t176.5 -165.5t105 -239t35 -283q0 -154 -35 -290t-105 -239.5t-176.5 -162t-250.5 -58.5zM1188 83
q110 0 193 51t138.5 139.5t83.5 204t29 242.5q2 127 -26 242t-84 203.5t-140 139.5t-194 51q-111 0 -194 -51t-138 -139.5t-83 -203.5t-30 -242q-1 -127 26.5 -242.5t83.5 -204t140 -139.5t195 -51z" />
    <glyph glyph-name="uni042F" unicode="&#x42f;" horiz-adv-x="1242" 
d="M1102 0h-116v561h-514l-33 13q-152 32 -237 150t-85 277q0 110 41 201.5t118.5 152t185.5 77.5q27 5 51.5 6.5t45.5 1.5h543v-1440zM215 0h-135l312 640l107 -54zM986 674v654h-425q-17 0 -41 -2t-48 -7q-78 -16 -130 -63.5t-78.5 -114t-26.5 -140.5t26.5 -141
t78.5 -114.5t130 -63.5q24 -4 48 -6t41 -2h425z" />
    <glyph glyph-name="uni0430" unicode="&#x430;" horiz-adv-x="1098" 
d="M452 -30q-125 0 -207.5 44t-123.5 116.5t-41 157.5q0 92 38.5 154t103 100t142.5 57q89 20 192 34.5t196.5 25.5t152.5 19l-42 -25q4 175 -65.5 260.5t-244.5 85.5q-123 0 -202.5 -55.5t-111.5 -171.5l-118 33q37 147 149 226t287 79q149 0 250.5 -58t141.5 -163
q17 -43 23 -100.5t6 -115.5v-673h-105v284l39 -10q-49 -146 -171 -225t-289 -79zM458 76q110 0 193 39.5t134.5 111t65.5 168.5q10 54 11 117t1 93l50 -32q-65 -8 -155.5 -17t-184.5 -22t-170 -33q-47 -13 -94.5 -37.5t-79 -67.5t-31.5 -109q0 -49 24.5 -98t81.5 -81
t154 -32z" />
    <glyph glyph-name="uni0431" unicode="&#x431;" horiz-adv-x="1156" 
d="M568 -30q-151 0 -259 64t-167 195.5t-61 334.5q-2 85 6 184t22.5 187t31.5 140q24 76 72.5 141.5t114.5 107.5q60 40 139 63t165 36.5t168 23t149 23.5l14 -107q-54 -10 -130 -19.5t-159 -23t-159 -35.5t-130 -56q-84 -51 -129 -156t-56 -245q62 99 168 152t234 53
q146 0 252.5 -67t164 -186.5t57.5 -278.5q0 -161 -61 -280.5t-175 -185.5t-272 -65zM578 82q184 0 279.5 114.5t95.5 304.5q0 195 -99 307t-278 112t-275.5 -112t-96.5 -307q0 -194 96 -306.5t278 -112.5z" />
    <glyph glyph-name="uni0432" unicode="&#x432;" horiz-adv-x="1056" 
d="M140 0v1080h429q28 0 77.5 -3.5t94.5 -15.5q95 -24 148.5 -100t53.5 -177q0 -54 -15.5 -99.5t-46.5 -80.5q-14 -17 -32 -30.5t-35 -21.5q30 -6 68 -31q58 -36 86 -95t28 -136q0 -111 -53.5 -180t-138.5 -93q-41 -12 -87 -14.5t-84 -2.5h-493zM256 104h374q21 0 55 3.5
t60 9.5q68 16 98.5 65.5t30.5 109.5q0 79 -47 129.5t-128 60.5q-23 4 -48.5 4.5t-47.5 0.5h-347v-383zM256 592h336q24 0 57 3.5t59 12.5q58 20 86 68.5t28 104.5q0 63 -30 109.5t-87 66.5q-40 13 -83.5 15.5t-54.5 2.5h-311v-383z" />
    <glyph glyph-name="uni0433" unicode="&#x433;" horiz-adv-x="920" 
d="M140 0v1080h730v-112h-615v-968h-115z" />
    <glyph glyph-name="uni0434" unicode="&#x434;" horiz-adv-x="1173" 
d="M60 -240v345q93 0 134.5 59t67.5 185q17 84 28.5 182t20 230t17.5 319h684v-975h101v-345h-112v240h-828v-240h-113zM285 105h611v870h-457q-4 -82 -10 -174.5t-14 -184.5t-19 -173t-26 -140q-16 -67 -34 -117t-51 -81z" />
    <glyph glyph-name="uni0435" unicode="&#x435;" horiz-adv-x="1158" 
d="M585 -30q-155 0 -268 69.5t-175 197t-62 301.5q0 177 61.5 305.5t174 197.5t267.5 69q157 0 268.5 -71.5t170 -206.5t55.5 -325h-120v40q-5 222 -100 338t-272 116q-183 0 -282.5 -120.5t-99.5 -340.5q0 -218 99.5 -338t280.5 -120q125 0 218.5 58.5t148.5 167.5l104 -46
q-65 -140 -188 -216t-281 -76zM159 507v104h853v-104h-853z" />
    <glyph glyph-name="uni0436" unicode="&#x436;" horiz-adv-x="1353" 
d="M20 0l476 540l-458 540h132l451 -537v537h110v-537l451 537h133l-458 -540l476 -540h-136l-466 537v-537h-110v537l-465 -537h-136z" />
    <glyph glyph-name="uni0437" unicode="&#x437;" horiz-adv-x="1003" 
d="M530 -30q-166 0 -285 73.5t-188 205.5l94 57q59 -109 152.5 -166.5t216.5 -57.5q128 0 206.5 60.5t78.5 166.5q0 68 -29 112t-92 65t-164 21h-144v103h143q119 0 189.5 47t70.5 139q0 102 -75 152t-181 50q-102 0 -190.5 -42t-145.5 -109l-80 78q77 92 185 138.5
t241 46.5q104 0 186.5 -37t130 -106t47.5 -165q0 -97 -48 -164t-132 -106l-11 48q76 -9 124.5 -53t70.5 -105.5t22 -124.5q0 -99 -51 -172.5t-140 -114t-202 -40.5z" />
    <glyph glyph-name="uni0438" unicode="&#x438;" horiz-adv-x="1112" 
d="M972 1080v-1080h-113v887l-618 -887h-101v1080h113v-883l618 883h101z" />
    <glyph glyph-name="uni0439" unicode="&#x439;" horiz-adv-x="1112" 
d="M571 1210q-67 0 -122.5 33t-88 88t-32.5 122h100q0 -58 42.5 -100.5t100.5 -42.5q60 0 101.5 42.5t41.5 100.5h100q0 -67 -32.5 -122t-88 -88t-122.5 -33zM972 1080v-1080h-113v887l-618 -887h-101v1080h113v-883l618 883h101z" />
    <glyph glyph-name="uni043A" unicode="&#x43a;" horiz-adv-x="964" 
d="M140 0v1080h116v-520l511 520h161l-535 -540l611 -540h-179l-569 520v-520h-116z" />
    <glyph glyph-name="uni043B" unicode="&#x43b;" horiz-adv-x="1132" 
d="M40 0v104q61 -11 92 6.5t45.5 58t23.5 98.5q17 100 30 218.5t24 265t22 329.5h715v-1080h-116v968h-487q-8 -120 -17.5 -233t-20 -214.5t-22 -185t-24.5 -144.5q-15 -80 -40.5 -128.5t-77.5 -64.5t-147 2z" />
    <glyph glyph-name="uni043C" unicode="&#x43c;" horiz-adv-x="1362" 
d="M140 0v1080h108l433 -930l432 930h109v-1080h-114v823l-381 -823h-93l-381 823v-823h-113z" />
    <glyph glyph-name="uni043D" unicode="&#x43d;" horiz-adv-x="1161" 
d="M140 0v1080h115v-484h651v484h115v-1080h-115v484h-651v-484h-115z" />
    <glyph glyph-name="uni043E" unicode="&#x43e;" horiz-adv-x="1166" 
d="M583 -30q-161 0 -273 73t-171 202t-59 297q0 169 60 297.5t172.5 199.5t270.5 71q161 0 273.5 -72.5t171 -200.5t58.5 -295q0 -171 -59 -299.5t-172 -200.5t-272 -72zM583 82q191 0 285.5 128t94.5 332q0 208 -95 332t-285 124q-129 0 -213 -58.5t-125.5 -161
t-41.5 -236.5q0 -208 96.5 -334t283.5 -126z" />
    <glyph glyph-name="uni043F" unicode="&#x43f;" horiz-adv-x="1112" 
d="M140 0v1080h832v-1080h-115v968h-602v-968h-115z" />
    <glyph glyph-name="uni0440" unicode="&#x440;" horiz-adv-x="1168" 
d="M613 -30q-146 0 -247 76t-154 205t-53 291q0 163 53 291.5t157 202.5t255 74q147 0 251 -75t158.5 -204t54.5 -289q0 -162 -55.5 -291.5t-161 -205t-258.5 -75.5zM140 -480v1560h105v-832h10v-728h-115zM606 80q119 0 198.5 61t120 165.5t40.5 235.5q0 130 -39.5 233.5
t-119 164t-202.5 60.5q-119 0 -199 -58.5t-120 -162.5t-40 -237q0 -132 39.5 -236.5t120 -165t201.5 -60.5z" />
    <glyph glyph-name="uni0441" unicode="&#x441;" horiz-adv-x="1093" 
d="M581 -30q-162 0 -273 72.5t-168.5 201t-59.5 296.5q2 171 60.5 299.5t169.5 199.5t272 71q157 0 276.5 -75.5t165.5 -207.5l-112 -41q-41 101 -129 156.5t-202 55.5q-128 0 -211 -58.5t-124 -161.5t-43 -238q3 -207 97.5 -332.5t280.5 -125.5q115 0 199.5 53t129.5 154
l114 -39q-63 -137 -176 -208.5t-267 -71.5z" />
    <glyph glyph-name="uni0442" unicode="&#x442;" horiz-adv-x="997" 
d="M441 0v970h-391v110h897v-110h-391v-970h-115z" />
    <glyph glyph-name="uni0443" unicode="&#x443;" horiz-adv-x="1033" 
d="M298 -480l210 565l2 -168l-473 1163h123l406 -1010h-64l369 1010h121l-574 -1560h-120z" />
    <glyph glyph-name="uni0444" unicode="&#x444;" horiz-adv-x="1418" 
d="M654 -450v429q-158 -25 -288.5 34.5t-208 193.5t-77.5 331q0 198 77.5 332.5t208 195t288.5 35.5v334h110v-334q158 25 288.5 -35.5t208 -195t77.5 -332.5q0 -197 -77.5 -331t-208 -193.5t-288.5 -34.5v-429h-110zM654 89v902q-81 14 -161 -5t-146.5 -73.5t-106 -147
t-39.5 -227.5q0 -134 40 -226.5t106.5 -146t146.5 -71.5t160 -5zM764 89q80 -13 160 5t147 71.5t106.5 146t39.5 226.5q0 135 -39.5 228t-106 147t-146.5 73t-161 5v-902z" />
    <glyph glyph-name="uni0445" unicode="&#x445;" horiz-adv-x="1036" 
d="M20 0l431 546l-421 534h140l349 -447l347 447h140l-421 -534l431 -546h-142l-355 459l-357 -459h-142z" />
    <glyph glyph-name="uni0446" unicode="&#x446;" horiz-adv-x="1211" 
d="M1076 -173v173h-936v1080h115v-968h602v968h115v-970h219v-283h-115z" />
    <glyph glyph-name="uni0447" unicode="&#x447;" horiz-adv-x="1067" 
d="M811 0v415q-53 -27 -134.5 -48.5t-176.5 -21.5q-163 0 -266 72.5t-135 208.5q-9 42 -13 88t-5 83.5t-1 52.5v230h116v-230q0 -37 2 -79t9 -80q20 -119 97.5 -181.5t216.5 -62.5q83 0 160 21t130 58v554h116v-1080h-116z" />
    <glyph glyph-name="uni0448" unicode="&#x448;" horiz-adv-x="1495" 
d="M140 0v1080h113v-970h439v970h113v-970h437v970h113v-1080h-1215z" />
    <glyph glyph-name="uni0449" unicode="&#x449;" horiz-adv-x="1530" 
d="M1395 -173v173h-1255v1080h113v-970h439v970h113v-970h437v970h113v-970h155v-283h-115z" />
    <glyph glyph-name="uni044A" unicode="&#x44a;" horiz-adv-x="1090" 
d="M185 0l-2 975h-143v105h260v-422h273q47 0 89 -2t76 -9q76 -13 138 -49t98 -101.5t36 -167.5q0 -137 -71 -215t-172 -100q-41 -9 -86 -11.5t-92 -2.5h-404zM300 105h274q38 0 85 2t81 11q56 17 102.5 63t46.5 148q0 100 -44 148.5t-121 63.5q-34 8 -73.5 10t-76.5 2h-274
v-448z" />
    <glyph glyph-name="uni044B" unicode="&#x44b;" horiz-adv-x="1294" 
d="M141 0l-1 1080h117v-422h209q48 0 89.5 -2t76.5 -9q76 -14 137.5 -50t98 -101t36.5 -167q0 -137 -71 -215t-172 -100q-42 -9 -86.5 -11.5t-91.5 -2.5h-342zM257 105h211q37 0 84 2t82 11q56 17 102.5 63t46.5 148q0 100 -44.5 148.5t-120.5 63.5q-34 8 -73.5 10t-76.5 2
h-211v-448zM1039 0v1080h115v-1080h-115z" />
    <glyph glyph-name="uni044C" unicode="&#x44c;" horiz-adv-x="1047" 
d="M141 0l-1 1080h117v-422h272q48 0 89.5 -2t76.5 -9q76 -13 137.5 -49t98 -101.5t36.5 -167.5q0 -137 -71.5 -215t-172.5 -100q-41 -9 -86 -11.5t-91 -2.5h-405zM257 105h274q37 0 84 2t81 11q56 17 103 63t47 148q0 100 -44.5 148.5t-120.5 63.5q-35 8 -74 10t-76 2h-274
v-448z" />
    <glyph glyph-name="uni044D" unicode="&#x44d;" horiz-adv-x="1093" 
d="M514 -30q-155 0 -268 71.5t-177 208.5l114 39q46 -101 131 -154t198 -53q176 0 268.5 110.5t106.5 295.5h-525v105h525q-12 181 -104 293t-270 112q-114 0 -202 -55.5t-130 -156.5l-112 41q47 132 167 207.5t282 75.5q157 0 267.5 -71t169 -199.5t58.5 -299.5
q0 -173 -59.5 -301t-171 -198.5t-268.5 -70.5z" />
    <glyph glyph-name="uni044E" unicode="&#x44e;" horiz-adv-x="1542" 
d="M959 -30q-148 0 -255 64t-167 179.5t-70 268.5h-212v-482h-115v1080h115v-482h210q10 156 71.5 271t168.5 178t253 63q162 0 274.5 -72.5t171 -201t58.5 -294.5q0 -170 -59 -299t-171.5 -201t-272.5 -72zM955 82q195 0 289.5 126.5t94.5 333.5q0 209 -95.5 332.5
t-286.5 123.5q-180 0 -279 -120.5t-99 -335.5q0 -208 96 -334t280 -126z" />
    <glyph glyph-name="uni044F" unicode="&#x44f;" horiz-adv-x="1085" 
d="M828 0v422h-273q-45 0 -88.5 4.5t-81.5 11.5q-110 21 -188.5 96.5t-78.5 212.5q0 132 72.5 212t170.5 105q47 12 94.5 14t83.5 2h404l2 -1080h-117zM80 0l316 467h133l-318 -467h-131zM554 527h274v448h-274q-27 0 -75 -2t-89 -15q-35 -10 -70 -35.5t-58 -68.5t-23 -105
q0 -87 47 -138.5t119 -69.5q41 -10 80.5 -12t68.5 -2z" />
    <glyph glyph-name="uni0450" unicode="&#x450;" horiz-adv-x="1158" 
d="M547 1255l-108 290h108l107 -290h-107zM585 -30q-155 0 -268 69.5t-175 197t-62 301.5q0 177 61.5 305.5t174 197.5t267.5 69q157 0 268.5 -71.5t170 -206.5t55.5 -325h-120v40q-5 222 -100 338t-272 116q-183 0 -282.5 -120.5t-99.5 -340.5q0 -218 99.5 -338t280.5 -120
q125 0 218.5 58.5t148.5 167.5l104 -46q-65 -140 -188 -216t-281 -76zM159 507v104h853v-104h-853z" />
    <glyph glyph-name="uni0451" unicode="&#x451;" horiz-adv-x="1158" 
d="M698 1305v140h140v-140h-140zM327 1305v140h140v-140h-140zM585 -30q-155 0 -268 69.5t-175 197t-62 301.5q0 177 61.5 305.5t174 197.5t267.5 69q157 0 268.5 -71.5t170 -206.5t55.5 -325h-120v40q-5 222 -100 338t-272 116q-183 0 -282.5 -120.5t-99.5 -340.5
q0 -218 99.5 -338t280.5 -120q125 0 218.5 58.5t148.5 167.5l104 -46q-65 -140 -188 -216t-281 -76zM159 507v104h853v-104h-853z" />
    <glyph glyph-name="uni0452" unicode="&#x452;" 
d="M924 -375q-35 -6 -77.5 -2.5t-71.5 11.5v100q45 -6 75 -3.5t47.5 18.5t25.5 49.5t8 87.5v676q0 102 -20.5 182t-62 136t-104 85t-147.5 29q-88 0 -152.5 -30.5t-106 -85.5t-62 -130.5t-20.5 -164.5v-583h-116v1193h-134v105h134v142h105v-142h252v-105h-252v-277
q60 98 156 143.5t211 45.5q89 0 159.5 -26t122.5 -73.5t86 -112t50.5 -141.5t16.5 -161v-779q0 -88 -33 -132t-90 -55z" />
    <glyph glyph-name="uni0453" unicode="&#x453;" horiz-adv-x="920" 
d="M483 1255h-107l108 290h107zM140 0v1080h730v-112h-615v-968h-115z" />
    <glyph glyph-name="uni0454" unicode="&#x454;" horiz-adv-x="1093" 
d="M579 -30q-157 0 -268.5 70.5t-171 198.5t-59.5 301q0 171 58.5 299.5t169 199.5t267.5 71q164 0 283.5 -75.5t165.5 -207.5l-112 -41q-41 101 -129 156.5t-203 55.5q-177 0 -269 -112t-105 -293h525v-105h-525q14 -185 107 -295.5t268 -110.5q115 0 199.5 53t129.5 154
l114 -39q-63 -137 -176 -208.5t-269 -71.5z" />
    <glyph glyph-name="uni0455" unicode="&#x455;" horiz-adv-x="1039" 
d="M539 -28q-187 0 -308.5 79t-150.5 220l118 20q25 -96 118 -153t228 -57q134 0 213 57t79 156q0 54 -24.5 88.5t-96.5 63.5t-214 68q-150 40 -234.5 80t-119 91t-34.5 125q0 89 51 156.5t142.5 105.5t211.5 38t216 -39.5t155 -110t68 -163.5l-118 -22q-17 104 -105 164.5
t-220 61.5q-125 2 -204 -49.5t-79 -135.5q0 -48 27.5 -81.5t97.5 -61.5t198 -60q156 -40 243.5 -82t123.5 -98.5t36 -139.5q0 -150 -111.5 -235.5t-306.5 -85.5z" />
    <glyph glyph-name="uni0456" unicode="&#x456;" horiz-adv-x="435" 
d="M160 1298v147h115v-147h-115zM160 0v1080h115v-1080h-115z" />
    <glyph glyph-name="uni0457" unicode="&#x457;" horiz-adv-x="435" 
d="M333 1305v140h140v-140h-140zM-38 1305v140h140v-140h-140zM160 0v1080h115v-1080h-115z" />
    <glyph glyph-name="uni0458" unicode="&#x458;" horiz-adv-x="475" 
d="M-20 -480v114h65q68 0 113 36.5t45 127.5v1282h116v-1296q0 -136 -60.5 -200t-192.5 -64h-86zM203 1298v147h116v-147h-116z" />
    <glyph glyph-name="uni0459" unicode="&#x459;" horiz-adv-x="1662" 
d="M40 0v104q61 -11 91.5 6.5t45 57.5t24.5 99q18 100 31 218.5t23.5 265t21.5 329.5h658v-422h210q34 0 78 -1t87 -10q71 -12 133 -47t100.5 -100.5t38.5 -167.5q0 -143 -72 -219.5t-171 -98.5q-47 -10 -98.5 -12t-79.5 -2h-341l-2 968h-429q-8 -120 -17.5 -233t-20 -214.5
t-22 -185t-24.5 -144.5q-15 -80 -40.5 -128.5t-77.5 -64.5t-147 2zM935 105h211q43 0 86 2t80 11q35 10 69.5 33t57 66.5t22.5 115.5q0 97 -44.5 145t-120.5 63q-41 8 -84.5 10t-65.5 2h-211v-448z" />
    <glyph glyph-name="uni045A" unicode="&#x45a;" horiz-adv-x="1588" 
d="M140 0v1080h115v-422h489v422h117v-422h210q34 0 78 -1t87 -10q71 -12 133 -47t100.5 -100.5t38.5 -167.5q0 -143 -72 -219.5t-171 -98.5q-47 -10 -98.5 -12t-79.5 -2h-341l-2 553h-489v-553h-115zM861 105h211q43 0 86 2t80 11q35 10 69.5 33t57 66.5t22.5 115.5
q0 97 -44.5 145t-120.5 63q-41 8 -84.5 10t-65.5 2h-211v-448z" />
    <glyph glyph-name="uni045B" unicode="&#x45b;" 
d="M6 1193v105h491v-105h-491zM931 0v562q0 102 -20.5 182t-62 136t-104 85t-147.5 29q-88 0 -152.5 -30.5t-106 -85.5t-62 -130.5t-20.5 -164.5l-91 11q0 175 59.5 288.5t160.5 168t227 54.5q89 0 159.5 -26t122.5 -73.5t86 -112t50.5 -141.5t16.5 -161v-591h-116zM140 0
v1440h105v-832h11v-608h-116z" />
    <glyph glyph-name="uni045C" unicode="&#x45c;" horiz-adv-x="964" 
d="M512 1255h-107l107 290h107zM140 0v1080h116v-520l511 520h161l-535 -540l611 -540h-179l-569 520v-520h-116z" />
    <glyph glyph-name="uni045D" unicode="&#x45d;" horiz-adv-x="1112" 
d="M576 1255l-108 290h107l108 -290h-107zM972 1080v-1080h-113v887l-618 -887h-101v1080h113v-883l618 883h101z" />
    <glyph glyph-name="uni045E" unicode="&#x45e;" horiz-adv-x="1033" 
d="M564 1210q-67 0 -122.5 33t-88 88t-32.5 122h100q0 -58 42.5 -100.5t100.5 -42.5q60 0 101.5 42.5t41.5 100.5h100q0 -67 -32.5 -122t-87.5 -88t-123 -33zM298 -480l210 565l2 -168l-473 1163h123l406 -1010h-64l369 1010h121l-574 -1560h-120z" />
    <glyph glyph-name="uni045F" unicode="&#x45f;" horiz-adv-x="1112" 
d="M523 -240v240h-383v1080h115v-968h602v968h115v-1080h-334v-240h-115z" />
    <glyph glyph-name="uni0490" unicode="&#x490;" horiz-adv-x="1070" 
d="M140 0v1440h795v173h115v-285h-795v-1328h-115z" />
    <glyph glyph-name="uni0491" unicode="&#x491;" horiz-adv-x="920" 
d="M140 0v1080h615v173h115v-285h-615v-968h-115z" />
    <glyph glyph-name="Ustraitcy" unicode="&#x4ae;" horiz-adv-x="1075" 
d="M480 0v608l-480 832h133l405 -700l404 700h133l-479 -832v-608h-116z" />
    <glyph glyph-name="ustraitcy" unicode="&#x4af;" horiz-adv-x="986" 
d="M432 -360v360l-392 1080h120l333 -923l334 923h119l-392 -1080v-360h-122z" />
    <glyph glyph-name="uni04BA" unicode="&#x4ba;" horiz-adv-x="1274" 
d="M256 1440v-688l-42 64q72 50 172.5 81t229.5 31q189 0 302.5 -68.5t164.5 -189t51 -274.5v-396h-116v352q0 110 -22.5 195t-71.5 144.5t-125.5 90t-185.5 30.5q-138 0 -238.5 -40.5t-150.5 -89.5l32 117v-799h-116v1440h116z" />
    <glyph glyph-name="uni04BB" unicode="&#x4bb;" horiz-adv-x="1100" 
d="M289 1080v-415q54 27 135.5 48.5t175.5 21.5q163 0 267 -72.5t134 -208.5q10 -42 14 -88t4.5 -83.5t0.5 -52.5v-230h-116v230q0 38 -2 80t-8 79q-21 120 -98 182t-217 62q-82 0 -159.5 -21t-130.5 -58v-554h-116v1080h116z" />
    <glyph glyph-name="uni04E8" unicode="&#x4e8;" horiz-adv-x="1469" 
d="M157 662v116h1143v-116h-1143zM715 -30q-215 0 -361 95.5t-220 264.5t-74 390t74 390t220 264.5t361 95.5t360.5 -95.5t219.5 -264.5t74 -390t-74 -390t-219.5 -264.5t-360.5 -95.5zM715 83q177 -1 295 80.5t177 225.5t59 331t-59 331t-177 225t-295 81
q-177 1 -294.5 -80t-176.5 -225.5t-61 -331.5t57.5 -330.5t178.5 -225t296 -81.5z" />
    <glyph glyph-name="uni04E9" unicode="&#x4e9;" horiz-adv-x="1166" 
d="M164 488v105h852v-105h-852zM583 -30q-161 0 -273 73t-171 202t-59 297q0 169 60 297.5t172.5 199.5t270.5 71q161 0 273.5 -72.5t171 -200.5t58.5 -295q0 -171 -59 -299.5t-172 -200.5t-272 -72zM583 82q191 0 285.5 128t94.5 332q0 208 -95 332t-285 124
q-129 0 -213 -58.5t-125.5 -161t-41.5 -236.5q0 -208 96.5 -334t283.5 -126z" />
    <glyph glyph-name="Wgrave" unicode="&#x1e80;" horiz-adv-x="1845" 
d="M861 1615l-108 290h107l108 -290h-107zM450 0l-413 1440h119l353 -1238l352 1238h121l353 -1238l352 1238h121l-414 -1440h-118l-354 1234l-354 -1234h-118z" />
    <glyph glyph-name="wgrave" unicode="&#x1e81;" horiz-adv-x="1511" 
d="M694 1255l-108 290h108l107 -290h-107zM370 0l-330 1080h118l271 -887l271 887h111l272 -887l272 887h116l-330 -1080h-108l-277 899l-278 -899h-108z" />
    <glyph glyph-name="Wacute" unicode="&#x1e82;" horiz-adv-x="1845" 
d="M984 1615h-107l108 290h107zM450 0l-413 1440h119l353 -1238l352 1238h121l353 -1238l352 1238h121l-414 -1440h-118l-354 1234l-354 -1234h-118z" />
    <glyph glyph-name="wacute" unicode="&#x1e83;" horiz-adv-x="1511" 
d="M817 1255h-107l108 290h107zM370 0l-330 1080h118l271 -887l271 887h111l272 -887l272 887h116l-330 -1080h-108l-277 899l-278 -899h-108z" />
    <glyph glyph-name="Wdieresis" unicode="&#x1e84;" horiz-adv-x="1845" 
d="M1039 1665v140h140v-140h-140zM668 1665v140h140v-140h-140zM450 0l-413 1440h119l353 -1238l352 1238h121l353 -1238l352 1238h121l-414 -1440h-118l-354 1234l-354 -1234h-118z" />
    <glyph glyph-name="wdieresis" unicode="&#x1e85;" horiz-adv-x="1511" 
d="M871 1305v140h140v-140h-140zM500 1305v140h140v-140h-140zM370 0l-330 1080h118l271 -887l271 887h111l272 -887l272 887h116l-330 -1080h-108l-277 899l-278 -899h-108z" />
    <glyph glyph-name="uni1E9E" unicode="&#x1e9e;" horiz-adv-x="1387" 
d="M812 -30q-60 0 -101 8.5t-84 21.5v114q50 -15 91.5 -20.5t89.5 -5.5q97 0 174 36t122 106.5t45 173.5q0 93 -47 161.5t-136.5 108t-218.5 43.5l-8 93l260 452q-49 31 -123 61.5t-187 30.5q-175 0 -276 -83t-129 -208q-14 -64 -18 -130.5t-4 -131.5v-801h-122v878
q0 74 6 129t17 99q36 143 119.5 221.5t191.5 110.5t220 32q104 0 190.5 -26.5t154.5 -64t115 -71.5l-276 -493q94 -10 183.5 -58t147.5 -136t58 -218q0 -203 -121 -318t-334 -115z" />
    <glyph glyph-name="uni1EA0" unicode="&#x1ea0;" horiz-adv-x="1243" 
d="M549 -382v147h145v-147h-145zM40 0l510 1440h143l510 -1440h-122l-490 1380h58l-487 -1380h-122zM251 362v109h740v-109h-740z" />
    <glyph glyph-name="uni1EA1" unicode="&#x1ea1;" horiz-adv-x="1098" 
d="M462 -382v147h145v-147h-145zM452 -30q-125 0 -207.5 44t-123.5 116.5t-41 157.5q0 92 38.5 154t103 100t142.5 57q89 20 192 34.5t196.5 25.5t152.5 19l-42 -25q4 175 -65.5 260.5t-244.5 85.5q-123 0 -202.5 -55.5t-111.5 -171.5l-118 33q37 147 149 226t287 79
q149 0 250.5 -58t141.5 -163q17 -43 23 -100.5t6 -115.5v-673h-105v284l39 -10q-49 -146 -171 -225t-289 -79zM458 76q110 0 193 39.5t134.5 111t65.5 168.5q10 54 11 117t1 93l50 -32q-65 -8 -155.5 -17t-184.5 -22t-170 -33q-47 -13 -94.5 -37.5t-79 -67.5t-31.5 -109
q0 -49 24.5 -98t81.5 -81t154 -32z" />
    <glyph glyph-name="uni1EA2" unicode="&#x1ea2;" horiz-adv-x="1243" 
d="M515 1824l-43 63q35 38 84.5 55t98.5 4.5t84 -65.5q25 -40 27 -81t-14.5 -79t-47.5 -67.5t-69 -46.5l-50 58q62 32 83.5 77.5t-3.5 86.5q-17 28 -43 33.5t-54.5 -5t-52.5 -33.5zM40 0l510 1440h143l510 -1440h-122l-490 1380h58l-487 -1380h-122zM251 362v109h740v-109
h-740z" />
    <glyph glyph-name="uni1EA3" unicode="&#x1ea3;" horiz-adv-x="1098" 
d="M456 1465l-43 63q35 39 84.5 55.5t98.5 4t84 -65.5q25 -40 27 -81t-15 -78.5t-47.5 -67t-68.5 -47.5l-51 59q63 31 84.5 76.5t-3.5 86.5q-17 29 -43.5 34.5t-54.5 -5.5t-52 -34zM452 -30q-125 0 -207.5 44t-123.5 116.5t-41 157.5q0 92 38.5 154t103 100t142.5 57
q89 20 192 34.5t196.5 25.5t152.5 19l-42 -25q4 175 -65.5 260.5t-244.5 85.5q-123 0 -202.5 -55.5t-111.5 -171.5l-118 33q37 147 149 226t287 79q149 0 250.5 -58t141.5 -163q17 -43 23 -100.5t6 -115.5v-673h-105v284l39 -10q-49 -146 -171 -225t-289 -79zM458 76
q110 0 193 39.5t134.5 111t65.5 168.5q10 54 11 117t1 93l50 -32q-65 -8 -155.5 -17t-184.5 -22t-170 -33q-47 -13 -94.5 -37.5t-79 -67.5t-31.5 -109q0 -49 24.5 -98t81.5 -81t154 -32z" />
    <glyph glyph-name="uni1EA4" unicode="&#x1ea4;" horiz-adv-x="1243" 
d="M349 1615l215 255h114l214 -255h-125l-146 172l-147 -172h-125zM970 1825h-107l107 290h107zM40 0l510 1440h143l510 -1440h-122l-490 1380h58l-487 -1380h-122zM251 362v109h740v-109h-740z" />
    <glyph glyph-name="uni1EA5" unicode="&#x1ea5;" horiz-adv-x="1098" 
d="M300 1255l215 255h114l214 -255h-125l-146 172l-147 -172h-125zM921 1465h-107l107 290h107zM452 -30q-125 0 -207.5 44t-123.5 116.5t-41 157.5q0 92 38.5 154t103 100t142.5 57q89 20 192 34.5t196.5 25.5t152.5 19l-42 -25q4 175 -65.5 260.5t-244.5 85.5
q-123 0 -202.5 -55.5t-111.5 -171.5l-118 33q37 147 149 226t287 79q149 0 250.5 -58t141.5 -163q17 -43 23 -100.5t6 -115.5v-673h-105v284l39 -10q-49 -146 -171 -225t-289 -79zM458 76q110 0 193 39.5t134.5 111t65.5 168.5q10 54 11 117t1 93l50 -32q-65 -8 -155.5 -17
t-184.5 -22t-170 -33q-47 -13 -94.5 -37.5t-79 -67.5t-31.5 -109q0 -49 24.5 -98t81.5 -81t154 -32z" />
    <glyph glyph-name="uni1EA6" unicode="&#x1ea6;" horiz-adv-x="1243" 
d="M349 1615l215 255h114l214 -255h-125l-146 172l-147 -172h-125zM854 1825l-108 290h107l108 -290h-107zM40 0l510 1440h143l510 -1440h-122l-490 1380h58l-487 -1380h-122zM251 362v109h740v-109h-740z" />
    <glyph glyph-name="uni1EA7" unicode="&#x1ea7;" horiz-adv-x="1098" 
d="M308 1255l215 255h114l215 -255h-125l-147 172l-146 -172h-126zM814 1465l-108 290h107l108 -290h-107zM452 -30q-125 0 -207.5 44t-123.5 116.5t-41 157.5q0 92 38.5 154t103 100t142.5 57q89 20 192 34.5t196.5 25.5t152.5 19l-42 -25q4 175 -65.5 260.5t-244.5 85.5
q-123 0 -202.5 -55.5t-111.5 -171.5l-118 33q37 147 149 226t287 79q149 0 250.5 -58t141.5 -163q17 -43 23 -100.5t6 -115.5v-673h-105v284l39 -10q-49 -146 -171 -225t-289 -79zM458 76q110 0 193 39.5t134.5 111t65.5 168.5q10 54 11 117t1 93l50 -32q-65 -8 -155.5 -17
t-184.5 -22t-170 -33q-47 -13 -94.5 -37.5t-79 -67.5t-31.5 -109q0 -49 24.5 -98t81.5 -81t154 -32z" />
    <glyph glyph-name="uni1EA8" unicode="&#x1ea8;" horiz-adv-x="1243" 
d="M350 1615l215 255h114l214 -255h-125l-146 172l-147 -172h-125zM900 1824l-42 63q35 38 84.5 55t98.5 4.5t84 -65.5q25 -40 27 -81t-15 -79t-47.5 -67.5t-68.5 -46.5l-51 58q63 32 84 77.5t-3 86.5q-17 28 -43.5 33.5t-54.5 -5t-53 -33.5zM40 0l510 1440h143l510 -1440
h-122l-490 1380h58l-487 -1380h-122zM251 362v109h740v-109h-740z" />
    <glyph glyph-name="uni1EA9" unicode="&#x1ea9;" horiz-adv-x="1098" 
d="M279 1255l214 255h114l215 -255h-125l-147 172l-146 -172h-125zM829 1464l-43 63q36 38 85 55t98.5 4.5t83.5 -65.5q26 -40 27.5 -81t-15 -79t-47 -67.5t-69.5 -46.5l-50 58q62 32 83.5 77.5t-2.5 86.5q-17 28 -43.5 33.5t-54.5 -5t-53 -33.5zM452 -30q-125 0 -207.5 44
t-123.5 116.5t-41 157.5q0 92 38.5 154t103 100t142.5 57q89 20 192 34.5t196.5 25.5t152.5 19l-42 -25q4 175 -65.5 260.5t-244.5 85.5q-123 0 -202.5 -55.5t-111.5 -171.5l-118 33q37 147 149 226t287 79q149 0 250.5 -58t141.5 -163q17 -43 23 -100.5t6 -115.5v-673h-105
v284l39 -10q-49 -146 -171 -225t-289 -79zM458 76q110 0 193 39.5t134.5 111t65.5 168.5q10 54 11 117t1 93l50 -32q-65 -8 -155.5 -17t-184.5 -22t-170 -33q-47 -13 -94.5 -37.5t-79 -67.5t-31.5 -109q0 -49 24.5 -98t81.5 -81t154 -32z" />
    <glyph glyph-name="uni1EAA" unicode="&#x1eaa;" horiz-adv-x="1243" 
d="M346 1615l215 255h114l215 -255h-125l-147 172l-146 -172h-126zM769 1920q-41 0 -79.5 16t-75.5 36.5t-70 36.5t-63 16q-41 0 -51.5 -30.5t-0.5 -61.5h-88q-20 80 19.5 135.5t117.5 55.5q42 0 81 -16t75.5 -36.5t70 -36.5t63.5 -16q37 0 50.5 29t1.5 66h88
q20 -78 -19 -136t-120 -58zM40 0l510 1440h143l510 -1440h-122l-490 1380h58l-487 -1380h-122zM251 362v109h740v-109h-740z" />
    <glyph glyph-name="uni1EAB" unicode="&#x1eab;" horiz-adv-x="1098" 
d="M293 1255l215 255h114l215 -255h-125l-147 172l-147 -172h-125zM716 1560q-41 0 -79.5 16t-75.5 36.5t-70 36.5t-63 16q-41 0 -51.5 -30.5t-0.5 -61.5h-88q-20 80 19 135.5t118 55.5q42 0 81 -16t75.5 -36.5t70 -36.5t63.5 -16q36 0 50 29t1 66h88q21 -78 -18 -136
t-120 -58zM452 -30q-125 0 -207.5 44t-123.5 116.5t-41 157.5q0 92 38.5 154t103 100t142.5 57q89 20 192 34.5t196.5 25.5t152.5 19l-42 -25q4 175 -65.5 260.5t-244.5 85.5q-123 0 -202.5 -55.5t-111.5 -171.5l-118 33q37 147 149 226t287 79q149 0 250.5 -58t141.5 -163
q17 -43 23 -100.5t6 -115.5v-673h-105v284l39 -10q-49 -146 -171 -225t-289 -79zM458 76q110 0 193 39.5t134.5 111t65.5 168.5q10 54 11 117t1 93l50 -32q-65 -8 -155.5 -17t-184.5 -22t-170 -33q-47 -13 -94.5 -37.5t-79 -67.5t-31.5 -109q0 -49 24.5 -98t81.5 -81
t154 -32z" />
    <glyph glyph-name="uni1EAC" unicode="&#x1eac;" horiz-adv-x="1243" 
d="M549 -382v147h145v-147h-145zM350 1615l215 255h114l214 -255h-125l-146 172l-147 -172h-125zM40 0l510 1440h143l510 -1440h-122l-490 1380h58l-487 -1380h-122zM251 362v109h740v-109h-740z" />
    <glyph glyph-name="uni1EAD" unicode="&#x1ead;" horiz-adv-x="1098" 
d="M462 -382v147h145v-147h-145zM293 1255l214 255h114l215 -255h-125l-147 172l-146 -172h-125zM452 -30q-125 0 -207.5 44t-123.5 116.5t-41 157.5q0 92 38.5 154t103 100t142.5 57q89 20 192 34.5t196.5 25.5t152.5 19l-42 -25q4 175 -65.5 260.5t-244.5 85.5
q-123 0 -202.5 -55.5t-111.5 -171.5l-118 33q37 147 149 226t287 79q149 0 250.5 -58t141.5 -163q17 -43 23 -100.5t6 -115.5v-673h-105v284l39 -10q-49 -146 -171 -225t-289 -79zM458 76q110 0 193 39.5t134.5 111t65.5 168.5q10 54 11 117t1 93l50 -32q-65 -8 -155.5 -17
t-184.5 -22t-170 -33q-47 -13 -94.5 -37.5t-79 -67.5t-31.5 -109q0 -49 24.5 -98t81.5 -81t154 -32z" />
    <glyph glyph-name="uni1EAE" unicode="&#x1eae;" horiz-adv-x="1243" 
d="M621 1570q-67 0 -122 33t-88 88t-33 122h100q0 -58 42.5 -100.5t100.5 -42.5q60 0 101.5 42.5t41.5 100.5h100q0 -67 -32.5 -122t-87.5 -88t-123 -33zM671 1855h-107l108 290h107zM40 0l510 1440h143l510 -1440h-122l-490 1380h58l-487 -1380h-122zM251 362v109h740v-109
h-740z" />
    <glyph glyph-name="uni1EAF" unicode="&#x1eaf;" horiz-adv-x="1098" 
d="M564 1210q-67 0 -122.5 33t-88 88t-32.5 122h100q0 -58 42.5 -100.5t100.5 -42.5q60 0 101.5 42.5t41.5 100.5h100q0 -67 -32.5 -122t-88 -88t-122.5 -33zM614 1495h-108l108 290h107zM452 -30q-125 0 -207.5 44t-123.5 116.5t-41 157.5q0 92 38.5 154t103 100t142.5 57
q89 20 192 34.5t196.5 25.5t152.5 19l-42 -25q4 175 -65.5 260.5t-244.5 85.5q-123 0 -202.5 -55.5t-111.5 -171.5l-118 33q37 147 149 226t287 79q149 0 250.5 -58t141.5 -163q17 -43 23 -100.5t6 -115.5v-673h-105v284l39 -10q-49 -146 -171 -225t-289 -79zM458 76
q110 0 193 39.5t134.5 111t65.5 168.5q10 54 11 117t1 93l50 -32q-65 -8 -155.5 -17t-184.5 -22t-170 -33q-47 -13 -94.5 -37.5t-79 -67.5t-31.5 -109q0 -49 24.5 -98t81.5 -81t154 -32z" />
    <glyph glyph-name="uni1EB0" unicode="&#x1eb0;" horiz-adv-x="1243" 
d="M621 1570q-67 0 -122 33t-88 88t-33 122h100q0 -58 41.5 -100.5t101.5 -42.5t101.5 42.5t41.5 100.5h100q0 -67 -32.5 -122t-87.5 -88t-123 -33zM572 1855l-108 290h107l108 -290h-107zM40 0l510 1440h143l510 -1440h-122l-490 1380h58l-487 -1380h-122zM251 362v109h740
v-109h-740z" />
    <glyph glyph-name="uni1EB1" unicode="&#x1eb1;" horiz-adv-x="1098" 
d="M571 1210q-67 0 -122.5 33t-88 88t-32.5 122h100q0 -58 41.5 -100.5t101.5 -42.5t101.5 42.5t41.5 100.5h100q0 -67 -32.5 -122t-87.5 -88t-123 -33zM522 1495l-108 290h107l108 -290h-107zM452 -30q-125 0 -207.5 44t-123.5 116.5t-41 157.5q0 92 38.5 154t103 100
t142.5 57q89 20 192 34.5t196.5 25.5t152.5 19l-42 -25q4 175 -65.5 260.5t-244.5 85.5q-123 0 -202.5 -55.5t-111.5 -171.5l-118 33q37 147 149 226t287 79q149 0 250.5 -58t141.5 -163q17 -43 23 -100.5t6 -115.5v-673h-105v284l39 -10q-49 -146 -171 -225t-289 -79z
M458 76q110 0 193 39.5t134.5 111t65.5 168.5q10 54 11 117t1 93l50 -32q-65 -8 -155.5 -17t-184.5 -22t-170 -33q-47 -13 -94.5 -37.5t-79 -67.5t-31.5 -109q0 -49 24.5 -98t81.5 -81t154 -32z" />
    <glyph glyph-name="uni1EB2" unicode="&#x1eb2;" horiz-adv-x="1243" 
d="M621 1570q-67 0 -122 33t-88 88t-33 122h100q0 -58 42.5 -100.5t100.5 -42.5q60 0 101.5 42.5t41.5 100.5h100q0 -67 -32.5 -122t-87.5 -88t-123 -33zM489 2051l-43 63q35 39 84.5 56t98.5 4t84 -66q25 -40 27 -81t-14.5 -78.5t-47.5 -67t-69 -46.5l-50 58
q62 31 83.5 76.5t-3.5 86.5q-17 29 -43 34.5t-54.5 -5.5t-52.5 -34zM40 0l510 1440h143l510 -1440h-122l-490 1380h58l-487 -1380h-122zM251 362v109h740v-109h-740z" />
    <glyph glyph-name="uni1EB3" unicode="&#x1eb3;" horiz-adv-x="1098" 
d="M581 1210q-67 0 -122.5 33t-88 88t-32.5 122h100q0 -58 42.5 -100.5t100.5 -42.5q60 0 101.5 42.5t41.5 100.5h100q0 -67 -32.5 -122t-87.5 -88t-123 -33zM449 1691l-43 63q35 39 84.5 56t98.5 4t84 -66q25 -40 27 -81t-14.5 -78.5t-47.5 -67t-69 -46.5l-51 58
q63 31 84.5 76.5t-3.5 86.5q-17 29 -43 34.5t-54.5 -5.5t-52.5 -34zM452 -30q-125 0 -207.5 44t-123.5 116.5t-41 157.5q0 92 38.5 154t103 100t142.5 57q89 20 192 34.5t196.5 25.5t152.5 19l-42 -25q4 175 -65.5 260.5t-244.5 85.5q-123 0 -202.5 -55.5t-111.5 -171.5
l-118 33q37 147 149 226t287 79q149 0 250.5 -58t141.5 -163q17 -43 23 -100.5t6 -115.5v-673h-105v284l39 -10q-49 -146 -171 -225t-289 -79zM458 76q110 0 193 39.5t134.5 111t65.5 168.5q10 54 11 117t1 93l50 -32q-65 -8 -155.5 -17t-184.5 -22t-170 -33
q-47 -13 -94.5 -37.5t-79 -67.5t-31.5 -109q0 -49 24.5 -98t81.5 -81t154 -32z" />
    <glyph glyph-name="uni1EB4" unicode="&#x1eb4;" horiz-adv-x="1243" 
d="M753 1867q-40 0 -79 15.5t-75.5 36.5t-70 36.5t-63.5 15.5q-40 0 -51 -30t0 -61h-88q-21 79 18.5 134.5t118.5 55.5q41 0 80 -15.5t76 -36.5t70.5 -36.5t62.5 -15.5q37 0 50.5 29t1.5 65h88q20 -77 -19 -135t-120 -58zM607 1570q-68 0 -123 33t-88 88t-33 122h101
q0 -58 42 -100.5t101 -42.5q60 0 101.5 42.5t41.5 100.5h100q0 -67 -33 -122t-88 -88t-122 -33zM40 0l510 1440h143l510 -1440h-122l-490 1380h58l-487 -1380h-122zM251 362v109h740v-109h-740z" />
    <glyph glyph-name="uni1EB5" unicode="&#x1eb5;" horiz-adv-x="1098" 
d="M684 1507q-41 0 -79.5 15.5t-75.5 36.5t-70 36.5t-63 15.5q-41 0 -51.5 -30t-0.5 -61h-88q-20 79 19.5 134.5t117.5 55.5q42 0 81 -15.5t75.5 -36.5t70 -36.5t63.5 -15.5q37 0 50.5 29t1.5 65h88q20 -77 -19 -135t-120 -58zM537 1210q-67 0 -122.5 33t-88 88t-32.5 122
h100q0 -58 42.5 -100.5t100.5 -42.5q60 0 101.5 42.5t41.5 100.5h100q0 -67 -32.5 -122t-88 -88t-122.5 -33zM452 -30q-125 0 -207.5 44t-123.5 116.5t-41 157.5q0 92 38.5 154t103 100t142.5 57q89 20 192 34.5t196.5 25.5t152.5 19l-42 -25q4 175 -65.5 260.5t-244.5 85.5
q-123 0 -202.5 -55.5t-111.5 -171.5l-118 33q37 147 149 226t287 79q149 0 250.5 -58t141.5 -163q17 -43 23 -100.5t6 -115.5v-673h-105v284l39 -10q-49 -146 -171 -225t-289 -79zM458 76q110 0 193 39.5t134.5 111t65.5 168.5q10 54 11 117t1 93l50 -32q-65 -8 -155.5 -17
t-184.5 -22t-170 -33q-47 -13 -94.5 -37.5t-79 -67.5t-31.5 -109q0 -49 24.5 -98t81.5 -81t154 -32z" />
    <glyph glyph-name="uni1EB6" unicode="&#x1eb6;" horiz-adv-x="1243" 
d="M549 -382v147h145v-147h-145zM622 1570q-67 0 -122 33t-88 88t-33 122h100q0 -58 42.5 -100.5t100.5 -42.5q60 0 101.5 42.5t41.5 100.5h100q0 -67 -32.5 -122t-88 -88t-122.5 -33zM40 0l510 1440h143l510 -1440h-122l-490 1380h58l-487 -1380h-122zM251 362v109h740
v-109h-740z" />
    <glyph glyph-name="uni1EB7" unicode="&#x1eb7;" horiz-adv-x="1098" 
d="M462 -382v147h145v-147h-145zM565 1210q-67 0 -122.5 33t-88 88t-32.5 122h100q0 -58 42.5 -100.5t100.5 -42.5q60 0 101.5 42.5t41.5 100.5h100q0 -67 -32.5 -122t-87.5 -88t-123 -33zM452 -30q-125 0 -207.5 44t-123.5 116.5t-41 157.5q0 92 38.5 154t103 100t142.5 57
q89 20 192 34.5t196.5 25.5t152.5 19l-42 -25q4 175 -65.5 260.5t-244.5 85.5q-123 0 -202.5 -55.5t-111.5 -171.5l-118 33q37 147 149 226t287 79q149 0 250.5 -58t141.5 -163q17 -43 23 -100.5t6 -115.5v-673h-105v284l39 -10q-49 -146 -171 -225t-289 -79zM458 76
q110 0 193 39.5t134.5 111t65.5 168.5q10 54 11 117t1 93l50 -32q-65 -8 -155.5 -17t-184.5 -22t-170 -33q-47 -13 -94.5 -37.5t-79 -67.5t-31.5 -109q0 -49 24.5 -98t81.5 -81t154 -32z" />
    <glyph glyph-name="uni1EB8" unicode="&#x1eb8;" horiz-adv-x="1200" 
d="M512 -382v147h146v-147h-146zM140 0v1440h890v-112h-775v-547h655v-112h-655v-557h775v-112h-890z" />
    <glyph glyph-name="uni1EB9" unicode="&#x1eb9;" horiz-adv-x="1158" 
d="M513 -382v147h145v-147h-145zM585 -30q-155 0 -268 69.5t-175 197t-62 301.5q0 177 61.5 305.5t174 197.5t267.5 69q157 0 268.5 -71.5t170 -206.5t55.5 -325h-120v40q-5 222 -100 338t-272 116q-183 0 -282.5 -120.5t-99.5 -340.5q0 -218 99.5 -338t280.5 -120
q125 0 218.5 58.5t148.5 167.5l104 -46q-65 -140 -188 -216t-281 -76zM159 507v104h853v-104h-853z" />
    <glyph glyph-name="uni1EBA" unicode="&#x1eba;" horiz-adv-x="1130" 
d="M484 1824l-43 63q35 38 84.5 55t98.5 4.5t84 -65.5q25 -40 27 -81t-14.5 -79t-47 -67.5t-69.5 -46.5l-50 58q62 32 83.5 77.5t-3.5 86.5q-17 28 -43 33.5t-54.5 -5t-52.5 -33.5zM140 0v1440h890v-112h-775v-547h655v-112h-655v-557h775v-112h-890z" />
    <glyph glyph-name="uni1EBB" unicode="&#x1ebb;" horiz-adv-x="1200" 
d="M486 1465l-43 63q35 39 84.5 55.5t98.5 4t84 -65.5q25 -40 27 -81t-15 -78.5t-47.5 -67t-68.5 -47.5l-51 59q63 31 84.5 76.5t-3.5 86.5q-17 29 -43.5 34.5t-54.5 -5.5t-52 -34zM585 -30q-155 0 -268 69.5t-175 197t-62 301.5q0 177 61.5 305.5t174 197.5t267.5 69
q157 0 268.5 -71.5t170 -206.5t55.5 -325h-120v40q-5 222 -100 338t-272 116q-183 0 -282.5 -120.5t-99.5 -340.5q0 -218 99.5 -338t280.5 -120q125 0 218.5 58.5t148.5 167.5l104 -46q-65 -140 -188 -216t-281 -76zM159 507v104h853v-104h-853z" />
    <glyph glyph-name="uni1EBC" unicode="&#x1ebc;" horiz-adv-x="1130" 
d="M726 1616q-40 0 -79 16t-75.5 36.5t-70 36.5t-63.5 16q-41 0 -51.5 -30.5t0.5 -61.5h-89q-20 80 19.5 135.5t117.5 55.5q42 0 81 -16t76 -36.5t70 -36.5t63 -16q37 0 50.5 29t1.5 66h88q20 -78 -19 -136t-120 -58zM140 0v1440h890v-112h-775v-547h655v-112h-655v-557h775
v-112h-890z" />
    <glyph glyph-name="uni1EBD" unicode="&#x1ebd;" horiz-adv-x="1158" 
d="M730 1256q-41 0 -79.5 16t-75 36.5t-70 36.5t-63.5 16q-41 0 -51.5 -30.5t-0.5 -61.5h-88q-20 80 19.5 135.5t117.5 55.5q42 0 81 -16t76 -36.5t70 -36.5t63 -16q37 0 50.5 29t1.5 66h88q20 -78 -19 -136t-120 -58zM585 -30q-155 0 -268 69.5t-175 197t-62 301.5
q0 177 61.5 305.5t174 197.5t267.5 69q157 0 268.5 -71.5t170 -206.5t55.5 -325h-120v40q-5 222 -100 338t-272 116q-183 0 -282.5 -120.5t-99.5 -340.5q0 -218 99.5 -338t280.5 -120q125 0 218.5 58.5t148.5 167.5l104 -46q-65 -140 -188 -216t-281 -76zM159 507v104h853
v-104h-853z" />
    <glyph glyph-name="uni1EBE" unicode="&#x1ebe;" horiz-adv-x="1130" 
d="M302 1615l214 255h114l215 -255h-125l-147 172l-146 -172h-125zM922 1825h-107l108 290h107zM140 0v1440h890v-112h-775v-547h655v-112h-655v-557h775v-112h-890z" />
    <glyph glyph-name="uni1EBF" unicode="&#x1ebf;" horiz-adv-x="1158" 
d="M331 1255l215 255h114l215 -255h-125l-147 172l-147 -172h-125zM952 1465h-107l108 290h107zM585 -30q-155 0 -268 69.5t-175 197t-62 301.5q0 177 61.5 305.5t174 197.5t267.5 69q157 0 268.5 -71.5t170 -206.5t55.5 -325h-120v40q-5 222 -100 338t-272 116
q-183 0 -282.5 -120.5t-99.5 -340.5q0 -218 99.5 -338t280.5 -120q125 0 218.5 58.5t148.5 167.5l104 -46q-65 -140 -188 -216t-281 -76zM159 507v104h853v-104h-853z" />
    <glyph glyph-name="uni1EC0" unicode="&#x1ec0;" horiz-adv-x="1130" 
d="M348 1615l214 255h115l214 -255h-125l-146 172l-147 -172h-125zM853 1825l-108 290h107l108 -290h-107zM140 0v1440h890v-112h-775v-547h655v-112h-655v-557h775v-112h-890z" />
    <glyph glyph-name="uni1EC1" unicode="&#x1ec1;" horiz-adv-x="1158" 
d="M309 1255l215 255h114l215 -255h-125l-147 172l-146 -172h-126zM815 1465l-108 290h107l108 -290h-107zM585 -30q-155 0 -268 69.5t-175 197t-62 301.5q0 177 61.5 305.5t174 197.5t267.5 69q157 0 268.5 -71.5t170 -206.5t55.5 -325h-120v40q-5 222 -100 338t-272 116
q-183 0 -282.5 -120.5t-99.5 -340.5q0 -218 99.5 -338t280.5 -120q125 0 218.5 58.5t148.5 167.5l104 -46q-65 -140 -188 -216t-281 -76zM159 507v104h853v-104h-853z" />
    <glyph glyph-name="uni1EC2" unicode="&#x1ec2;" horiz-adv-x="1200" 
d="M320 1615l215 255h114l215 -255h-125l-147 172l-147 -172h-125zM871 1824l-43 63q35 38 84.5 55t98.5 4.5t84 -65.5q25 -40 27 -81t-14.5 -79t-47.5 -67.5t-69 -46.5l-50 58q62 32 83.5 77.5t-3.5 86.5q-17 28 -43 33.5t-54.5 -5t-52.5 -33.5zM140 0v1440h890v-112h-775
v-547h655v-112h-655v-557h775v-112h-890z" />
    <glyph glyph-name="uni1EC3" unicode="&#x1ec3;" horiz-adv-x="1158" 
d="M322 1255l215 255h114l215 -255h-125l-147 172l-147 -172h-125zM873 1464l-43 63q35 38 84.5 55t98.5 4.5t84 -65.5q25 -40 27 -81t-15 -79t-47.5 -67.5t-68.5 -46.5l-51 58q63 32 84.5 77.5t-3.5 86.5q-17 28 -43.5 33.5t-54.5 -5t-52 -33.5zM585 -30q-155 0 -268 69.5
t-175 197t-62 301.5q0 177 61.5 305.5t174 197.5t267.5 69q157 0 268.5 -71.5t170 -206.5t55.5 -325h-120v40q-5 222 -100 338t-272 116q-183 0 -282.5 -120.5t-99.5 -340.5q0 -218 99.5 -338t280.5 -120q125 0 218.5 58.5t148.5 167.5l104 -46q-65 -140 -188 -216t-281 -76
zM159 507v104h853v-104h-853z" />
    <glyph glyph-name="uni1EC4" unicode="&#x1ec4;" horiz-adv-x="1130" 
d="M308 1615l215 255h114l215 -255h-125l-147 172l-146 -172h-126zM731 1920q-41 0 -79.5 16t-75.5 36.5t-70 36.5t-63 16q-41 0 -51.5 -30.5t-0.5 -61.5h-88q-20 80 19.5 135.5t117.5 55.5q42 0 81 -16t75.5 -36.5t70 -36.5t63.5 -16q37 0 50.5 29t1.5 66h88
q20 -78 -19 -136t-120 -58zM140 0v1440h890v-112h-775v-547h655v-112h-655v-557h775v-112h-890z" />
    <glyph glyph-name="uni1EC5" unicode="&#x1ec5;" horiz-adv-x="1158" 
d="M318 1255l214 255h115l214 -255h-125l-146 172l-147 -172h-125zM740 1560q-40 0 -79 16t-75.5 36.5t-70 36.5t-63.5 16q-41 0 -51.5 -30.5t0.5 -61.5h-89q-20 80 19.5 135.5t118.5 55.5q41 0 80 -16t76 -36.5t70 -36.5t63 -16q37 0 50.5 29t1.5 66h88q20 -78 -19 -136
t-120 -58zM585 -30q-155 0 -268 69.5t-175 197t-62 301.5q0 177 61.5 305.5t174 197.5t267.5 69q157 0 268.5 -71.5t170 -206.5t55.5 -325h-120v40q-5 222 -100 338t-272 116q-183 0 -282.5 -120.5t-99.5 -340.5q0 -218 99.5 -338t280.5 -120q125 0 218.5 58.5t148.5 167.5
l104 -46q-65 -140 -188 -216t-281 -76zM159 507v104h853v-104h-853z" />
    <glyph glyph-name="uni1EC6" unicode="&#x1ec6;" horiz-adv-x="1130" 
d="M512 -382v147h146v-147h-146zM303 1615l214 255h114l215 -255h-125l-147 172l-146 -172h-125zM140 0v1440h890v-112h-775v-547h655v-112h-655v-557h775v-112h-890z" />
    <glyph glyph-name="uni1EC7" unicode="&#x1ec7;" horiz-adv-x="1158" 
d="M506 -382v147h145v-147h-145zM310 1255l215 255h114l215 -255h-125l-147 172l-147 -172h-125zM585 -30q-155 0 -268 69.5t-175 197t-62 301.5q0 177 61.5 305.5t174 197.5t267.5 69q157 0 268.5 -71.5t170 -206.5t55.5 -325h-120v40q-5 222 -100 338t-272 116
q-183 0 -282.5 -120.5t-99.5 -340.5q0 -218 99.5 -338t280.5 -120q125 0 218.5 58.5t148.5 167.5l104 -46q-65 -140 -188 -216t-281 -76zM159 507v104h853v-104h-853z" />
    <glyph glyph-name="uni1EC8" unicode="&#x1ec8;" horiz-adv-x="435" 
d="M101 1824l-42 63q35 38 84.5 55t98.5 4.5t84 -65.5q25 -40 27 -81t-15 -79t-47.5 -67.5t-68.5 -46.5l-51 58q63 32 84 77.5t-3 86.5q-17 28 -43.5 33.5t-54.5 -5t-53 -33.5zM160 0v1440h115v-1440h-115z" />
    <glyph glyph-name="uni1EC9" unicode="&#x1ec9;" horiz-adv-x="435" 
d="M95 1465l-43 63q36 39 85 55.5t98.5 4t83.5 -65.5q26 -40 27.5 -81t-15 -78.5t-47 -67t-69.5 -47.5l-50 59q62 31 83.5 76.5t-2.5 86.5q-17 29 -43.5 34.5t-54.5 -5.5t-53 -34zM160 0v1080h115v-1080h-115z" />
    <glyph glyph-name="uni1ECA" unicode="&#x1eca;" horiz-adv-x="435" 
d="M145 -382v147h145v-147h-145zM160 0v1440h115v-1440h-115z" />
    <glyph glyph-name="uni1ECB" unicode="&#x1ecb;" horiz-adv-x="435" 
d="M145 -382v147h145v-147h-145zM160 1298v147h115v-147h-115zM160 0v1080h115v-1080h-115z" />
    <glyph glyph-name="uni1ECC" unicode="&#x1ecc;" horiz-adv-x="1429" 
d="M622 -382v147h145v-147h-145zM715 -30q-215 0 -361 95.5t-220 264.5t-74 390t74 390t220 264.5t361 95.5t360.5 -95.5t219.5 -264.5t74 -390t-74 -390t-219.5 -264.5t-360.5 -95.5zM715 83q177 -1 295 80.5t177 225.5t59 331t-59 331t-177 225t-295 81q-177 1 -294.5 -80
t-176.5 -225.5t-61 -331.5t57.5 -330.5t178.5 -225t296 -81.5z" />
    <glyph glyph-name="uni1ECD" unicode="&#x1ecd;" horiz-adv-x="1166" 
d="M510 -382v147h146v-147h-146zM583 -30q-161 0 -273 73t-171 202t-59 297q0 169 60 297.5t172.5 199.5t270.5 71q161 0 273.5 -72.5t171 -200.5t58.5 -295q0 -171 -59 -299.5t-172 -200.5t-272 -72zM583 82q191 0 285.5 128t94.5 332q0 208 -95 332t-285 124
q-129 0 -213 -58.5t-125.5 -161t-41.5 -236.5q0 -208 96.5 -334t283.5 -126z" />
    <glyph glyph-name="uni1ECE" unicode="&#x1ece;" horiz-adv-x="1429" 
d="M637 1824l-43 63q35 38 84.5 55t98.5 4.5t84 -65.5q25 -40 27 -81t-14.5 -79t-47.5 -67.5t-69 -46.5l-50 58q62 32 83.5 77.5t-3.5 86.5q-17 28 -43 33.5t-54.5 -5t-52.5 -33.5zM715 -30q-215 0 -361 95.5t-220 264.5t-74 390t74 390t220 264.5t361 95.5t360.5 -95.5
t219.5 -264.5t74 -390t-74 -390t-219.5 -264.5t-360.5 -95.5zM715 83q177 -1 295 80.5t177 225.5t59 331t-59 331t-177 225t-295 81q-177 1 -294.5 -80t-176.5 -225.5t-61 -331.5t57.5 -330.5t178.5 -225t296 -81.5z" />
    <glyph glyph-name="uni1ECF" unicode="&#x1ecf;" horiz-adv-x="1166" 
d="M486 1465l-43 63q35 39 84.5 55.5t98.5 4t84 -65.5q25 -40 27 -81t-15 -78.5t-47.5 -67t-68.5 -47.5l-51 59q63 31 84.5 76.5t-3.5 86.5q-17 29 -43.5 34.5t-54.5 -5.5t-52 -34zM583 -30q-161 0 -273 73t-171 202t-59 297q0 169 60 297.5t172.5 199.5t270.5 71
q161 0 273.5 -72.5t171 -200.5t58.5 -295q0 -171 -59 -299.5t-172 -200.5t-272 -72zM583 82q191 0 285.5 128t94.5 332q0 208 -95 332t-285 124q-129 0 -213 -58.5t-125.5 -161t-41.5 -236.5q0 -208 96.5 -334t283.5 -126z" />
    <glyph glyph-name="uni1ED0" unicode="&#x1ed0;" horiz-adv-x="1429" 
d="M453 1615l215 255h114l215 -255h-125l-147 172l-147 -172h-125zM1074 1825h-107l108 290h107zM715 -30q-215 0 -361 95.5t-220 264.5t-74 390t74 390t220 264.5t361 95.5t360.5 -95.5t219.5 -264.5t74 -390t-74 -390t-219.5 -264.5t-360.5 -95.5zM715 83q177 -1 295 80.5
t177 225.5t59 331t-59 331t-177 225t-295 81q-177 1 -294.5 -80t-176.5 -225.5t-61 -331.5t57.5 -330.5t178.5 -225t296 -81.5z" />
    <glyph glyph-name="uni1ED1" unicode="&#x1ed1;" horiz-adv-x="1166" 
d="M321 1255l215 255h114l215 -255h-125l-147 172l-147 -172h-125zM942 1465h-107l108 290h107zM583 -30q-161 0 -273 73t-171 202t-59 297q0 169 60 297.5t172.5 199.5t270.5 71q161 0 273.5 -72.5t171 -200.5t58.5 -295q0 -171 -59 -299.5t-172 -200.5t-272 -72zM583 82
q191 0 285.5 128t94.5 332q0 208 -95 332t-285 124q-129 0 -213 -58.5t-125.5 -161t-41.5 -236.5q0 -208 96.5 -334t283.5 -126z" />
    <glyph glyph-name="uni1ED2" unicode="&#x1ed2;" horiz-adv-x="1429" 
d="M443 1615l215 255h114l215 -255h-125l-147 172l-147 -172h-125zM948 1825l-107 290h107l107 -290h-107zM715 -30q-215 0 -361 95.5t-220 264.5t-74 390t74 390t220 264.5t361 95.5t360.5 -95.5t219.5 -264.5t74 -390t-74 -390t-219.5 -264.5t-360.5 -95.5zM715 83
q177 -1 295 80.5t177 225.5t59 331t-59 331t-177 225t-295 81q-177 1 -294.5 -80t-176.5 -225.5t-61 -331.5t57.5 -330.5t178.5 -225t296 -81.5z" />
    <glyph glyph-name="uni1ED3" unicode="&#x1ed3;" horiz-adv-x="1166" 
d="M334 1255l214 255h115l214 -255h-125l-146 172l-147 -172h-125zM839 1465l-108 290h107l108 -290h-107zM583 -30q-161 0 -273 73t-171 202t-59 297q0 169 60 297.5t172.5 199.5t270.5 71q161 0 273.5 -72.5t171 -200.5t58.5 -295q0 -171 -59 -299.5t-172 -200.5t-272 -72
zM583 82q191 0 285.5 128t94.5 332q0 208 -95 332t-285 124q-129 0 -213 -58.5t-125.5 -161t-41.5 -236.5q0 -208 96.5 -334t283.5 -126z" />
    <glyph glyph-name="uni1ED4" unicode="&#x1ed4;" horiz-adv-x="1429" 
d="M473 1615l215 255h114l214 -255h-125l-146 172l-147 -172h-125zM1023 1824l-42 63q35 38 84.5 55t98.5 4.5t84 -65.5q25 -40 27 -81t-15 -79t-47.5 -67.5t-68.5 -46.5l-51 58q63 32 84 77.5t-3 86.5q-17 28 -43.5 33.5t-54.5 -5t-53 -33.5zM715 -30q-215 0 -361 95.5
t-220 264.5t-74 390t74 390t220 264.5t361 95.5t360.5 -95.5t219.5 -264.5t74 -390t-74 -390t-219.5 -264.5t-360.5 -95.5zM715 83q177 -1 295 80.5t177 225.5t59 331t-59 331t-177 225t-295 81q-177 1 -294.5 -80t-176.5 -225.5t-61 -331.5t57.5 -330.5t178.5 -225
t296 -81.5z" />
    <glyph glyph-name="uni1ED5" unicode="&#x1ed5;" horiz-adv-x="1166" 
d="M310 1255l214 255h114l215 -255h-125l-147 172l-146 -172h-125zM860 1464l-43 63q36 38 85 55t98.5 4.5t83.5 -65.5q26 -40 27.5 -81t-15 -79t-47 -67.5t-69.5 -46.5l-50 58q62 32 83.5 77.5t-2.5 86.5q-17 28 -43.5 33.5t-54.5 -5t-53 -33.5zM583 -30q-161 0 -273 73
t-171 202t-59 297q0 169 60 297.5t172.5 199.5t270.5 71q161 0 273.5 -72.5t171 -200.5t58.5 -295q0 -171 -59 -299.5t-172 -200.5t-272 -72zM583 82q191 0 285.5 128t94.5 332q0 208 -95 332t-285 124q-129 0 -213 -58.5t-125.5 -161t-41.5 -236.5q0 -208 96.5 -334
t283.5 -126z" />
    <glyph glyph-name="uni1ED6" unicode="&#x1ed6;" horiz-adv-x="1429" 
d="M437 1615l214 255h115l214 -255h-125l-146 172l-147 -172h-125zM859 1920q-40 0 -79 16t-75.5 36.5t-70 36.5t-63.5 16q-41 0 -51.5 -30.5t0.5 -61.5h-89q-20 80 19.5 135.5t118.5 55.5q41 0 80 -16t76 -36.5t70 -36.5t63 -16q37 0 50.5 29t1.5 66h88q20 -78 -19 -136
t-120 -58zM715 -30q-215 0 -361 95.5t-220 264.5t-74 390t74 390t220 264.5t361 95.5t360.5 -95.5t219.5 -264.5t74 -390t-74 -390t-219.5 -264.5t-360.5 -95.5zM715 83q177 -1 295 80.5t177 225.5t59 331t-59 331t-177 225t-295 81q-177 1 -294.5 -80t-176.5 -225.5
t-61 -331.5t57.5 -330.5t178.5 -225t296 -81.5z" />
    <glyph glyph-name="uni1ED7" unicode="&#x1ed7;" horiz-adv-x="1166" 
d="M318 1255l214 255h114l215 -255h-125l-147 172l-146 -172h-125zM740 1560q-41 0 -79.5 16t-75 36.5t-70 36.5t-63.5 16q-41 0 -51.5 -30.5t-0.5 -61.5h-88q-20 80 19.5 135.5t117.5 55.5q42 0 81 -16t76 -36.5t70 -36.5t63 -16q37 0 50.5 29t1.5 66h88q20 -78 -19 -136
t-120 -58zM583 -30q-161 0 -273 73t-171 202t-59 297q0 169 60 297.5t172.5 199.5t270.5 71q161 0 273.5 -72.5t171 -200.5t58.5 -295q0 -171 -59 -299.5t-172 -200.5t-272 -72zM583 82q191 0 285.5 128t94.5 332q0 208 -95 332t-285 124q-129 0 -213 -58.5t-125.5 -161
t-41.5 -236.5q0 -208 96.5 -334t283.5 -126z" />
    <glyph glyph-name="uni1ED8" unicode="&#x1ed8;" horiz-adv-x="1429" 
d="M442 1615l215 255h114l215 -255h-125l-147 172l-147 -172h-125zM642 -382v147h145v-147h-145zM715 -30q-215 0 -361 95.5t-220 264.5t-74 390t74 390t220 264.5t361 95.5t360.5 -95.5t219.5 -264.5t74 -390t-74 -390t-219.5 -264.5t-360.5 -95.5zM715 83q177 -1 295 80.5
t177 225.5t59 331t-59 331t-177 225t-295 81q-177 1 -294.5 -80t-176.5 -225.5t-61 -331.5t57.5 -330.5t178.5 -225t296 -81.5z" />
    <glyph glyph-name="uni1ED9" unicode="&#x1ed9;" horiz-adv-x="1166" 
d="M514 -382v147h145v-147h-145zM311 1255l214 255h114l215 -255h-125l-147 172l-146 -172h-125zM583 -30q-161 0 -273 73t-171 202t-59 297q0 169 60 297.5t172.5 199.5t270.5 71q161 0 273.5 -72.5t171 -200.5t58.5 -295q0 -171 -59 -299.5t-172 -200.5t-272 -72zM583 82
q191 0 285.5 128t94.5 332q0 208 -95 332t-285 124q-129 0 -213 -58.5t-125.5 -161t-41.5 -236.5q0 -208 96.5 -334t283.5 -126z" />
    <glyph glyph-name="uni1EDA" unicode="&#x1eda;" horiz-adv-x="1429" 
d="M1120 1624h104q11 -73 -1.5 -134.5t-67.5 -100.5q-42 -29 -113.5 -37t-141.5 36v61q51 -15 86 -15.5t65 14.5q55 27 65 74.5t4 101.5zM788 1615h-107l108 290h107zM715 -30q-215 0 -361 95.5t-220 264.5t-74 390t74 390t220 264.5t361 95.5t360.5 -95.5t219.5 -264.5
t74 -390t-74 -390t-219.5 -264.5t-360.5 -95.5zM715 83q177 -1 295 80.5t177 225.5t59 331t-59 331t-177 225t-295 81q-177 1 -294.5 -80t-176.5 -225.5t-61 -331.5t57.5 -330.5t178.5 -225t296 -81.5z" />
    <glyph glyph-name="uni1EDB" unicode="&#x1edb;" horiz-adv-x="1209" 
d="M975 1260h104q12 -73 -0.5 -134.5t-68.5 -101.5q-42 -28 -113.5 -36.5t-141.5 35.5v61q51 -15 86 -15t65 15q55 27 65 74t4 102zM634 1255h-107l108 290h107zM583 -30q-161 0 -273 73t-171 202t-59 297q0 169 60 297.5t172.5 199.5t270.5 71q161 0 273.5 -72.5
t171 -200.5t58.5 -295q0 -171 -59 -299.5t-172 -200.5t-272 -72zM583 82q191 0 285.5 128t94.5 332q0 208 -95 332t-285 124q-129 0 -213 -58.5t-125.5 -161t-41.5 -236.5q0 -208 96.5 -334t283.5 -126z" />
    <glyph glyph-name="uni1EDC" unicode="&#x1edc;" horiz-adv-x="1429" 
d="M1120 1624h104q11 -73 -1.5 -134.5t-67.5 -100.5q-42 -29 -113.5 -37t-141.5 36v61q51 -15 86 -15.5t65 14.5q55 27 65 74.5t4 101.5zM663 1615l-108 290h108l107 -290h-107zM715 -30q-215 0 -361 95.5t-220 264.5t-74 390t74 390t220 264.5t361 95.5t360.5 -95.5
t219.5 -264.5t74 -390t-74 -390t-219.5 -264.5t-360.5 -95.5zM715 83q177 -1 295 80.5t177 225.5t59 331t-59 331t-177 225t-295 81q-177 1 -294.5 -80t-176.5 -225.5t-61 -331.5t57.5 -330.5t178.5 -225t296 -81.5z" />
    <glyph glyph-name="uni1EDD" unicode="&#x1edd;" horiz-adv-x="1209" 
d="M975 1260h104q12 -73 -0.5 -134.5t-68.5 -101.5q-42 -28 -113.5 -36.5t-141.5 35.5v61q51 -15 86 -15t65 15q55 27 65 74t4 102zM521 1255l-107 290h107l107 -290h-107zM583 -30q-161 0 -273 73t-171 202t-59 297q0 169 60 297.5t172.5 199.5t270.5 71q161 0 273.5 -72.5
t171 -200.5t58.5 -295q0 -171 -59 -299.5t-172 -200.5t-272 -72zM583 82q191 0 285.5 128t94.5 332q0 208 -95 332t-285 124q-129 0 -213 -58.5t-125.5 -161t-41.5 -236.5q0 -208 96.5 -334t283.5 -126z" />
    <glyph glyph-name="uni1EDE" unicode="&#x1ede;" horiz-adv-x="1429" 
d="M1120 1624h104q11 -73 -1.5 -134.5t-67.5 -100.5q-42 -29 -113.5 -37t-141.5 36v61q51 -15 86 -15.5t65 14.5q55 27 65 74.5t4 101.5zM637 1824l-43 63q35 38 84.5 55t98.5 4.5t84 -65.5q25 -40 27 -81t-14.5 -79t-47.5 -67.5t-69 -46.5l-50 58q62 32 83.5 77.5
t-3.5 86.5q-17 28 -43 33.5t-54.5 -5t-52.5 -33.5zM715 -30q-215 0 -361 95.5t-220 264.5t-74 390t74 390t220 264.5t361 95.5t360.5 -95.5t219.5 -264.5t74 -390t-74 -390t-219.5 -264.5t-360.5 -95.5zM715 83q177 -1 295 80.5t177 225.5t59 331t-59 331t-177 225t-295 81
q-177 1 -294.5 -80t-176.5 -225.5t-61 -331.5t57.5 -330.5t178.5 -225t296 -81.5z" />
    <glyph glyph-name="uni1EDF" unicode="&#x1edf;" horiz-adv-x="1166" 
d="M486 1465l-43 63q35 39 84.5 55.5t98.5 4t84 -65.5q25 -40 27 -81t-15 -78.5t-47.5 -67t-68.5 -47.5l-51 59q63 31 84.5 76.5t-3.5 86.5q-17 29 -43.5 34.5t-54.5 -5.5t-52 -34zM975 1260h104q12 -73 -0.5 -134.5t-68.5 -101.5q-42 -28 -113.5 -36.5t-141.5 35.5v61
q51 -15 86 -15t65 15q55 27 65 74t4 102zM583 -30q-161 0 -273 73t-171 202t-59 297q0 169 60 297.5t172.5 199.5t270.5 71q161 0 273.5 -72.5t171 -200.5t58.5 -295q0 -171 -59 -299.5t-172 -200.5t-272 -72zM583 82q191 0 285.5 128t94.5 332q0 208 -95 332t-285 124
q-129 0 -213 -58.5t-125.5 -161t-41.5 -236.5q0 -208 96.5 -334t283.5 -126z" />
    <glyph glyph-name="uni1EE0" unicode="&#x1ee0;" horiz-adv-x="1429" 
d="M1120 1624h104q11 -73 -1.5 -134.5t-67.5 -100.5q-42 -29 -113.5 -37t-141.5 36v61q51 -15 86 -15.5t65 14.5q55 27 65 74.5t4 101.5zM715 -30q-215 0 -361 95.5t-220 264.5t-74 390t74 390t220 264.5t361 95.5t360.5 -95.5t219.5 -264.5t74 -390t-74 -390t-219.5 -264.5
t-360.5 -95.5zM715 83q177 -1 295 80.5t177 225.5t59 331t-59 331t-177 225t-295 81q-177 1 -294.5 -80t-176.5 -225.5t-61 -331.5t57.5 -330.5t178.5 -225t296 -81.5zM859 1616q-41 0 -79.5 16t-75.5 36.5t-70 36.5t-63 16q-41 0 -51.5 -30.5t-0.5 -61.5h-88
q-20 80 19.5 135.5t117.5 55.5q42 0 81 -16t75.5 -36.5t70 -36.5t63.5 -16q37 0 50.5 29t1.5 66h88q20 -78 -19 -136t-120 -58z" />
    <glyph glyph-name="uni1EE1" unicode="&#x1ee1;" horiz-adv-x="1166" 
d="M730 1256q-41 0 -79.5 16t-75 36.5t-70 36.5t-63.5 16q-41 0 -51.5 -30.5t-0.5 -61.5h-88q-20 80 19.5 135.5t117.5 55.5q42 0 81 -16t76 -36.5t70 -36.5t63 -16q37 0 50.5 29t1.5 66h88q20 -78 -19 -136t-120 -58zM975 1260h104q12 -73 -0.5 -134.5t-68.5 -101.5
q-42 -28 -113.5 -36.5t-141.5 35.5v61q51 -15 86 -15t65 15q55 27 65 74t4 102zM583 -30q-161 0 -273 73t-171 202t-59 297q0 169 60 297.5t172.5 199.5t270.5 71q161 0 273.5 -72.5t171 -200.5t58.5 -295q0 -171 -59 -299.5t-172 -200.5t-272 -72zM583 82q191 0 285.5 128
t94.5 332q0 208 -95 332t-285 124q-129 0 -213 -58.5t-125.5 -161t-41.5 -236.5q0 -208 96.5 -334t283.5 -126z" />
    <glyph glyph-name="uni1EE2" unicode="&#x1ee2;" horiz-adv-x="1429" 
d="M646 -382v147h145v-147h-145zM1120 1624h104q11 -73 -1.5 -134.5t-67.5 -100.5q-42 -29 -113.5 -37t-141.5 36v61q51 -15 86 -15.5t65 14.5q55 27 65 74.5t4 101.5zM715 -30q-215 0 -361 95.5t-220 264.5t-74 390t74 390t220 264.5t361 95.5t360.5 -95.5t219.5 -264.5
t74 -390t-74 -390t-219.5 -264.5t-360.5 -95.5zM715 83q177 -1 295 80.5t177 225.5t59 331t-59 331t-177 225t-295 81q-177 1 -294.5 -80t-176.5 -225.5t-61 -331.5t57.5 -330.5t178.5 -225t296 -81.5z" />
    <glyph glyph-name="uni1EE3" unicode="&#x1ee3;" horiz-adv-x="1166" 
d="M513 -382v147h145v-147h-145zM975 1260h104q12 -73 -0.5 -134.5t-68.5 -101.5q-42 -28 -113.5 -36.5t-141.5 35.5v61q51 -15 86 -15t65 15q55 27 65 74t4 102zM583 -30q-161 0 -273 73t-171 202t-59 297q0 169 60 297.5t172.5 199.5t270.5 71q161 0 273.5 -72.5
t171 -200.5t58.5 -295q0 -171 -59 -299.5t-172 -200.5t-272 -72zM583 82q191 0 285.5 128t94.5 332q0 208 -95 332t-285 124q-129 0 -213 -58.5t-125.5 -161t-41.5 -236.5q0 -208 96.5 -334t283.5 -126z" />
    <glyph glyph-name="uni1EE4" unicode="&#x1ee4;" horiz-adv-x="1392" 
d="M630 -382v147h145v-147h-145zM696 -30q-162 0 -287.5 67.5t-197 190t-71.5 287.5v925h116v-901q0 -123 41.5 -210.5t108 -142.5t143 -81t147.5 -26t148 26t143 81t107.5 142.5t41.5 210.5v901h116v-925q0 -164 -71.5 -286.5t-197 -190.5t-287.5 -68z" />
    <glyph glyph-name="uni1EE5" unicode="&#x1ee5;" 
d="M503 -382v147h145v-147h-145zM555 -25q-89 0 -159.5 26t-122.5 73.5t-86 112t-50.5 141.5t-16.5 161v591h116v-562q0 -102 20.5 -182t62 -136t104 -85t147.5 -29q88 0 152.5 30.5t106 85.5t62 130.5t20.5 164.5l91 -11q0 -175 -59.5 -288.5t-160.5 -168t-227 -54.5z
M922 0v243h-11v837h116v-1080h-105z" />
    <glyph glyph-name="uni1EE6" unicode="&#x1ee6;" horiz-adv-x="1392" 
d="M602 1824l-43 63q36 38 85.5 55t98.5 4.5t83 -65.5q26 -40 27.5 -81t-15 -79t-47 -67.5t-69.5 -46.5l-50 58q62 32 83.5 77.5t-2.5 86.5q-17 28 -43.5 33.5t-54.5 -5t-53 -33.5zM696 -30q-162 0 -287.5 67.5t-197 190t-71.5 287.5v925h116v-901q0 -123 41.5 -210.5
t108 -142.5t143 -81t147.5 -26t148 26t143 81t107.5 142.5t41.5 210.5v901h116v-925q0 -164 -71.5 -286.5t-197 -190.5t-287.5 -68z" />
    <glyph glyph-name="uni1EE7" unicode="&#x1ee7;" 
d="M486 1465l-43 63q35 39 84.5 55.5t98.5 4t84 -65.5q25 -40 27 -81t-15 -78.5t-47.5 -67t-68.5 -47.5l-51 59q63 31 84.5 76.5t-3.5 86.5q-17 29 -43.5 34.5t-54.5 -5.5t-52 -34zM555 -25q-89 0 -159.5 26t-122.5 73.5t-86 112t-50.5 141.5t-16.5 161v591h116v-562
q0 -102 20.5 -182t62 -136t104 -85t147.5 -29q88 0 152.5 30.5t106 85.5t62 130.5t20.5 164.5l91 -11q0 -175 -59.5 -288.5t-160.5 -168t-227 -54.5zM922 0v243h-11v837h116v-1080h-105z" />
    </font>
</defs>
</svg>
