<?xml version="1.0" standalone="no"?>
<!DOCTYPE svg PUBLIC "-//W3C//DTD SVG 1.1//EN" "http://www.w3.org/Graphics/SVG/1.1/DTD/svg11.dtd" >
<svg xmlns="http://www.w3.org/2000/svg" xmlns:xlink="http://www.w3.org/1999/xlink" version="1.1">
<metadata>
Created by FontForge 20190801 at Thu Jul 22 16:47:27 2021
 By www-data
Copyright 2019 The Manrope Project Authors (https://github.com/sharanda/manrope)
</metadata>
<defs>
<font id="ManropeExtraLight" horiz-adv-x="1146" >
  <font-face 
    font-family="ManropeExtraLight"
    font-weight="250"
    font-stretch="normal"
    units-per-em="2000"
    panose-1="0 0 0 0 0 0 0 0 0 0"
    ascent="1600"
    descent="-400"
    x-height="1080"
    cap-height="1440"
    bbox="-400 -510 2524 2126.28"
    underline-thickness="50"
    underline-position="-125"
    unicode-range="U+000D-FB02"
  />
<missing-glyph horiz-adv-x="1480" 
d="M200 0v114h1080v-114h-1080zM200 144v80h1080v-80h-1080zM200 260v74h1080v-74h-1080zM200 374v70h1080v-70h-1080zM200 490v66h1080v-66h-1080zM200 606v60h1080v-60h-1080zM200 720v56h1080v-56h-1080zM200 838v48h1080v-48h-1080zM200 952v44h1080v-44h-1080z
M200 1066v42h1080v-42h-1080zM200 1184v36h1080v-36h-1080zM200 1298v32h1080v-32h-1080zM200 1414v26h1080v-26h-1080z" />
    <glyph glyph-name="parenleft_c_parenright.liga" unicode="&#x28;c&#x29;" horiz-adv-x="1696" 
d="M848 -10q-142 0 -267 53.5t-219.5 148t-148 219.5t-53.5 267q0 143 53.5 267.5t148 219t219.5 148t267 53.5q143 0 267.5 -53.5t219 -148t148 -219t53.5 -267.5q0 -142 -53.5 -267t-148 -219.5t-219 -148t-267.5 -53.5zM852 260q-85 0 -157 31t-125 97q-52 66 -69 143.5
t-17 150.5q2 75 19.5 151t66.5 139q53 66 125.5 97t160.5 31q53 0 101 -11.5t93 -38.5q44 -27 79 -68t51 -92l-82 -28q-15 33 -40.5 64t-57.5 52q-31 21 -69 30.5t-77 9.5q-64 0 -119 -26t-93 -74q-37 -48 -51.5 -111t-14.5 -123q0 -69 16.5 -133t49.5 -109q36 -49 91 -74.5
t119 -25.5q82 0 150 40q32 20 55 49t39 65l84 -30q-25 -57 -59.5 -93.5t-64.5 -56.5q-45 -28 -95 -42t-109 -14zM848 78q124 0 232 46.5t190.5 129t129 192t46.5 234.5q0 124 -46.5 232t-129 190.5t-190.5 129t-232 46.5q-125 0 -234.5 -46.5t-192 -129t-129 -190.5
t-46.5 -232q0 -125 46.5 -234.5t129 -192t192 -129t234.5 -46.5z" />
    <glyph glyph-name="space_less_three_space.liga" unicode="&#x20;&#x3c;&#x33;&#x20;" horiz-adv-x="2342" 
d="M1172 -30q-41 0 -64 26l-446 470q-66 71 -88.5 157.5t-8 172t60 156.5t117.5 114.5t163 43.5q132 0 266 -110q62 56 129 83t133 27q93 0 165 -44t118 -116t59.5 -157.5t-9.5 -171t-89 -155.5l-446 -470q-23 -26 -60 -26zM1172 54l446 470q64 68 76 154t-18 165.5t-93 131
t-149 51.5q-63 0 -130 -35t-132 -107q-142 142 -266 142q-87 0 -149 -52t-91 -132t-16.5 -165.5t74.5 -152.5z" />
    <glyph glyph-name="prnleft_grtr_prnright.liga" unicode="&#x28;&#x3e;&#x29;" horiz-adv-x="2300" 
d="M1028 1020l360 -300l-360 -300v600zM1154 -182q-189 0 -353.5 70t-288.5 194t-194 288.5t-70 353.5q0 186 70 349t194 286t288.5 193t353.5 70q186 0 349 -70t286 -193t193 -286t70 -349q0 -189 -70 -353.5t-193 -288.5t-286 -194t-349 -70zM1150 -270q205 0 384.5 77
t315.5 213t213 315.5t77 384.5t-77 384.5t-213 315.5t-315.5 213t-384.5 77t-384.5 -77t-315.5 -213t-213 -315.5t-77 -384.5t77 -384.5t213 -315.5t315.5 -213t384.5 -77z" />
    <glyph glyph-name="f_f" unicode="ff" horiz-adv-x="1256" 
d="M256 0v1202q0 42 5.5 77.5t19.5 65.5t39 57q24 25 53.5 40t65.5 21.5t79 6.5h140v-76h-130q-94 0 -141 -45t-47 -155v-1194h-84zM60 996v84h598v-84h-598zM834 0v1202q0 42 5.5 77.5t19.5 65.5t39 57q24 25 53.5 40t65.5 21.5t79 6.5h140v-76h-130q-94 0 -141 -45
t-47 -155v-1194h-84zM638 996v84h598v-84h-598z" />
    <glyph glyph-name="f_f_l" unicode="ffl" horiz-adv-x="1740" 
d="M1196 996v84h320v-84h-320zM834 0v1202q0 42 5.5 77.5t19.5 65.5t39 57q24 25 53.5 40t65.5 21.5t79 6.5h140v-76h-130q-94 0 -141 -45t-47 -155v-1194h-84zM638 996v84h598v-84h-598zM1496 0v1470h84v-1470h-84zM256 0v1202q0 42 5.5 77.5t19.5 65.5t39 57
q24 25 53.5 40t65.5 21.5t79 6.5h140v-76h-130q-94 0 -141 -45t-47 -155v-1194h-84zM60 996v84h598v-84h-598z" />
    <glyph glyph-name="t_t.liga" unicode="tt" horiz-adv-x="1396" 
d="M698 0q-81 -18 -160 -13.5t-141 38t-93 101.5q-24 53 -27 107.5t-3 124.5v1022h84v-1022q0 -70 1.5 -113t20.5 -81q36 -72 114 -88.5t204 4.5v-80zM20 996v84h678v-84h-678zM1336 0q-81 -18 -160 -13.5t-141 38t-93 101.5q-24 53 -27 107.5t-3 124.5v1022h84v-1022
q0 -70 1.5 -113t20.5 -81q36 -72 114 -88.5t204 4.5v-80zM658 996v84h678v-84h-678z" />
    <glyph glyph-name="fi" unicode="fi" horiz-adv-x="1112" 
d="M256 0v1202q0 42 5.5 77.5t19.5 65.5t39 57q24 25 53.5 40t65.5 21.5t79 6.5h140v-76h-130q-94 0 -141 -45t-47 -155v-1194h-84zM60 996v84h598v-84h-598zM868 1312v128h84v-128h-84zM868 0v1080h84v-1080h-84z" />
    <glyph glyph-name="fl" unicode="fl" horiz-adv-x="1162" 
d="M618 996v84h320v-84h-320zM256 0v1202q0 42 5.5 77.5t19.5 65.5t39 57q24 25 53.5 40t65.5 21.5t79 6.5h140v-76h-130q-94 0 -141 -45t-47 -155v-1194h-84zM60 996v84h598v-84h-598zM918 0v1470h84v-1470h-84z" />
    <glyph glyph-name="hyphen_hyphen.liga" unicode="&#x2d;&#x2d;" horiz-adv-x="1080" 
d="M120 588v84h840v-84h-840z" />
    <glyph glyph-name="hyphen_greater.liga" unicode="&#x2d;&#x3e;" horiz-adv-x="1988" 
d="M280 588v84h1276l-366 366l56 54l462 -462l-462 -462l-56 54l366 366h-1276z" />
    <glyph glyph-name="less_hyphen.liga" unicode="&#x3c;&#x2d;" horiz-adv-x="1988" 
d="M1708 588h-1276l366 -366l-56 -54l-462 462l462 462l56 -54l-366 -366h1276v-84z" />
    <glyph glyph-name=".notdef" horiz-adv-x="1480" 
d="M200 0v114h1080v-114h-1080zM200 144v80h1080v-80h-1080zM200 260v74h1080v-74h-1080zM200 374v70h1080v-70h-1080zM200 490v66h1080v-66h-1080zM200 606v60h1080v-60h-1080zM200 720v56h1080v-56h-1080zM200 838v48h1080v-48h-1080zM200 952v44h1080v-44h-1080z
M200 1066v42h1080v-42h-1080zM200 1184v36h1080v-36h-1080zM200 1298v32h1080v-32h-1080zM200 1414v26h1080v-26h-1080z" />
    <glyph glyph-name=".null" horiz-adv-x="0" 
 />
    <glyph glyph-name="nonmarkingreturn" horiz-adv-x="666" 
 />
    <glyph glyph-name="CR" unicode="&#xd;" horiz-adv-x="1200" 
 />
    <glyph glyph-name="space" unicode=" " horiz-adv-x="400" 
 />
    <glyph glyph-name="exclam" unicode="!" horiz-adv-x="564" 
d="M240 0v128h84v-128h-84zM240 360v1080h84v-1080h-84z" />
    <glyph glyph-name="quotedbl" unicode="&#x22;" horiz-adv-x="684" 
d="M120 1080v360h84v-360h-84zM400 1080v360h84v-360h-84z" />
    <glyph glyph-name="numbersign" unicode="#" horiz-adv-x="1826" 
d="M434 0l122 462h-436l22 84h438l100 378h-436l22 84h438l114 432h88l-116 -432h394l114 432h88l-116 -432h436l-22 -84h-436l-102 -378h436l-22 -84h-436l-124 -462h-86l122 462h-392l-124 -462h-86zM666 546h394l100 378h-392z" />
    <glyph glyph-name="dollar" unicode="$" horiz-adv-x="1126" 
d="M522 -196v222h84v-222h-84zM522 1416v224h84v-224h-84zM590 -30q-138 0 -248.5 47.5t-183.5 134.5t-98 206l80 16q36 -148 157 -234t293 -86q180 0 288 88.5t108 235.5q0 111 -65 176.5t-223 113.5l-302 94q-282 89 -282 328q0 112 56.5 197.5t156.5 134t231 48.5
q135 0 242 -52t175 -146.5t85 -221.5l-80 -16q-14 105 -71 184.5t-147 123.5t-202 44q-105 0 -186 -37.5t-127.5 -104t-46.5 -152.5q0 -94 64.5 -158t203.5 -108l286 -88q165 -51 238.5 -136t73.5 -228q0 -123 -58.5 -213.5t-165.5 -140.5t-252 -50z" />
    <glyph glyph-name="percent" unicode="%" horiz-adv-x="1804" 
d="M240 0l-60 60l1384 1380l60 -58zM1324 -30q-99 0 -180.5 48.5t-130.5 130t-49 181.5q0 98 50 180t132 131t178 49q99 0 181 -48.5t130.5 -130t48.5 -181.5t-48.5 -181.5t-130.5 -130t-181 -48.5zM1324 54q75 0 138 37.5t100.5 100.5t37.5 138t-37.5 138t-100.5 100.5
t-138 37.5t-137.5 -37.5t-100.5 -100.5t-38 -138t38 -138t100.5 -100.5t137.5 -37.5zM480 750q-99 0 -181 48.5t-130.5 130t-48.5 181.5q0 98 50 180t132 131t178 49q99 0 180.5 -48.5t130.5 -130t49 -181.5t-49 -181.5t-130.5 -130t-180.5 -48.5zM480 834q75 0 138 37.5
t100.5 100.5t37.5 138t-37.5 138t-100.5 100.5t-138 37.5t-137.5 -37.5t-100.5 -100.5t-38 -138t38 -138t100.5 -100.5t137.5 -37.5z" />
    <glyph glyph-name="ampersand" unicode="&#x26;" horiz-adv-x="1280" 
d="M594 -30q-121 0 -220.5 34t-167.5 106q-51 54 -77 124t-29 146q-1 71 20.5 144t69.5 130q35 44 80.5 72t93.5 46q-85 86 -130.5 155.5t-45.5 174.5q0 102 49 188.5t137 131.5q51 26 105.5 37t108.5 11q72 0 144 -18t124 -56q36 -24 65 -58.5t47 -73.5l-78 -36
q-26 60 -84 100q-43 30 -98 44t-112 14q-99 0 -182 -40q-67 -34 -101.5 -96.5t-34.5 -143.5q0 -69 21 -114.5t67 -101.5q24 -27 52 -51.5t56 -50.5l518 -482q6 33 8 61.5t2 58.5l-2 234h90v-194q0 -96 -7.5 -146t-18.5 -82l190 -176l-58 -62l-172 162q-22 -40 -65 -76.5
t-85 -59.5q-61 -33 -133.5 -44.5t-146.5 -11.5zM590 54q74 0 133 9.5t111 40.5q63 39 89 70t39 52l-526 480q-52 -15 -98.5 -42t-79.5 -66q-36 -43 -52.5 -99.5t-15.5 -116.5q2 -60 20.5 -114.5t57.5 -95.5q54 -61 141.5 -89.5t180.5 -28.5z" />
    <glyph glyph-name="quotesingle" unicode="'" horiz-adv-x="364" 
d="M120 1080v360h84v-360h-84z" />
    <glyph glyph-name="parenleft" unicode="(" horiz-adv-x="816" 
d="M664 -344q-118 134 -204 297t-133 343t-47 364t47 364t133 343t204 297l62 -52q-114 -134 -196 -289.5t-126 -323.5t-44 -339q0 -168 45 -338t127 -327t194 -285z" />
    <glyph glyph-name="parenright" unicode=")" horiz-adv-x="816" 
d="M152 -344l-62 54q112 128 194 285t127 327t45 338q0 171 -44 339t-126 323.5t-196 289.5l62 52q118 -134 204 -297t133 -343t47 -364t-47 -364t-133 -343t-204 -297z" />
    <glyph glyph-name="asterisk" unicode="*" horiz-adv-x="836" 
d="M226 814l-68 50l162 222l-260 84l26 80l260 -84v274h84v-274l260 84l26 -80l-260 -84l160 -222l-68 -50l-160 222z" />
    <glyph glyph-name="plus" unicode="+" horiz-adv-x="1160" 
d="M538 260v418h-418v84h418v418h84v-418h418v-84h-418v-418h-84z" />
    <glyph glyph-name="comma" unicode="," horiz-adv-x="480" 
d="M120 -178l6 52q35 -2 47 16.5t12.5 48t0.5 61.5h-66v180h120v-240q0 -66 -36 -98t-84 -20z" />
    <glyph glyph-name="hyphen" unicode="-" horiz-adv-x="840" 
d="M120 588v84h600v-84h-600z" />
    <glyph glyph-name="period" unicode="." horiz-adv-x="440" 
d="M160 0v120h120v-120h-120z" />
    <glyph glyph-name="slash" unicode="/" horiz-adv-x="714" 
d="M504 1440h90l-384 -1440h-90z" />
    <glyph glyph-name="zero" unicode="0" horiz-adv-x="1156" 
d="M578 -30q-120 0 -219.5 59.5t-159 159t-59.5 219.5v624q0 120 59.5 219.5t159 159t219.5 59.5t219.5 -59.5t159 -159t59.5 -219.5v-624q0 -120 -59.5 -219.5t-159 -159t-219.5 -59.5zM578 54q97 0 177.5 48t128.5 128.5t48 177.5v624q0 97 -48 177.5t-128.5 128.5
t-177.5 48t-177.5 -48t-128.5 -128.5t-48 -177.5v-624q0 -97 48 -177.5t128.5 -128.5t177.5 -48z" />
    <glyph glyph-name="one" unicode="1" horiz-adv-x="716" 
d="M392 0v1342l-272 -162v98l272 162h84v-1440h-84z" />
    <glyph glyph-name="two" unicode="2" horiz-adv-x="1106" 
d="M100 0l2 84l674 614q92 83 119 159.5t27 166.5q0 100 -49 182t-131 131t-182 49q-103 0 -185 -50t-129.5 -132.5t-47.5 -179.5h-84q0 123 60.5 224.5t161.5 161.5t224 60q126 0 227 -61.5t160 -163t59 -221.5q0 -82 -17.5 -149t-56 -125t-100.5 -114l-672 -612l-24 60
h870v-84h-906z" />
    <glyph glyph-name="three" unicode="3" horiz-adv-x="1068" 
d="M510 -30q-106 0 -192 35t-147 101.5t-91 159.5l78 28q44 -121 137 -182t213 -58q113 3 191 50t118.5 130.5t40.5 197.5q0 174 -96.5 275t-257.5 101q-43 0 -93.5 -12t-92.5 -32l-50 68l610 586l26 -62h-766v84h798v-86l-554 -528l-2 50q162 38 290.5 -8t203 -159.5
t74.5 -276.5q0 -140 -55 -244t-153.5 -161t-229.5 -57z" />
    <glyph glyph-name="four" unicode="4" horiz-adv-x="1154" 
d="M798 0v306h-698v84l496 1050h92l-496 -1050h606v450h84v-450h172v-84h-172v-306h-84z" />
    <glyph glyph-name="five" unicode="5" horiz-adv-x="1144" 
d="M564 -30q-114 0 -209 46.5t-161 128t-94 185.5l80 22q23 -91 81 -157.5t137 -102.5t166 -36q113 0 202.5 54.5t141.5 144.5t52 197q0 112 -55 201.5t-145 142t-196 52.5q-114 0 -201 -54t-141 -144l-86 50l44 740h760v-84h-738l62 58l-44 -712l-32 46q65 84 163 134
t213 50q131 0 240 -65t174.5 -174t65.5 -241q0 -130 -65 -239.5t-174 -176t-241 -66.5z" />
    <glyph glyph-name="six" unicode="6" horiz-adv-x="1240" 
d="M620 -30q-132 0 -241 65t-174 174t-65 241v540q0 132 64.5 241t173.5 174t242 65q132 0 242.5 -66t171.5 -174l-72 -42q-51 89 -141.5 143.5t-200.5 54.5q-113 0 -202.5 -55t-141.5 -145t-52 -196v-364l-32 38q63 117 176 191.5t252 74.5q132 0 241 -65t174 -174t65 -241
t-65 -241t-174 -174t-241 -65zM620 54q110 0 200 53t143 143t53 200t-53 200t-143 143t-200 53t-200 -53t-143 -143t-53 -200t53 -200t143 -143t200 -53z" />
    <glyph glyph-name="seven" unicode="7" horiz-adv-x="962" 
d="M220 0l552 1354h-692v86h782v-86l-552 -1354h-90z" />
    <glyph glyph-name="eight" unicode="8" horiz-adv-x="1118" 
d="M558 -30q-130 0 -228.5 51t-154 145t-55.5 224q0 144 71.5 250.5t222.5 155.5v-46q-130 27 -196 126.5t-66 219.5q0 118 52.5 201.5t144 128t209.5 44.5t209.5 -44.5t144 -128t52.5 -201.5q0 -120 -63.5 -218.5t-194.5 -125.5l-8 44q152 -49 226 -155.5t74 -250.5
q0 -130 -56 -224t-155 -145t-229 -51zM558 54q156 0 253 87t97 249q0 165 -95.5 250.5t-254.5 85.5t-254.5 -85.5t-95.5 -250.5q0 -162 97 -249t253 -87zM558 810q141 0 228.5 72.5t87.5 213.5t-87.5 212.5t-228.5 71.5t-228.5 -71.5t-87.5 -212.5t87.5 -213.5t228.5 -72.5z
" />
    <glyph glyph-name="nine" unicode="9" horiz-adv-x="1240" 
d="M620 1470q132 0 241 -65t174 -174t65 -241v-540q0 -132 -64.5 -241t-173.5 -174t-242 -65q-132 0 -242 66t-172 174l72 42q51 -88 142 -143t200 -55q113 0 202.5 55t141.5 145t52 196v364l32 -38q-63 -117 -175.5 -191.5t-252.5 -74.5q-132 0 -241 65t-174 174t-65 241
t65 241t174 174t241 65zM620 1386q-110 0 -200 -53t-143 -143t-53 -200t53 -200t143 -143t200 -53t200 53t143 143t53 200t-53 200t-143 143t-200 53z" />
    <glyph glyph-name="colon" unicode=":" horiz-adv-x="540" 
d="M220 180v120h120v-120h-120zM220 780v120h120v-120h-120z" />
    <glyph glyph-name="semicolon" unicode=";" horiz-adv-x="560" 
d="M220 -178l6 52q35 -2 47 16.5t12.5 48t0.5 61.5h-66v180h120v-240q0 -66 -36 -98t-84 -20zM220 960v120h120v-120h-120z" />
    <glyph glyph-name="less" unicode="&#x3c;" horiz-adv-x="1198" 
d="M742 168l-462 462l462 462l56 -54l-408 -408l408 -408z" />
    <glyph glyph-name="equal" unicode="=" horiz-adv-x="1500" 
d="M240 836v84h1020v-84h-1020zM240 520v84h1020v-84h-1020z" />
    <glyph glyph-name="greater" unicode="&#x3e;" horiz-adv-x="1198" 
d="M456 168l-56 54l408 408l-408 408l56 54l462 -462z" />
    <glyph glyph-name="question" unicode="?" horiz-adv-x="1008" 
d="M436 394q0 84 3.5 140.5t36.5 119.5q32 60 83 101.5t104 76.5t91 76q38 44 51 91.5t13 98.5q0 62 -16 110t-48 82q-48 56 -115.5 76t-138.5 20q-76 0 -140.5 -22.5t-105.5 -67.5q-37 -37 -53.5 -88.5t-16.5 -107.5h-84q0 66 21.5 134.5t70.5 119.5q60 62 143.5 89
t168.5 27q90 0 171.5 -27t138.5 -89q50 -52 72 -116.5t22 -141.5q0 -69 -22.5 -134t-69.5 -112q-36 -39 -88.5 -74.5t-101.5 -74.5t-74 -87t-25.5 -98.5t-0.5 -121.5h-90zM436 0v150h90v-150h-90z" />
    <glyph glyph-name="at" unicode="@" horiz-adv-x="1794" 
d="M904 -210q-155 0 -290 56.5t-237 158t-159.5 238.5t-57.5 297q0 152 52.5 287.5t151 239.5t239 163.5t315.5 59.5q188 0 327.5 -62.5t229 -167.5t129 -234.5t28.5 -263.5q-15 -184 -98 -272t-206 -88q-99 0 -163.5 46t-84.5 128l38 -8q-30 -66 -98 -98t-142 -32
q-81 0 -141 34.5t-93.5 96t-33.5 141.5q0 84 34.5 145.5t95.5 95t140 33.5q65 0 133.5 -27.5t104.5 -98.5l-38 -38v136h78v-290q0 -73 40 -126.5t140 -53.5q55 0 100 31t73 89t33 140q9 149 -31.5 270t-124 208.5t-202.5 134.5t-268 47q-160 0 -284 -56t-209.5 -151
t-130 -214.5t-44.5 -246.5q0 -137 51.5 -257.5t142 -212t210.5 -143t256 -51.5q101 0 202.5 28.5t177.5 79.5l36 -68q-97 -63 -204.5 -93.5t-217.5 -30.5zM882 324q84 0 135 49t51 139q0 95 -52.5 142.5t-133.5 47.5q-90 0 -139 -49t-49 -141q0 -94 51.5 -141t136.5 -47z
" />
    <glyph glyph-name="A" unicode="A" horiz-adv-x="1218" 
d="M40 0l524 1440h90l524 -1440h-90l-510 1402h60l-508 -1402h-90zM240 374v80h736v-80h-736z" />
    <glyph glyph-name="B" unicode="B" horiz-adv-x="1202" 
d="M140 0v1440h546q104 0 192 -44.5t141 -124.5t53 -185q0 -114 -66 -209.5t-174 -134.5l-4 48q143 -46 229.5 -147.5t86.5 -254.5q0 -123 -56 -209.5t-151.5 -132.5t-212.5 -46h-584zM224 84h460q104 0 187.5 35t132 101t48.5 160t-44.5 170.5t-119 122t-164.5 45.5h-500
v-634zM224 800h462q81 0 148.5 39t107.5 105t40 148q0 120 -85.5 193t-210.5 73h-462v-558z" />
    <glyph glyph-name="C" unicode="C" horiz-adv-x="1400" 
d="M706 -30q-215 0 -358.5 96t-215.5 265t-72 389t72 389t215.5 265t358.5 96q252 0 406 -131.5t208 -350.5l-88 -20q-48 191 -179.5 304.5t-346.5 113.5q-185 0 -307.5 -85t-184.5 -235.5t-64 -345.5t60 -345t186.5 -235.5t309.5 -85.5q215 0 346.5 114t179.5 304l88 -20
q-54 -219 -208 -350.5t-406 -131.5z" />
    <glyph glyph-name="D" unicode="D" horiz-adv-x="1304" 
d="M140 0v1440h422q26 0 83 -1t109 -9q159 -23 263.5 -122t155.5 -251.5t51 -336.5q0 -185 -51 -337.5t-155.5 -251t-263.5 -121.5q-51 -7 -109.5 -8.5t-82.5 -1.5h-422zM230 84h332q48 0 96.5 3t81.5 9q142 24 228.5 109.5t126 218t39.5 296.5t-39.5 296.5t-126 218
t-228.5 109.5q-33 6 -83 9t-95 3h-332v-1272z" />
    <glyph glyph-name="E" unicode="E" horiz-adv-x="1120" 
d="M140 0v1440h880v-84h-796v-594h676v-84h-676v-594h796v-84h-880z" />
    <glyph glyph-name="F" unicode="F" horiz-adv-x="980" 
d="M140 0v1440h800v-84h-716v-594h596v-84h-596v-678h-84z" />
    <glyph glyph-name="G" unicode="G" horiz-adv-x="1374" 
d="M706 -30q-161 0 -282 55t-202 155t-121.5 237.5t-40.5 302.5q0 220 72 388.5t215.5 264t358.5 95.5q206 0 343 -96.5t195 -249.5l-82 -34q-52 135 -169 215.5t-287 80.5q-185 0 -307.5 -84.5t-184.5 -234.5t-64 -345t60 -345t186.5 -235.5t309.5 -85.5t299 73.5
t166.5 204.5t52.5 304h-384v84h470q3 -28 3.5 -50t0.5 -36q0 -188 -63 -338.5t-197.5 -238t-347.5 -87.5z" />
    <glyph glyph-name="H" unicode="H" horiz-adv-x="1320" 
d="M140 0v1440h84v-678h872v678h84v-1440h-84v678h-872v-678h-84z" />
    <glyph glyph-name="I" unicode="I" horiz-adv-x="404" 
d="M160 0v1440h84v-1440h-84z" />
    <glyph glyph-name="J" unicode="J" horiz-adv-x="878" 
d="M358 -28q-130 0 -229 76t-129 202l86 20q23 -91 97 -152.5t179 -61.5q65 0 130 30t104 100q27 50 31.5 105t4.5 133v1016h84v-1016q0 -55 -1 -102.5t-10.5 -91.5t-34.5 -88q-48 -84 -130.5 -127t-181.5 -43z" />
    <glyph glyph-name="K" unicode="K" horiz-adv-x="1116" 
d="M140 0v1440h84v-688l712 688h116l-706 -688l770 -752h-116l-776 752v-752h-84z" />
    <glyph glyph-name="L" unicode="L" horiz-adv-x="990" 
d="M160 0v1440h84v-1356h716v-84h-800z" />
    <glyph glyph-name="M" unicode="M" horiz-adv-x="1662" 
d="M140 0v1440h80l612 -1338l606 1338h84v-1438h-84v1236l-560 -1238h-94l-560 1238v-1238h-84z" />
    <glyph glyph-name="N" unicode="N" horiz-adv-x="1324" 
d="M140 0v1440h84l876 -1290v1290h84v-1440h-84l-876 1292v-1292h-84z" />
    <glyph glyph-name="O" unicode="O" horiz-adv-x="1412" 
d="M706 -30q-215 0 -358.5 96t-215.5 265t-72 389t72 389t215.5 265t358.5 96t358.5 -96t215.5 -265t72 -389t-72 -389t-215.5 -265t-358.5 -96zM706 54q185 0 308.5 85.5t185.5 235.5t62 345t-62 345.5t-185.5 235.5t-308.5 85t-307.5 -85t-184.5 -235.5t-64 -345.5
t60 -345t186.5 -235.5t309.5 -85.5z" />
    <glyph glyph-name="P" unicode="P" horiz-adv-x="1162" 
d="M140 0v1440h530q21 0 43 -1.5t49 -6.5q104 -16 180.5 -75.5t118 -150t41.5 -198.5t-41.5 -198.5t-118 -150t-180.5 -75.5q-27 -4 -49 -6t-43 -2h-446v-576h-84zM224 660h446q17 0 40.5 2t47.5 6q83 16 139.5 66t85.5 121.5t29 152.5t-29 152.5t-85.5 121.5t-139.5 66
q-24 5 -47.5 6.5t-40.5 1.5h-446v-696z" />
    <glyph glyph-name="Q" unicode="Q" horiz-adv-x="1412" 
d="M1274 -28l-366 364l66 66l364 -364zM706 -30q-215 0 -358.5 96t-215.5 265t-72 389t72 389t215.5 265t358.5 96t358.5 -96t215.5 -265t72 -389t-72 -389t-215.5 -265t-358.5 -96zM706 54q185 0 308.5 85.5t185.5 235.5t62 345t-62 345.5t-185.5 235.5t-308.5 85
t-307.5 -85t-184.5 -235.5t-64 -345.5t60 -345t186.5 -235.5t309.5 -85.5z" />
    <glyph glyph-name="R" unicode="R" horiz-adv-x="1222" 
d="M140 0v1440h530q21 0 43 -1.5t49 -6.5q104 -16 180.5 -75.5t118 -150t41.5 -198.5q0 -154 -84 -270t-228 -148l-16 -14h-550v-576h-84zM1042 0l-284 586l72 54l312 -640h-100zM224 660h446q17 0 40.5 2t47.5 6q83 16 139.5 66t85.5 121.5t29 152.5t-29 152.5t-85.5 121.5
t-139.5 66q-24 5 -47.5 6.5t-40.5 1.5h-446v-696z" />
    <glyph glyph-name="S" unicode="S" horiz-adv-x="1178" 
d="M618 -30q-146 0 -262.5 47.5t-193 134.5t-102.5 206l84 16q39 -148 166 -234t308 -86q126 0 220 40t146 112.5t52 169.5q0 73 -27 122t-68.5 79.5t-86.5 48.5t-80 28l-360 108q-78 23 -134.5 56t-92.5 75t-53.5 92t-17.5 107q0 110 59.5 195.5t165.5 134t245 48.5
q141 0 253 -52t183.5 -146.5t89.5 -221.5l-84 -16q-14 105 -74 184.5t-155 123.5t-213 44q-113 0 -198.5 -39t-133.5 -105t-48 -148q0 -86 46.5 -137.5t113.5 -80t128 -46.5l298 -90q38 -11 93 -32.5t108.5 -61.5t89 -105.5t35.5 -164.5q0 -93 -35 -168t-101 -128
t-158 -81.5t-206 -28.5z" />
    <glyph glyph-name="T" unicode="T" horiz-adv-x="1180" 
d="M548 0v1356h-528v84h1140v-84h-528v-1356h-84z" />
    <glyph glyph-name="U" unicode="U" horiz-adv-x="1380" 
d="M690 -30q-160 0 -284 67t-195 188.5t-71 284.5v930h84v-902q0 -133 45 -226.5t116 -151t152 -84t153 -26.5t153 26.5t152 84t116 151t45 226.5v902h84v-930q0 -162 -71 -283.5t-195 -189t-284 -67.5z" />
    <glyph glyph-name="V" unicode="V" horiz-adv-x="1158" 
d="M534 0l-524 1440h90l478 -1318l480 1318h90l-524 -1440h-90z" />
    <glyph glyph-name="W" unicode="W" horiz-adv-x="1818" 
d="M452 0l-412 1440h86l370 -1288l368 1288h88l370 -1288l368 1288h88l-412 -1440h-88l-370 1286l-368 -1286h-88z" />
    <glyph glyph-name="X" unicode="X" 
d="M20 0l506 730l-494 710h100l440 -642l442 642h100l-494 -710l506 -730h-100l-454 660l-452 -660h-100z" />
    <glyph glyph-name="Y" unicode="Y" horiz-adv-x="1038" 
d="M478 0v612l-478 828h96l424 -732l422 732h96l-476 -828v-612h-84z" />
    <glyph glyph-name="Z" unicode="Z" horiz-adv-x="1162" 
d="M100 0v30l838 1326h-838v84h962v-34l-834 -1324h834v-82h-962z" />
    <glyph glyph-name="bracketleft" unicode="[" horiz-adv-x="792" 
d="M280 -444v2208h332v-84h-248v-2040h248v-84h-332z" />
    <glyph glyph-name="backslash" unicode="\" horiz-adv-x="714" 
d="M210 1440l384 -1440h-90l-384 1440h90z" />
    <glyph glyph-name="bracketright" unicode="]" horiz-adv-x="792" 
d="M512 -444h-332v84h248v2040h-248v84h332v-2208z" />
    <glyph glyph-name="asciicircum" unicode="^" horiz-adv-x="1324" 
d="M211 1010l461 463l463 -462l-54 -56l-409 408l-407 -409z" />
    <glyph glyph-name="underscore" unicode="_" horiz-adv-x="1320" 
d="M0 -192v84h1320v-84h-1320z" />
    <glyph glyph-name="grave" unicode="`" horiz-adv-x="914" 
d="M451 1620l-96 270h88l96 -270h-88z" />
    <glyph glyph-name="a" unicode="a" horiz-adv-x="1084" 
d="M454 -30q-126 0 -209 44t-124 116t-41 156q0 95 41.5 157.5t108.5 98.5t144 52q94 19 201.5 33.5t198.5 24.5t136 16l-30 -20q5 191 -69.5 284.5t-262.5 93.5q-136 0 -218.5 -60.5t-115.5 -185.5l-92 24q36 150 147.5 228t282.5 78q150 0 250 -61t136 -165q14 -40 20 -97
t6 -111v-676h-78v296l40 -2q-43 -154 -171 -239t-301 -85zM450 54q117 0 206.5 42t145 121.5t70.5 190.5q8 56 8 120v92l44 -34q-53 -5 -146.5 -13.5t-197.5 -22t-188 -34.5q-49 -12 -101 -38t-87.5 -73t-35.5 -121q0 -52 26 -105t87.5 -89t168.5 -36z" />
    <glyph glyph-name="b" unicode="b" horiz-adv-x="1152" 
d="M602 -30q-143 0 -243 76t-152.5 205.5t-52.5 290.5q0 164 53 292.5t156.5 202t254.5 73.5q145 0 246.5 -75.5t154.5 -204.5t53 -288q0 -162 -54 -291.5t-158.5 -205t-257.5 -75.5zM140 0v1440h84v-590h-6v-850h-78zM602 54q125 0 209.5 64t127.5 174.5t43 249.5
q0 138 -41.5 247.5t-125.5 173t-213 63.5q-126 0 -211.5 -62t-129 -171.5t-43.5 -250.5q0 -139 43 -249.5t128.5 -174.5t212.5 -64z" />
    <glyph glyph-name="c" unicode="c" horiz-adv-x="1078" 
d="M574 -30q-161 0 -270 72t-165 200.5t-59 297.5q3 173 59.5 301t165.5 198.5t269 70.5q150 0 267.5 -71.5t166.5 -196.5l-80 -34q-45 104 -138.5 161t-215.5 57q-136 0 -225 -61.5t-133 -171t-46 -253.5q3 -220 104 -353t300 -133q119 0 211 55t141 161l82 -36
q-67 -130 -177 -197t-257 -67z" />
    <glyph glyph-name="d" unicode="d" horiz-adv-x="1152" 
d="M550 -30q-153 0 -257.5 75.5t-158.5 205t-54 291.5q0 159 53 288t154.5 204.5t246.5 75.5q151 0 254.5 -73.5t156.5 -202t53 -292.5q0 -161 -52.5 -290.5t-152.5 -205.5t-243 -76zM550 54q127 0 212.5 64t128.5 174.5t43 249.5q0 141 -43.5 250.5t-129 171.5t-211.5 62
q-129 0 -213.5 -63.5t-125.5 -173t-41 -247.5q0 -139 43 -249.5t127.5 -174.5t209.5 -64zM934 0v850h-6v590h84v-1440h-78z" />
    <glyph glyph-name="e" unicode="e" 
d="M574 -30q-153 0 -263.5 69t-170.5 197t-60 304q0 177 59.5 305t170 196.5t264.5 68.5q155 0 265 -70t168.5 -203t58.5 -321h-90v28q-6 233 -109.5 357.5t-292.5 124.5q-192 0 -298 -127.5t-106 -358.5t106 -358.5t298 -127.5q134 0 235 63t161 181l70 -40
q-66 -138 -187 -213t-279 -75zM134 516v84h880v-84h-880z" />
    <glyph glyph-name="f" unicode="f" horiz-adv-x="678" 
d="M256 0v1202q0 42 5.5 77.5t19.5 65.5t39 57q24 25 53.5 40t65.5 21.5t79 6.5h140v-76h-130q-94 0 -141 -45t-47 -155v-1194h-84zM60 996v84h598v-84h-598z" />
    <glyph glyph-name="g" unicode="g" horiz-adv-x="1152" 
d="M552 -510q-78 0 -157 22t-148.5 74.5t-118.5 143.5l74 50q54 -111 152 -157.5t198 -46.5q145 0 226.5 54.5t114.5 162t33 267.5v276h8v744h78v-1020q0 -49 -2 -95t-8 -91q-16 -131 -69.5 -216t-147.5 -126.5t-233 -41.5zM550 -30q-153 0 -257.5 75.5t-158.5 205
t-54 291.5q0 159 53 288t154.5 204.5t246.5 75.5q151 0 254.5 -73.5t156.5 -202t53 -292.5q0 -161 -52.5 -290.5t-152.5 -205.5t-243 -76zM550 54q127 0 212.5 64t128.5 174.5t43 249.5q0 141 -43.5 250.5t-129 171.5t-211.5 62q-129 0 -213.5 -63.5t-125.5 -173t-41 -247.5
q0 -139 43 -249.5t127.5 -174.5t209.5 -64z" />
    <glyph glyph-name="h" unicode="h" 
d="M942 0v572q0 116 -23.5 200.5t-69.5 140t-111.5 82.5t-149.5 27q-99 0 -168.5 -34.5t-112.5 -94.5t-63 -138t-20 -165l-78 -2q0 185 61 298.5t161.5 165.5t219.5 52q82 0 150.5 -23t122 -66.5t90.5 -106.5t56 -143.5t19 -176.5v-588h-84zM140 0v1440h78v-850h6v-590h-84z
" />
    <glyph glyph-name="i" unicode="i" horiz-adv-x="404" 
d="M160 1312v128h84v-128h-84zM160 0v1080h84v-1080h-84z" />
    <glyph glyph-name="j" unicode="j" horiz-adv-x="450" 
d="M-20 -480v86h68q63 0 110.5 35.5t47.5 128.5v1310h84v-1300q0 -138 -56.5 -199t-187.5 -61h-66zM206 1312v128h84v-128h-84z" />
    <glyph glyph-name="k" unicode="k" horiz-adv-x="936" 
d="M140 0v1440h84v-880l540 520h126l-564 -540l650 -540h-144l-608 520v-520h-84z" />
    <glyph glyph-name="l" unicode="l" horiz-adv-x="404" 
d="M160 0v1470h84v-1470h-84z" />
    <glyph glyph-name="m" unicode="m" horiz-adv-x="1628" 
d="M1422 0l2 744q0 135 -79 212.5t-195 77.5q-64 0 -129.5 -29t-110 -98t-44.5 -189h-74q-5 119 41.5 207t130.5 136.5t192 48.5q153 0 252.5 -96t99.5 -264l-2 -750h-84zM140 0v1080h78v-220h6v-860h-84zM782 0l2 730q0 140 -77.5 222t-200.5 82q-126 0 -204 -86t-78 -230
l-74 32q0 104 47 185.5t129.5 128t189.5 46.5q91 0 171 -38.5t129.5 -119.5t49.5 -208l-2 -744h-82z" />
    <glyph glyph-name="n" unicode="n" 
d="M942 0v572q0 116 -23.5 200.5t-69.5 140t-111.5 82.5t-149.5 27q-99 0 -168.5 -34.5t-112.5 -94.5t-63 -138t-20 -165l-78 -2q0 185 61 298.5t161.5 165.5t219.5 52q82 0 150.5 -23t122 -66.5t90.5 -106.5t56 -143.5t19 -176.5v-588h-84zM140 0v1080h78v-220h6v-860h-84z
" />
    <glyph glyph-name="o" unicode="o" horiz-adv-x="1148" 
d="M574 -30q-160 0 -270 73t-167 202t-57 297q0 170 58 298t168.5 199t267.5 71q161 0 271 -72.5t166.5 -200.5t56.5 -295q0 -171 -57 -299.5t-167.5 -200.5t-269.5 -72zM574 54q204 0 304 135.5t100 352.5q0 221 -100.5 352.5t-303.5 131.5q-137 0 -226.5 -62t-133.5 -171
t-44 -251q0 -220 102.5 -354t301.5 -134z" />
    <glyph glyph-name="p" unicode="p" horiz-adv-x="1152" 
d="M602 -30q-143 0 -243 76t-152.5 205.5t-52.5 290.5q0 164 53 292.5t156.5 202t254.5 73.5q145 0 246.5 -75.5t154.5 -204.5t53 -288q0 -162 -54 -291.5t-158.5 -205t-257.5 -75.5zM140 -480v1560h78v-850h6v-710h-84zM602 54q125 0 209.5 64t127.5 174.5t43 249.5
q0 138 -41.5 247.5t-125.5 173t-213 63.5q-126 0 -211.5 -62t-129 -171.5t-43.5 -250.5q0 -139 43 -249.5t128.5 -174.5t212.5 -64z" />
    <glyph glyph-name="q" unicode="q" horiz-adv-x="1152" 
d="M550 -30q-153 0 -257.5 75.5t-158.5 205t-54 291.5q0 159 53 288t154.5 204.5t246.5 75.5q151 0 254.5 -73.5t156.5 -202t53 -292.5q0 -161 -52.5 -290.5t-152.5 -205.5t-243 -76zM550 54q127 0 212.5 64t128.5 174.5t43 249.5q0 141 -43.5 250.5t-129 171.5t-211.5 62
q-129 0 -213.5 -63.5t-125.5 -173t-41 -247.5q0 -139 43 -249.5t127.5 -174.5t209.5 -64zM928 -480v710h6v850h78v-1560h-84z" />
    <glyph glyph-name="r" unicode="r" horiz-adv-x="670" 
d="M140 0v1080h78v-258l-26 34q17 44 43 82t51 62q44 43 104.5 65.5t121.5 26t108 -11.5v-80q-67 15 -142 5.5t-140 -69.5q-57 -53 -80.5 -122t-28.5 -142.5t-5 -139.5v-532h-84z" />
    <glyph glyph-name="s" unicode="s" horiz-adv-x="1028" 
d="M534 -28q-183 0 -304 76.5t-150 211.5l86 16q27 -100 126.5 -160t243.5 -60q147 0 233.5 63t86.5 171q0 59 -26 96.5t-101.5 68.5t-222.5 71q-154 42 -239.5 81.5t-120 89t-34.5 121.5q0 86 51 152t141 103t208 37q119 0 214.5 -39.5t154 -110t67.5 -162.5l-86 -16
q-19 113 -115.5 178.5t-240.5 65.5q-135 2 -220.5 -55t-85.5 -149q0 -51 29 -87.5t101 -66.5t200 -62q162 -41 252.5 -83t127 -98t36.5 -139q0 -147 -110 -230.5t-302 -83.5z" />
    <glyph glyph-name="t" unicode="t" horiz-adv-x="758" 
d="M698 0q-81 -18 -160 -13.5t-141 38t-93 101.5q-24 53 -27 107.5t-3 124.5v1022h84v-1022q0 -70 1.5 -113t20.5 -81q36 -72 114 -88.5t204 4.5v-80zM20 996v84h678v-84h-678z" />
    <glyph glyph-name="u" unicode="u" 
d="M558 -24q-82 0 -150.5 23t-122 66.5t-90.5 106.5t-56 143.5t-19 176.5v588h84v-572q0 -115 23.5 -200t69.5 -140.5t111.5 -82.5t149.5 -27q99 0 168.5 34.5t112.5 94.5t63 138t20 165l78 2q0 -185 -61 -298.5t-161.5 -165.5t-219.5 -52zM928 0v220h-6v860h84v-1080h-78z
" />
    <glyph glyph-name="v" unicode="v" horiz-adv-x="956" 
d="M432 0l-392 1080h88l350 -958l348 958h90l-392 -1080h-92z" />
    <glyph glyph-name="w" unicode="w" horiz-adv-x="1488" 
d="M370 0l-330 1080h88l286 -936l286 936h88l286 -936l288 936h86l-330 -1080h-88l-286 938l-286 -938h-88z" />
    <glyph glyph-name="x" unicode="x" horiz-adv-x="1018" 
d="M20 0l440 546l-430 534h104l376 -472l374 472h104l-430 -534l440 -546h-106l-382 484l-384 -484h-106z" />
    <glyph glyph-name="y" unicode="y" horiz-adv-x="1012" 
d="M302 -480l210 564l2 -168l-474 1164h92l424 -1048h-64l380 1048h90l-566 -1560h-94z" />
    <glyph glyph-name="z" unicode="z" horiz-adv-x="1054" 
d="M40 0v30l780 962h-732v88h886v-34l-780 -958h732v-88h-886z" />
    <glyph glyph-name="braceleft" unicode="{" horiz-adv-x="799" 
d="M601 -444q-87 0 -148.5 61.5t-61.5 146.5v686q0 37 -22 72l-82 114q-7 11 -7 24.5t7 23.5l82 114q22 35 22 72v684q0 87 61.5 148.5t148.5 61.5h108v-84h-108q-52 0 -89 -36.5t-37 -89.5v-684q0 -67 -38 -120l-64 -90l64 -90q38 -53 38 -120v-686q0 -51 37 -87.5
t89 -36.5h108v-84h-108z" />
    <glyph glyph-name="bar" unicode="|" horiz-adv-x="444" 
d="M180 0v1440h84v-1440h-84z" />
    <glyph glyph-name="braceright" unicode="}" horiz-adv-x="799" 
d="M198 -444h-108v84h108q53 0 89.5 36.5t36.5 87.5v686q0 67 38 120l64 90l-64 90q-38 53 -38 120v684q0 53 -36.5 89.5t-89.5 36.5h-108v84h108q87 0 148.5 -61.5t61.5 -148.5v-684q0 -37 22 -72l82 -114q8 -10 8 -23.5t-8 -24.5l-82 -114q-22 -35 -22 -72v-686
q0 -85 -61.5 -146.5t-148.5 -61.5z" />
    <glyph glyph-name="asciitilde" unicode="~" horiz-adv-x="1252" 
d="M822 504q-55 0 -108 20.5t-103.5 47t-97 47t-89.5 20.5q-61 0 -76 -41.5t0 -79.5h-101q-17 65 2.5 118t66 84.5t111.5 31.5q56 0 110 -20.5t104.5 -47.5t97 -47.5t89.5 -20.5q52 0 72.5 39.5t3.5 87.5h101q17 -63 -2 -117.5t-66 -88t-115 -33.5z" />
    <glyph glyph-name="uni00A0" unicode="&#xa0;" horiz-adv-x="400" 
 />
    <glyph glyph-name="exclamdown" unicode="&#xa1;" horiz-adv-x="564" 
d="M240 1080h84v-128h-84v128zM240 720h84v-1080h-84v1080z" />
    <glyph glyph-name="cent" unicode="&#xa2;" horiz-adv-x="1078" 
d="M534 -60v182q-148 9 -248 83t-151.5 198.5t-54.5 286.5q3 166 55 290.5t152 196.5t247 81v182h84v-182q135 -10 239.5 -80t150.5 -186l-80 -34q-45 104 -138.5 161t-215.5 57q-136 0 -225 -61.5t-133 -171t-46 -253.5q3 -220 104 -353t300 -133q119 0 211 55t141 161
l82 -36q-63 -120 -161 -186.5t-229 -75.5v-182h-84z" />
    <glyph glyph-name="sterling" unicode="&#xa3;" horiz-adv-x="1142" 
d="M60 0v84h152q57 0 97.5 40.5t40.5 97.5v878q0 110 46.5 193.5t127.5 130t184 46.5q87 0 157 -38t124 -115.5t93 -194.5l-80 -26q-49 150 -120.5 220t-175.5 70q-123 0 -197.5 -77.5t-74.5 -208.5v-1016h622v-84h-996zM60 694v84h778v-84h-778z" />
    <glyph glyph-name="currency" unicode="&#xa4;" horiz-adv-x="1244" 
d="M622 196q-108 0 -203 41t-167 113.5t-113 167.5t-41 204q0 108 41 203t113 167t167 113t203 41q109 0 204 -41t167.5 -113t113.5 -167t41 -203q0 -109 -41 -204t-113.5 -167.5t-167.5 -113.5t-204 -41zM120 160l-60 60l192 192l60 -60zM254 1028l-194 194l60 58l192 -192
zM1124 160l-192 192l60 60l192 -192zM622 280q122 0 222.5 60.5t160 160.5t59.5 219q0 122 -61 222.5t-161.5 160t-219.5 59.5q-122 0 -222 -59.5t-159 -160t-59 -222.5q0 -119 59 -219t159 -160.5t222 -60.5zM990 1028l-58 60l192 192l60 -58z" />
    <glyph glyph-name="yen" unicode="&#xa5;" horiz-adv-x="1038" 
d="M160 512v84h720v-84h-720zM160 244v84h720v-84h-720zM478 0v612l-478 828h96l424 -732l422 732h96l-476 -828v-612h-84z" />
    <glyph glyph-name="brokenbar" unicode="&#xa6;" horiz-adv-x="444" 
d="M180 752v688h84v-688h-84zM180 -248v688h84v-688h-84z" />
    <glyph glyph-name="section" unicode="&#xa7;" horiz-adv-x="1028" 
d="M542 -328q-90 0 -178.5 28.5t-154.5 92t-89 167.5l86 16q22 -81 78.5 -129t126.5 -69.5t133 -21.5q77 0 143.5 27t107.5 79t41 128q0 72 -40.5 112t-118.5 66.5t-191 57.5t-202 63.5t-140.5 85t-51.5 143.5q0 97 56 161t143 90.5t181 12.5l-6 -16q-120 -28 -203 -90
t-83 -154q0 -66 44.5 -105t119.5 -63.5t166 -47.5q118 -30 212 -63.5t149 -92t55 -164.5q0 -103 -52 -173t-139 -105.5t-193 -35.5zM614 232l2 24q62 0 122 27t99 79t39 128q0 72 -40.5 112t-118.5 66.5t-191 57.5t-202 63.5t-140.5 85t-51.5 143.5q0 97 56 162t142 97.5
t176 32.5q105 0 192.5 -40t143.5 -110.5t66 -161.5l-86 -16q-17 93 -71.5 146t-124 75.5t-130.5 22.5q-74 0 -137 -25.5t-101 -71.5t-38 -107q0 -66 44.5 -105t119.5 -63.5t166 -47.5q118 -30 212 -63.5t149 -92t55 -164.5q0 -103 -50 -170.5t-130.5 -90.5t-171.5 7z" />
    <glyph glyph-name="dieresis" unicode="&#xa8;" horiz-adv-x="960" 
d="M600 1680v120h120v-120h-120zM240 1680v120h120v-120h-120z" />
    <glyph glyph-name="copyright" unicode="&#xa9;" horiz-adv-x="1496" 
d="M748 -10q-142 0 -267 53.5t-219.5 148t-148 219.5t-53.5 267q0 143 53.5 267.5t148 219t219.5 148t267 53.5q143 0 267.5 -53.5t219 -148t148 -219t53.5 -267.5q0 -142 -53.5 -267t-148 -219.5t-219 -148t-267.5 -53.5zM752 260q-85 0 -157 31t-125 97q-52 66 -69 143.5
t-17 150.5q2 75 19.5 151t66.5 139q53 66 125.5 97t160.5 31q53 0 101 -11.5t93 -38.5q44 -27 79 -68t51 -92l-82 -28q-15 33 -40.5 64t-57.5 52q-31 21 -69 30.5t-77 9.5q-64 0 -119 -26t-93 -74q-37 -48 -51.5 -111t-14.5 -123q0 -69 16.5 -133t49.5 -109q36 -49 91 -74.5
t119 -25.5q82 0 150 40q32 20 55 49t39 65l84 -30q-25 -57 -59.5 -93.5t-64.5 -56.5q-45 -28 -95 -42t-109 -14zM748 78q124 0 232 46.5t190.5 129t129 192t46.5 234.5q0 124 -46.5 232t-129 190.5t-190.5 129t-232 46.5q-125 0 -234.5 -46.5t-192 -129t-129 -190.5
t-46.5 -232q0 -125 46.5 -234.5t129 -192t192 -129t234.5 -46.5z" />
    <glyph glyph-name="ordfeminine" unicode="&#xaa;" horiz-adv-x="623" 
d="M264 540q-91 0 -137.5 48t-46.5 113q0 64 36 102.5t97 56.5q56 15 131.5 25t139.5 19l-30 -43q6 85 -23 125.5t-109 40.5q-49 0 -86 -22t-51 -72l-85 25q20 71 76 111.5t147 40.5q74 0 126.5 -26t75.5 -79q11 -25 14.5 -54.5t3.5 -61.5v-334h-79v129l15 -18
q-31 -63 -84.5 -94.5t-130.5 -31.5zM277 615q72 0 115 37t53 87q8 26 8.5 59t0.5 46l34 -15q-66 -10 -128 -17.5t-107 -20.5q-34 -10 -59 -30.5t-25 -58.5q0 -34 25 -60.5t83 -26.5z" />
    <glyph glyph-name="guillemotleft" unicode="&#xab;" horiz-adv-x="1004" 
d="M802 112l-342 430l342 428l62 -48l-304 -380l304 -382zM502 112l-342 430l342 428l62 -48l-304 -380l304 -382z" />
    <glyph glyph-name="logicalnot" unicode="&#xac;" horiz-adv-x="1200" 
d="M996 402v256h-876v84h960v-340h-84z" />
    <glyph glyph-name="uni00AD" unicode="&#xad;" horiz-adv-x="840" 
d="M120 588v84h600v-84h-600z" />
    <glyph glyph-name="registered" unicode="&#xae;" horiz-adv-x="1210" 
d="M606 594q-97 0 -181.5 36t-148.5 100t-100 148.5t-36 181.5q0 96 36 180t100 148t148.5 100t181.5 36q96 0 180 -36t148 -100t100 -148t36 -180q0 -97 -36 -181.5t-100 -148.5t-148 -100t-180 -36zM606 678q105 0 191.5 51.5t137.5 138t51 192.5q0 105 -51 191
t-137.5 137.5t-191.5 51.5q-106 0 -192.5 -51.5t-138 -137.5t-51.5 -191q0 -106 51.5 -192.5t138 -138t192.5 -51.5zM444 834v460h204q59 0 104.5 -44t45.5 -104q0 -39 -23.5 -77.5t-64.5 -56.5l88 -178h-82l-80 164h-120v-164h-72zM516 1066h130q30 0 54 23.5t24 56.5
q0 36 -26 58t-52 22h-130v-160z" />
    <glyph glyph-name="macron" unicode="&#xaf;" horiz-adv-x="960" 
d="M240 1680v84h480v-84h-480z" />
    <glyph glyph-name="degree" unicode="&#xb0;" horiz-adv-x="900" 
d="M420 750q-99 0 -181 48.5t-130.5 130t-48.5 181.5q0 98 50 180t132 131t178 49q99 0 180.5 -48.5t130.5 -130t49 -181.5t-49 -181.5t-130.5 -130t-180.5 -48.5zM420 834q75 0 138 37.5t100.5 100.5t37.5 138t-37.5 138t-100.5 100.5t-138 37.5t-137.5 -37.5
t-100.5 -100.5t-38 -138t38 -138t100.5 -100.5t137.5 -37.5z" />
    <glyph glyph-name="plusminus" unicode="&#xb1;" horiz-adv-x="1200" 
d="M558 440v278h-438v84h438v278h84v-278h438v-84h-438v-278h-84zM120 176v84h960v-84h-960z" />
    <glyph glyph-name="uni00B2" unicode="&#xb2;" horiz-adv-x="784" 
d="M100 540l2 76l410 374q54 48 71 92t17 92q0 87 -59 147.5t-145 60.5q-59 0 -106 -29t-74 -76t-26 -101h-84q0 81 38.5 145.5t104 101.5t147.5 37t147 -38.5t103 -103.5t38 -144q0 -55 -13.5 -97t-41 -78.5t-69.5 -74.5l-400 -364l-24 60h548v-80h-584z" />
    <glyph glyph-name="uni00B3" unicode="&#xb3;" horiz-adv-x="760" 
d="M356 520q-99 0 -173 52.5t-103 143.5l78 24q24 -70 77.5 -105.5t120.5 -34.5q95 2 147.5 60t52.5 152q0 96 -55 154t-147 58q-25 0 -52.5 -6.5t-53.5 -17.5l-42 64l384 360l24 -62h-498v78h516v-80l-342 -324l-4 54q104 22 184 -8.5t125 -101t45 -168.5q0 -87 -36 -152.5
t-100 -102.5t-148 -37z" />
    <glyph glyph-name="acute" unicode="&#xb4;" horiz-adv-x="914" 
d="M463 1620h-88l96 270h88z" />
    <glyph glyph-name="uni00B5" unicode="&#xb5;" horiz-adv-x="1166" 
d="M140 -480v1560h84v-572q0 -115 23.5 -200t69.5 -140.5t111.5 -82.5t149.5 -27q99 0 168.5 34.5t112.5 94.5t63 138t20 165v590h84v-1080h-78v174q-60 -103 -158 -150.5t-212 -47.5q-121 0 -212.5 49.5t-147.5 142.5v-648h-78z" />
    <glyph glyph-name="paragraph" unicode="&#xb6;" horiz-adv-x="1162" 
d="M698 -282v858h-86q-21 0 -43 2t-49 6q-104 17 -180.5 76.5t-118 149.5t-41.5 198t41.5 198t118 149.5t180.5 76.5q27 5 49 6.5t43 1.5h170v-1722h-84zM898 -282v1722h84v-1722h-84z" />
    <glyph glyph-name="periodcentered" unicode="&#xb7;" horiz-adv-x="400" 
d="M202 550q-34 0 -58 23t-24 57q0 35 24 57.5t58 22.5q32 0 55 -22.5t23 -57.5q0 -34 -23 -57t-55 -23z" />
    <glyph glyph-name="cedilla" unicode="&#xb8;" horiz-adv-x="772" 
d="M360 -478q-33 0 -63 8t-57 20l28 74q50 -20 86 -20q45 0 69.5 29t24.5 65q0 51 -42 72.5t-92 37.5l76 206h84l-58 -156q51 -21 85.5 -60t34.5 -104q0 -72 -52 -122t-124 -50z" />
    <glyph glyph-name="uni00B9" unicode="&#xb9;" horiz-adv-x="612" 
d="M290 540v808l-170 -102v92l170 102h82v-900h-82z" />
    <glyph glyph-name="ordmasculine" unicode="&#xba;" horiz-adv-x="681" 
d="M340 540q-121 0 -190.5 80t-69.5 206q0 127 71 205.5t189 78.5q122 0 191.5 -79.5t69.5 -204.5q0 -127 -70 -206.5t-191 -79.5zM340 625q84 0 125 56t41 145q0 91 -41.5 145.5t-124.5 54.5q-85 0 -125 -55.5t-40 -144.5q0 -91 41.5 -146t123.5 -55z" />
    <glyph glyph-name="guillemotright" unicode="&#xbb;" horiz-adv-x="1004" 
d="M202 112l-62 48l304 382l-304 380l62 48l342 -428zM502 112l-62 48l304 382l-304 380l62 48l342 -428z" />
    <glyph glyph-name="onequarter" unicode="&#xbc;" horiz-adv-x="1864" 
d="M290 540v808l-170 -102v92l170 102h82v-900h-82zM1442 0v178h-426v80l304 642h92l-304 -642h334v268h82v-268h100v-80h-100v-178h-82zM286 0l-74 60l1094 1380l72 -58z" />
    <glyph glyph-name="onehalf" unicode="&#xbd;" horiz-adv-x="1762" 
d="M290 540v808l-170 -102v92l170 102h82v-900h-82zM1078 0l2 76l410 374q54 48 71 92t17 92q0 87 -59 147.5t-145 60.5q-59 0 -106 -29t-74 -76t-26 -101h-84q0 81 38.5 145.5t104 101.5t147.5 37t147 -38.5t103 -103.5t38 -144q0 -55 -13.5 -97t-41 -78.5t-69.5 -74.5
l-400 -364l-24 60h548v-80h-584zM286 0l-74 60l1094 1380l72 -58z" />
    <glyph glyph-name="threequarters" unicode="&#xbe;" horiz-adv-x="1894" 
d="M356 520q-99 0 -173 52.5t-103 143.5l78 24q24 -70 77.5 -105.5t120.5 -34.5q95 2 147.5 60t52.5 152q0 96 -55 154t-147 58q-25 0 -52.5 -6.5t-53.5 -17.5l-42 64l384 360l24 -62h-498v78h516v-80l-342 -324l-4 54q104 22 184 -8.5t125 -101t45 -168.5q0 -87 -36 -152.5
t-100 -102.5t-148 -37zM1592 0v178h-426v80l304 642h92l-304 -642h334v268h82v-268h100v-80h-100v-178h-82zM434 0l-74 60l1094 1380l72 -58z" />
    <glyph glyph-name="questiondown" unicode="&#xbf;" horiz-adv-x="1008" 
d="M572 686q0 -84 -3.5 -140.5t-36.5 -119.5q-32 -60 -83 -101.5t-104 -76.5t-91 -76q-37 -43 -50.5 -91t-13.5 -99q0 -61 16.5 -109t47.5 -83q48 -55 116 -75.5t138 -20.5q77 0 141.5 22.5t104.5 67.5q38 38 54 89.5t16 106.5h84q0 -66 -21 -134.5t-71 -119.5
q-60 -61 -143 -88.5t-169 -27.5q-90 0 -171.5 27.5t-138.5 88.5q-49 53 -71.5 117.5t-22.5 140.5q0 69 23 134.5t69 111.5q36 39 88.5 75t101.5 74.5t74 86.5q26 48 26 99v121h90zM572 1080v-150h-90v150h90z" />
    <glyph glyph-name="Agrave" unicode="&#xc0;" horiz-adv-x="1218" 
d="M558 1620l-96 270h88l96 -270h-88zM1178 0h-90l-508 1402h60l-510 -1402h-90l524 1440h90zM978 374h-736v80h736v-80z" />
    <glyph glyph-name="Aacute" unicode="&#xc1;" horiz-adv-x="1218" 
d="M660 1620h-88l96 270h88zM40 0l524 1440h90l524 -1440h-90l-510 1402h60l-508 -1402h-90zM240 374v80h736v-80h-736z" />
    <glyph glyph-name="Acircumflex" unicode="&#xc2;" horiz-adv-x="1218" 
d="M364 1620l200 240h92l200 -240h-100l-146 170l-146 -170h-100zM40 0l524 1440h90l524 -1440h-90l-510 1402h60l-508 -1402h-90zM240 374v80h736v-80h-736z" />
    <glyph glyph-name="Atilde" unicode="&#xc3;" horiz-adv-x="1218" 
d="M748 1670q-39 0 -76.5 14.5t-73.5 33.5t-69 33.5t-63 14.5q-43 0 -53.5 -29.5t-0.5 -56.5h-72q-18 69 20.5 117.5t107.5 48.5q40 0 78 -14.5t74 -33.5t69 -33.5t63 -14.5q38 0 52 28t2 62h72q18 -67 -20 -118.5t-110 -51.5zM40 0l524 1440h90l524 -1440h-90l-510 1402h60
l-508 -1402h-90zM240 374v80h736v-80h-736z" />
    <glyph glyph-name="Adieresis" unicode="&#xc4;" horiz-adv-x="1218" 
d="M730 1680v120h120v-120h-120zM370 1680v120h120v-120h-120zM40 0l524 1440h90l524 -1440h-90l-510 1402h60l-508 -1402h-90zM240 374v80h736v-80h-736z" />
    <glyph glyph-name="Aring" unicode="&#xc5;" horiz-adv-x="1218" 
d="M610 1560q-53 0 -97 26t-70.5 70t-26.5 98q0 53 26.5 97t70.5 70.5t97 26.5q54 0 98 -26.5t70 -70.5t26 -97q0 -54 -26 -98t-70 -70t-98 -26zM610 1644q47 0 78.5 32.5t31.5 77.5q0 46 -31.5 78t-78.5 32q-45 0 -77.5 -32t-32.5 -78q0 -45 32.5 -77.5t77.5 -32.5zM40 0
l524 1440h90l524 -1440h-90l-510 1402h60l-508 -1402h-90zM240 374v80h736v-80h-736z" />
    <glyph glyph-name="AE" unicode="&#xc6;" horiz-adv-x="1810" 
d="M40 0l524 1440h306v-84h-298l64 42l-506 -1398h-90zM240 374v80h636v-80h-636zM830 0v1440h880v-84h-796v-594h676v-84h-676v-594h796v-84h-880z" />
    <glyph glyph-name="Ccedilla" unicode="&#xc7;" horiz-adv-x="1400" 
d="M696 -478q-33 0 -63 8t-57 20l28 74q50 -20 86 -20q45 0 69.5 29t24.5 65q0 51 -42 72.5t-92 37.5l76 206h84l-58 -156q51 -21 85.5 -60t34.5 -104q0 -72 -52 -122t-124 -50zM706 -30q-215 0 -358.5 96t-215.5 265t-72 389t72 389t215.5 265t358.5 96q252 0 406 -131.5
t208 -350.5l-88 -20q-48 191 -179.5 304.5t-346.5 113.5q-185 0 -307.5 -85t-184.5 -235.5t-64 -345.5t60 -345t186.5 -235.5t309.5 -85.5q215 0 346.5 114t179.5 304l88 -20q-54 -219 -208 -350.5t-406 -131.5z" />
    <glyph glyph-name="Egrave" unicode="&#xc8;" horiz-adv-x="1120" 
d="M574 1620l-96 270h88l96 -270h-88zM140 0v1440h880v-84h-796v-594h676v-84h-676v-594h796v-84h-880z" />
    <glyph glyph-name="Eacute" unicode="&#xc9;" horiz-adv-x="1120" 
d="M646 1620h-88l96 270h88zM140 0v1440h880v-84h-796v-594h676v-84h-676v-594h796v-84h-880z" />
    <glyph glyph-name="Ecircumflex" unicode="&#xca;" horiz-adv-x="1120" 
d="M324 1620l200 240h92l200 -240h-100l-146 170l-146 -170h-100zM140 0v1440h880v-84h-796v-594h676v-84h-676v-594h796v-84h-880z" />
    <glyph glyph-name="Edieresis" unicode="&#xcb;" horiz-adv-x="1120" 
d="M670 1680v120h120v-120h-120zM310 1680v120h120v-120h-120zM140 0v1440h880v-84h-796v-594h676v-84h-676v-594h796v-84h-880z" />
    <glyph glyph-name="Igrave" unicode="&#xcc;" horiz-adv-x="404" 
d="M156 1620l-96 270h88l96 -270h-88zM160 0v1440h84v-1440h-84z" />
    <glyph glyph-name="Iacute" unicode="&#xcd;" horiz-adv-x="404" 
d="M248 1620h-88l96 270h88zM160 0v1440h84v-1440h-84z" />
    <glyph glyph-name="Icircumflex" unicode="&#xce;" horiz-adv-x="404" 
d="M-44 1620l200 240h92l200 -240h-100l-146 170l-146 -170h-100zM160 0v1440h84v-1440h-84z" />
    <glyph glyph-name="Idieresis" unicode="&#xcf;" horiz-adv-x="404" 
d="M322 1680v120h120v-120h-120zM-38 1680v120h120v-120h-120zM160 0v1440h84v-1440h-84z" />
    <glyph glyph-name="Eth" unicode="&#xd0;" horiz-adv-x="1282" 
d="M20 678v84h600v-84h-600zM118 0v1440h422q26 0 83 -1t109 -9q159 -23 263.5 -122t155.5 -251.5t51 -336.5q0 -185 -51 -337.5t-155.5 -251t-263.5 -121.5q-51 -7 -109.5 -8.5t-82.5 -1.5h-422zM208 84h332q48 0 96.5 3t81.5 9q142 24 228.5 109.5t126 218t39.5 296.5
t-39.5 296.5t-126 218t-228.5 109.5q-33 6 -83 9t-95 3h-332v-1272z" />
    <glyph glyph-name="Ntilde" unicode="&#xd1;" horiz-adv-x="1324" 
d="M830 1620q-39 0 -76.5 14.5t-73.5 33.5t-69 33.5t-63 14.5q-43 0 -53.5 -29.5t-0.5 -56.5h-72q-18 69 20.5 117.5t107.5 48.5q40 0 78 -14.5t74 -33.5t69 -33.5t63 -14.5q38 0 52 28t2 62h72q18 -67 -20 -118.5t-110 -51.5zM140 0v1440h84l876 -1290v1290h84v-1440h-84
l-876 1292v-1292h-84z" />
    <glyph glyph-name="Ograve" unicode="&#xd2;" horiz-adv-x="1412" 
d="M670 1620l-96 270h88l96 -270h-88zM706 -30q-215 0 -358.5 96t-215.5 265t-72 389t72 389t215.5 265t358.5 96t358.5 -96t215.5 -265t72 -389t-72 -389t-215.5 -265t-358.5 -96zM706 54q185 0 308.5 85.5t185.5 235.5t62 345t-62 345.5t-185.5 235.5t-308.5 85
t-307.5 -85t-184.5 -235.5t-64 -345.5t60 -345t186.5 -235.5t309.5 -85.5z" />
    <glyph glyph-name="Oacute" unicode="&#xd3;" horiz-adv-x="1412" 
d="M772 1620h-88l96 270h88zM706 -30q-215 0 -358.5 96t-215.5 265t-72 389t72 389t215.5 265t358.5 96t358.5 -96t215.5 -265t72 -389t-72 -389t-215.5 -265t-358.5 -96zM706 54q185 0 308.5 85.5t185.5 235.5t62 345t-62 345.5t-185.5 235.5t-308.5 85t-307.5 -85
t-184.5 -235.5t-64 -345.5t60 -345t186.5 -235.5t309.5 -85.5z" />
    <glyph glyph-name="Ocircumflex" unicode="&#xd4;" horiz-adv-x="1412" 
d="M460 1620l200 240h92l200 -240h-100l-146 170l-146 -170h-100zM706 -30q-215 0 -358.5 96t-215.5 265t-72 389t72 389t215.5 265t358.5 96t358.5 -96t215.5 -265t72 -389t-72 -389t-215.5 -265t-358.5 -96zM706 54q185 0 308.5 85.5t185.5 235.5t62 345t-62 345.5
t-185.5 235.5t-308.5 85t-307.5 -85t-184.5 -235.5t-64 -345.5t60 -345t186.5 -235.5t309.5 -85.5z" />
    <glyph glyph-name="Otilde" unicode="&#xd5;" horiz-adv-x="1412" 
d="M706 -30q-215 0 -358.5 96t-215.5 265t-72 389t72 389t215.5 265t358.5 96t358.5 -96t215.5 -265t72 -389t-72 -389t-215.5 -265t-358.5 -96zM706 54q185 0 308.5 85.5t185.5 235.5t62 345t-62 345.5t-185.5 235.5t-308.5 85t-307.5 -85t-184.5 -235.5t-64 -345.5
t60 -345t186.5 -235.5t309.5 -85.5zM861 1620q-39 0 -76.5 14.5t-73.5 33.5t-69 33.5t-63 14.5q-43 0 -53.5 -29.5t-0.5 -56.5h-72q-18 69 20.5 117.5t107.5 48.5q40 0 78 -14.5t74 -33.5t69 -33.5t63 -14.5q38 0 52 28t2 62h72q18 -67 -20 -118.5t-110 -51.5z" />
    <glyph glyph-name="Odieresis" unicode="&#xd6;" horiz-adv-x="1412" 
d="M826 1680v120h120v-120h-120zM466 1680v120h120v-120h-120zM706 -30q-215 0 -358.5 96t-215.5 265t-72 389t72 389t215.5 265t358.5 96t358.5 -96t215.5 -265t72 -389t-72 -389t-215.5 -265t-358.5 -96zM706 54q185 0 308.5 85.5t185.5 235.5t62 345t-62 345.5
t-185.5 235.5t-308.5 85t-307.5 -85t-184.5 -235.5t-64 -345.5t60 -345t186.5 -235.5t309.5 -85.5z" />
    <glyph glyph-name="multiply" unicode="&#xd7;" horiz-adv-x="950" 
d="M771 364l-296 296l-296 -296l-59 60l296 295l-296 296l59 59l296 -295l296 295l59 -59l-296 -296l296 -295z" />
    <glyph glyph-name="Oslash" unicode="&#xd8;" horiz-adv-x="1412" 
d="M72 -26l-62 58l200 214l22 24l910 972l20 20l183 197l62 -55l-197 -214l-16 -16l-908 -972l-26 -28zM706 -30q-215 0 -358.5 96t-215.5 265t-72 389t72 389t215.5 265t358.5 96t358.5 -96t215.5 -265t72 -389t-72 -389t-215.5 -265t-358.5 -96zM706 54q185 0 308.5 85.5
t185.5 235.5t62 345t-62 345.5t-185.5 235.5t-308.5 85t-307.5 -85t-184.5 -235.5t-64 -345.5t60 -345t186.5 -235.5t309.5 -85.5z" />
    <glyph glyph-name="Ugrave" unicode="&#xd9;" horiz-adv-x="1380" 
d="M669 1620l-96 270h88l96 -270h-88zM690 -30q-160 0 -284 67t-195 188.5t-71 284.5v930h84v-902q0 -133 45 -226.5t116 -151t152 -84t153 -26.5t153 26.5t152 84t116 151t45 226.5v902h84v-930q0 -162 -71 -283.5t-195 -189t-284 -67.5z" />
    <glyph glyph-name="Uacute" unicode="&#xda;" horiz-adv-x="1380" 
d="M711 1620h-88l96 270h88zM690 -30q-160 0 -284 67t-195 188.5t-71 284.5v930h84v-902q0 -133 45 -226.5t116 -151t152 -84t153 -26.5t153 26.5t152 84t116 151t45 226.5v902h84v-930q0 -162 -71 -283.5t-195 -189t-284 -67.5z" />
    <glyph glyph-name="Ucircumflex" unicode="&#xdb;" horiz-adv-x="1380" 
d="M444 1620l200 240h92l200 -240h-100l-146 170l-146 -170h-100zM690 -30q-160 0 -284 67t-195 188.5t-71 284.5v930h84v-902q0 -133 45 -226.5t116 -151t152 -84t153 -26.5t153 26.5t152 84t116 151t45 226.5v902h84v-930q0 -162 -71 -283.5t-195 -189t-284 -67.5z" />
    <glyph glyph-name="Udieresis" unicode="&#xdc;" horiz-adv-x="1380" 
d="M810 1680v120h120v-120h-120zM450 1680v120h120v-120h-120zM690 -30q-160 0 -284 67t-195 188.5t-71 284.5v930h84v-902q0 -133 45 -226.5t116 -151t152 -84t153 -26.5t153 26.5t152 84t116 151t45 226.5v902h84v-930q0 -162 -71 -283.5t-195 -189t-284 -67.5z" />
    <glyph glyph-name="Yacute" unicode="&#xdd;" horiz-adv-x="1038" 
d="M535 1620h-88l96 270h88zM478 0v612l-478 828h96l424 -732l422 732h96l-476 -828v-612h-84z" />
    <glyph glyph-name="Thorn" unicode="&#xde;" horiz-adv-x="1142" 
d="M140 0v1440h84v-288h426q79 0 154 -30q39 -15 75.5 -38t66.5 -52q65 -60 100.5 -142.5t35.5 -169.5q0 -81 -30.5 -156t-83.5 -134q-58 -66 -143.5 -104t-174.5 -38h-426v-288h-84zM224 372h426q74 0 143 33.5t117 90.5q39 47 61.5 105t20.5 119q-1 71 -28.5 136
t-77.5 114q-45 45 -108 71.5t-128 26.5h-426v-696z" />
    <glyph glyph-name="germandbls" unicode="&#xdf;" horiz-adv-x="1150" 
d="M582 -28q-45 0 -91.5 5t-90.5 23v84q48 -16 89.5 -21t92.5 -5q159 0 258.5 90.5t99.5 253.5q0 146 -115.5 234t-304.5 92v84q73 9 139 41.5t107.5 93t41.5 153.5q0 135 -76 210.5t-210 75.5q-93 0 -168 -42.5t-102 -131.5q-12 -39 -16 -82.5t-4 -87.5v-1042h-92v1064
q0 56 7.5 105.5t22.5 86.5q28 69 75.5 117t116 72.5t158.5 24.5q114 0 199 -42t132 -125t47 -205q0 -115 -53.5 -201.5t-154.5 -112.5q45 -2 103 -26.5t112 -72t89.5 -118t35.5 -165.5q0 -193 -114.5 -311.5t-333.5 -118.5z" />
    <glyph glyph-name="agrave" unicode="&#xe0;" horiz-adv-x="1084" 
d="M516 1260l-96 270h88l96 -270h-88zM454 -30q-126 0 -209 44t-124 116t-41 156q0 95 41.5 157.5t108.5 98.5t144 52q94 19 201.5 33.5t198.5 24.5t136 16l-30 -20q5 191 -69.5 284.5t-262.5 93.5q-136 0 -218.5 -60.5t-115.5 -185.5l-92 24q36 150 147.5 228t282.5 78
q150 0 250 -61t136 -165q14 -40 20 -97t6 -111v-676h-78v296l40 -2q-43 -154 -171 -239t-301 -85zM450 54q117 0 206.5 42t145 121.5t70.5 190.5q8 56 8 120v92l44 -34q-53 -5 -146.5 -13.5t-197.5 -22t-188 -34.5q-49 -12 -101 -38t-87.5 -73t-35.5 -121q0 -52 26 -105
t87.5 -89t168.5 -36z" />
    <glyph glyph-name="aacute" unicode="&#xe1;" horiz-adv-x="1084" 
d="M593 1260h-88l96 270h88zM454 -30q-126 0 -209 44t-124 116t-41 156q0 95 41.5 157.5t108.5 98.5t144 52q94 19 201.5 33.5t198.5 24.5t136 16l-30 -20q5 191 -69.5 284.5t-262.5 93.5q-136 0 -218.5 -60.5t-115.5 -185.5l-92 24q36 150 147.5 228t282.5 78
q150 0 250 -61t136 -165q14 -40 20 -97t6 -111v-676h-78v296l40 -2q-43 -154 -171 -239t-301 -85zM450 54q117 0 206.5 42t145 121.5t70.5 190.5q8 56 8 120v92l44 -34q-53 -5 -146.5 -13.5t-197.5 -22t-188 -34.5q-49 -12 -101 -38t-87.5 -73t-35.5 -121q0 -52 26 -105
t87.5 -89t168.5 -36z" />
    <glyph glyph-name="acircumflex" unicode="&#xe2;" horiz-adv-x="1084" 
d="M312 1260l200 240h92l200 -240h-100l-146 170l-146 -170h-100zM454 -30q-126 0 -209 44t-124 116t-41 156q0 95 41.5 157.5t108.5 98.5t144 52q94 19 201.5 33.5t198.5 24.5t136 16l-30 -20q5 191 -69.5 284.5t-262.5 93.5q-136 0 -218.5 -60.5t-115.5 -185.5l-92 24
q36 150 147.5 228t282.5 78q150 0 250 -61t136 -165q14 -40 20 -97t6 -111v-676h-78v296l40 -2q-43 -154 -171 -239t-301 -85zM450 54q117 0 206.5 42t145 121.5t70.5 190.5q8 56 8 120v92l44 -34q-53 -5 -146.5 -13.5t-197.5 -22t-188 -34.5q-49 -12 -101 -38t-87.5 -73
t-35.5 -121q0 -52 26 -105t87.5 -89t168.5 -36z" />
    <glyph glyph-name="atilde" unicode="&#xe3;" horiz-adv-x="1084" 
d="M702 1260q-39 0 -76.5 14.5t-73.5 33.5t-69 33.5t-63 14.5q-43 0 -53.5 -29.5t-0.5 -56.5h-72q-18 69 20.5 117.5t107.5 48.5q40 0 78 -14.5t74 -33.5t69 -33.5t63 -14.5q38 0 52 28t2 62h72q18 -67 -20 -118.5t-110 -51.5zM454 -30q-126 0 -209 44t-124 116t-41 156
q0 95 41.5 157.5t108.5 98.5t144 52q94 19 201.5 33.5t198.5 24.5t136 16l-30 -20q5 191 -69.5 284.5t-262.5 93.5q-136 0 -218.5 -60.5t-115.5 -185.5l-92 24q36 150 147.5 228t282.5 78q150 0 250 -61t136 -165q14 -40 20 -97t6 -111v-676h-78v296l40 -2
q-43 -154 -171 -239t-301 -85zM450 54q117 0 206.5 42t145 121.5t70.5 190.5q8 56 8 120v92l44 -34q-53 -5 -146.5 -13.5t-197.5 -22t-188 -34.5q-49 -12 -101 -38t-87.5 -73t-35.5 -121q0 -52 26 -105t87.5 -89t168.5 -36z" />
    <glyph glyph-name="adieresis" unicode="&#xe4;" horiz-adv-x="1084" 
d="M688 1320v120h120v-120h-120zM328 1320v120h120v-120h-120zM454 -30q-126 0 -209 44t-124 116t-41 156q0 95 41.5 157.5t108.5 98.5t144 52q94 19 201.5 33.5t198.5 24.5t136 16l-30 -20q5 191 -69.5 284.5t-262.5 93.5q-136 0 -218.5 -60.5t-115.5 -185.5l-92 24
q36 150 147.5 228t282.5 78q150 0 250 -61t136 -165q14 -40 20 -97t6 -111v-676h-78v296l40 -2q-43 -154 -171 -239t-301 -85zM450 54q117 0 206.5 42t145 121.5t70.5 190.5q8 56 8 120v92l44 -34q-53 -5 -146.5 -13.5t-197.5 -22t-188 -34.5q-49 -12 -101 -38t-87.5 -73
t-35.5 -121q0 -52 26 -105t87.5 -89t168.5 -36z" />
    <glyph glyph-name="aring" unicode="&#xe5;" horiz-adv-x="1084" 
d="M557 1200q-53 0 -97 26t-70.5 70t-26.5 98q0 53 26.5 97t70.5 70.5t97 26.5q54 0 98 -26.5t70 -70.5t26 -97q0 -54 -26 -98t-70 -70t-98 -26zM557 1284q47 0 78.5 32.5t31.5 77.5q0 46 -31.5 78t-78.5 32q-45 0 -77.5 -32t-32.5 -78q0 -45 32.5 -77.5t77.5 -32.5z
M454 -30q-126 0 -209 44t-124 116t-41 156q0 95 41.5 157.5t108.5 98.5t144 52q94 19 201.5 33.5t198.5 24.5t136 16l-30 -20q5 191 -69.5 284.5t-262.5 93.5q-136 0 -218.5 -60.5t-115.5 -185.5l-92 24q36 150 147.5 228t282.5 78q150 0 250 -61t136 -165q14 -40 20 -97
t6 -111v-676h-78v296l40 -2q-43 -154 -171 -239t-301 -85zM450 54q117 0 206.5 42t145 121.5t70.5 190.5q8 56 8 120v92l44 -34q-53 -5 -146.5 -13.5t-197.5 -22t-188 -34.5q-49 -12 -101 -38t-87.5 -73t-35.5 -121q0 -52 26 -105t87.5 -89t168.5 -36z" />
    <glyph glyph-name="ae" unicode="&#xe6;" horiz-adv-x="1892" 
d="M1348 -30q-152 0 -256.5 73.5t-158 202.5t-53.5 296q0 169 54.5 297t160 199.5t257.5 71.5q154 0 256 -74.5t153 -208t51 -311.5h-86v28q-6 222 -98 352t-280 130q-128 0 -213.5 -61.5t-128 -171t-42.5 -253.5q0 -219 97 -352.5t287 -133.5q122 0 218.5 60t153.5 184
l66 -40q-41 -94 -106 -158t-149 -97t-183 -33zM450 54q132 0 234.5 58.5t147.5 155.5q27 57 37 122.5t10.5 114t0.5 55.5l4 -40h-350q-47 0 -109.5 -4t-121 -24.5t-97 -68t-38.5 -133.5q0 -115 76 -175.5t206 -60.5zM462 -30q-178 0 -280 85.5t-102 236.5q0 92 34.5 150.5
t89.5 91t117.5 46.5t119 17t93.5 3h348l-2 -12q6 141 -24 239t-103.5 148.5t-198.5 50.5q-123 0 -217.5 -52t-126.5 -180l-88 28q21 99 84 162.5t153 94.5t193 31q164 0 262 -72.5t132 -203.5q11 -39 14.5 -77.5t3.5 -80.5l-26 -376q-39 -128 -115.5 -200t-171.5 -101
t-189 -29zM930 516v84h832v-84h-832z" />
    <glyph glyph-name="ccedilla" unicode="&#xe7;" horiz-adv-x="1078" 
d="M516 -478q-33 0 -63 8t-57 20l28 74q50 -20 86 -20q45 0 69.5 29t24.5 65q0 51 -42 72.5t-92 37.5l76 206h84l-58 -156q51 -21 85.5 -60t34.5 -104q0 -72 -52 -122t-124 -50zM574 -30q-161 0 -270 72t-165 200.5t-59 297.5q3 173 59.5 301t165.5 198.5t269 70.5
q150 0 267.5 -71.5t166.5 -196.5l-80 -34q-45 104 -138.5 161t-215.5 57q-136 0 -225 -61.5t-133 -171t-46 -253.5q3 -220 104 -353t300 -133q119 0 211 55t141 161l82 -36q-67 -130 -177 -197t-257 -67z" />
    <glyph glyph-name="egrave" unicode="&#xe8;" 
d="M552 1260l-96 270h88l96 -270h-88zM574 -30q-153 0 -263.5 69t-170.5 197t-60 304q0 177 59.5 305t170 196.5t264.5 68.5q155 0 265 -70t168.5 -203t58.5 -321h-90v28q-6 233 -109.5 357.5t-292.5 124.5q-192 0 -298 -127.5t-106 -358.5t106 -358.5t298 -127.5
q134 0 235 63t161 181l70 -40q-66 -138 -187 -213t-279 -75zM134 516v84h880v-84h-880z" />
    <glyph glyph-name="eacute" unicode="&#xe9;" 
d="M639 1260h-88l96 270h88zM574 -30q-153 0 -263.5 69t-170.5 197t-60 304q0 177 59.5 305t170 196.5t264.5 68.5q155 0 265 -70t168.5 -203t58.5 -321h-90v28q-6 233 -109.5 357.5t-292.5 124.5q-192 0 -298 -127.5t-106 -358.5t106 -358.5t298 -127.5q134 0 235 63
t161 181l70 -40q-66 -138 -187 -213t-279 -75zM134 516v84h880v-84h-880z" />
    <glyph glyph-name="ecircumflex" unicode="&#xea;" 
d="M328 1260l200 240h92l200 -240h-100l-146 170l-146 -170h-100zM574 -30q-153 0 -263.5 69t-170.5 197t-60 304q0 177 59.5 305t170 196.5t264.5 68.5q155 0 265 -70t168.5 -203t58.5 -321h-90v28q-6 233 -109.5 357.5t-292.5 124.5q-192 0 -298 -127.5t-106 -358.5
t106 -358.5t298 -127.5q134 0 235 63t161 181l70 -40q-66 -138 -187 -213t-279 -75zM134 516v84h880v-84h-880z" />
    <glyph glyph-name="edieresis" unicode="&#xeb;" 
d="M694 1320v120h120v-120h-120zM334 1320v120h120v-120h-120zM574 -30q-153 0 -263.5 69t-170.5 197t-60 304q0 177 59.5 305t170 196.5t264.5 68.5q155 0 265 -70t168.5 -203t58.5 -321h-90v28q-6 233 -109.5 357.5t-292.5 124.5q-192 0 -298 -127.5t-106 -358.5
t106 -358.5t298 -127.5q134 0 235 63t161 181l70 -40q-66 -138 -187 -213t-279 -75zM134 516v84h880v-84h-880z" />
    <glyph glyph-name="igrave" unicode="&#xec;" horiz-adv-x="404" 
d="M156 1260l-96 270h88l96 -270h-88zM160 0v1080h84v-1080h-84z" />
    <glyph glyph-name="iacute" unicode="&#xed;" horiz-adv-x="404" 
d="M248 1260h-88l96 270h88zM160 0v1080h84v-1080h-84z" />
    <glyph glyph-name="icircumflex" unicode="&#xee;" horiz-adv-x="404" 
d="M-44 1260l200 240h92l200 -240h-100l-146 170l-146 -170h-100zM160 0v1080h84v-1080h-84z" />
    <glyph glyph-name="idieresis" unicode="&#xef;" horiz-adv-x="404" 
d="M322 1320v120h120v-120h-120zM-38 1320v120h120v-120h-120zM160 0v1080h84v-1080h-84z" />
    <glyph glyph-name="eth" unicode="&#xf0;" 
d="M574 -30q-156 -2 -265.5 64t-168 187t-60.5 283q2 164 61 284.5t169 186t264 63.5q117 2 225 -45.5t171 -142.5q-18 160 -81 275.5t-170.5 181.5t-258.5 77l10 82q176 -10 305 -92.5t201 -229.5q39 -75 58.5 -158t25.5 -197.5t6 -282.5q0 -163 -59.5 -284.5t-170 -187.5
t-262.5 -64zM574 54q198 0 300 122.5t102 329.5q0 209 -105.5 330t-296.5 118q-196 3 -300 -120.5t-104 -329.5q0 -211 104.5 -330.5t299.5 -119.5zM606 1158l-66 52l278 354l66 -52z" />
    <glyph glyph-name="ntilde" unicode="&#xf1;" 
d="M712 1260q-39 0 -76.5 14.5t-73.5 33.5t-69 33.5t-63 14.5q-43 0 -53.5 -29.5t-0.5 -56.5h-72q-18 69 20.5 117.5t107.5 48.5q40 0 78 -14.5t74 -33.5t69 -33.5t63 -14.5q38 0 52 28t2 62h72q18 -67 -20 -118.5t-110 -51.5zM942 0v572q0 116 -23.5 200.5t-69.5 140
t-111.5 82.5t-149.5 27q-99 0 -168.5 -34.5t-112.5 -94.5t-63 -138t-20 -165l-78 -2q0 185 61 298.5t161.5 165.5t219.5 52q82 0 150.5 -23t122 -66.5t90.5 -106.5t56 -143.5t19 -176.5v-588h-84zM140 0v1080h78v-220h6v-860h-84z" />
    <glyph glyph-name="ograve" unicode="&#xf2;" horiz-adv-x="1148" 
d="M523 1260l-96 270h88l96 -270h-88zM574 -30q-160 0 -270 73t-167 202t-57 297q0 170 58 298t168.5 199t267.5 71q161 0 271 -72.5t166.5 -200.5t56.5 -295q0 -171 -57 -299.5t-167.5 -200.5t-269.5 -72zM574 54q204 0 304 135.5t100 352.5q0 221 -100.5 352.5
t-303.5 131.5q-137 0 -226.5 -62t-133.5 -171t-44 -251q0 -220 102.5 -354t301.5 -134z" />
    <glyph glyph-name="oacute" unicode="&#xf3;" horiz-adv-x="1148" 
d="M615 1260h-88l96 270h88zM574 -30q-160 0 -270 73t-167 202t-57 297q0 170 58 298t168.5 199t267.5 71q161 0 271 -72.5t166.5 -200.5t56.5 -295q0 -171 -57 -299.5t-167.5 -200.5t-269.5 -72zM574 54q204 0 304 135.5t100 352.5q0 221 -100.5 352.5t-303.5 131.5
q-137 0 -226.5 -62t-133.5 -171t-44 -251q0 -220 102.5 -354t301.5 -134z" />
    <glyph glyph-name="ocircumflex" unicode="&#xf4;" horiz-adv-x="1148" 
d="M328 1260l200 240h92l200 -240h-100l-146 170l-146 -170h-100zM574 -30q-160 0 -270 73t-167 202t-57 297q0 170 58 298t168.5 199t267.5 71q161 0 271 -72.5t166.5 -200.5t56.5 -295q0 -171 -57 -299.5t-167.5 -200.5t-269.5 -72zM574 54q204 0 304 135.5t100 352.5
q0 221 -100.5 352.5t-303.5 131.5q-137 0 -226.5 -62t-133.5 -171t-44 -251q0 -220 102.5 -354t301.5 -134z" />
    <glyph glyph-name="otilde" unicode="&#xf5;" horiz-adv-x="1148" 
d="M714 1260q-39 0 -76.5 14.5t-73.5 33.5t-69 33.5t-63 14.5q-43 0 -53.5 -29.5t-0.5 -56.5h-72q-18 69 20.5 117.5t107.5 48.5q40 0 78 -14.5t74 -33.5t69 -33.5t63 -14.5q38 0 52 28t2 62h72q18 -67 -20 -118.5t-110 -51.5zM574 -30q-160 0 -270 73t-167 202t-57 297
q0 170 58 298t168.5 199t267.5 71q161 0 271 -72.5t166.5 -200.5t56.5 -295q0 -171 -57 -299.5t-167.5 -200.5t-269.5 -72zM574 54q204 0 304 135.5t100 352.5q0 221 -100.5 352.5t-303.5 131.5q-137 0 -226.5 -62t-133.5 -171t-44 -251q0 -220 102.5 -354t301.5 -134z" />
    <glyph glyph-name="odieresis" unicode="&#xf6;" horiz-adv-x="1148" 
d="M694 1320v120h120v-120h-120zM334 1320v120h120v-120h-120zM574 -30q-160 0 -270 73t-167 202t-57 297q0 170 58 298t168.5 199t267.5 71q161 0 271 -72.5t166.5 -200.5t56.5 -295q0 -171 -57 -299.5t-167.5 -200.5t-269.5 -72zM574 54q204 0 304 135.5t100 352.5
q0 221 -100.5 352.5t-303.5 131.5q-137 0 -226.5 -62t-133.5 -171t-44 -251q0 -220 102.5 -354t301.5 -134z" />
    <glyph glyph-name="divide" unicode="&#xf7;" horiz-adv-x="1080" 
d="M120 678v84h840v-84h-840zM480 902v120h120v-120h-120zM480 418v120h120v-120h-120z" />
    <glyph glyph-name="oslash" unicode="&#xf8;" horiz-adv-x="1148" 
d="M92 0l-60 60l164 164l22 22l676 674l26 26l136 134l60 -58l-160 -158l-22 -22l-662 -662l-22 -22zM574 -30q-160 0 -270 73t-167 202t-57 297q0 170 58 298t168.5 199t267.5 71q161 0 271 -72.5t166.5 -200.5t56.5 -295q0 -171 -57 -299.5t-167.5 -200.5t-269.5 -72z
M574 54q204 0 304 135.5t100 352.5q0 221 -100.5 352.5t-303.5 131.5q-137 0 -226.5 -62t-133.5 -171t-44 -251q0 -220 102.5 -354t301.5 -134z" />
    <glyph glyph-name="ugrave" unicode="&#xf9;" 
d="M547 1260l-96 270h88l96 -270h-88zM558 -24q-82 0 -150.5 23t-122 66.5t-90.5 106.5t-56 143.5t-19 176.5v588h84v-572q0 -115 23.5 -200t69.5 -140.5t111.5 -82.5t149.5 -27q99 0 168.5 34.5t112.5 94.5t63 138t20 165l78 2q0 -185 -61 -298.5t-161.5 -165.5t-219.5 -52
zM928 0v220h-6v860h84v-1080h-78z" />
    <glyph glyph-name="uacute" unicode="&#xfa;" 
d="M604 1260h-88l96 270h88zM558 -24q-82 0 -150.5 23t-122 66.5t-90.5 106.5t-56 143.5t-19 176.5v588h84v-572q0 -115 23.5 -200t69.5 -140.5t111.5 -82.5t149.5 -27q99 0 168.5 34.5t112.5 94.5t63 138t20 165l78 2q0 -185 -61 -298.5t-161.5 -165.5t-219.5 -52zM928 0
v220h-6v860h84v-1080h-78z" />
    <glyph glyph-name="ucircumflex" unicode="&#xfb;" 
d="M316 1260l200 240h92l200 -240h-100l-146 170l-146 -170h-100zM558 -24q-82 0 -150.5 23t-122 66.5t-90.5 106.5t-56 143.5t-19 176.5v588h84v-572q0 -115 23.5 -200t69.5 -140.5t111.5 -82.5t149.5 -27q99 0 168.5 34.5t112.5 94.5t63 138t20 165l78 2
q0 -185 -61 -298.5t-161.5 -165.5t-219.5 -52zM928 0v220h-6v860h84v-1080h-78z" />
    <glyph glyph-name="udieresis" unicode="&#xfc;" 
d="M682 1320v120h120v-120h-120zM322 1320v120h120v-120h-120zM558 -24q-82 0 -150.5 23t-122 66.5t-90.5 106.5t-56 143.5t-19 176.5v588h84v-572q0 -115 23.5 -200t69.5 -140.5t111.5 -82.5t149.5 -27q99 0 168.5 34.5t112.5 94.5t63 138t20 165l78 2q0 -185 -61 -298.5
t-161.5 -165.5t-219.5 -52zM928 0v220h-6v860h84v-1080h-78z" />
    <glyph glyph-name="yacute" unicode="&#xfd;" horiz-adv-x="1012" 
d="M541 1260h-88l96 270h88zM302 -480l210 564l2 -168l-474 1164h92l424 -1048h-64l380 1048h90l-566 -1560h-94z" />
    <glyph glyph-name="thorn" unicode="&#xfe;" horiz-adv-x="1152" 
d="M140 782v658h84v-658h-84zM602 -30q-143 0 -243 76t-152.5 205.5t-52.5 290.5q0 164 53 292.5t156.5 202t254.5 73.5q145 0 246.5 -75.5t154.5 -204.5t53 -288q0 -162 -54 -291.5t-158.5 -205t-257.5 -75.5zM140 -480v1560h78v-850h6v-710h-84zM602 54q125 0 209.5 64
t127.5 174.5t43 249.5q0 138 -41.5 247.5t-125.5 173t-213 63.5q-126 0 -211.5 -62t-129 -171.5t-43.5 -250.5q0 -139 43 -249.5t128.5 -174.5t212.5 -64z" />
    <glyph glyph-name="ydieresis" unicode="&#xff;" horiz-adv-x="1012" 
d="M634 1320v120h120v-120h-120zM274 1320v120h120v-120h-120zM302 -480l210 564l2 -168l-474 1164h92l424 -1048h-64l380 1048h90l-566 -1560h-94z" />
    <glyph glyph-name="Amacron" unicode="&#x100;" horiz-adv-x="1218" 
d="M370 1680v84h480v-84h-480zM40 0l524 1440h90l524 -1440h-90l-510 1402h60l-508 -1402h-90zM240 374v80h736v-80h-736z" />
    <glyph glyph-name="amacron" unicode="&#x101;" horiz-adv-x="1084" 
d="M348 1320v84h480v-84h-480zM454 -30q-126 0 -209 44t-124 116t-41 156q0 95 41.5 157.5t108.5 98.5t144 52q94 19 201.5 33.5t198.5 24.5t136 16l-30 -20q5 191 -69.5 284.5t-262.5 93.5q-136 0 -218.5 -60.5t-115.5 -185.5l-92 24q36 150 147.5 228t282.5 78
q150 0 250 -61t136 -165q14 -40 20 -97t6 -111v-676h-78v296l40 -2q-43 -154 -171 -239t-301 -85zM450 54q117 0 206.5 42t145 121.5t70.5 190.5q8 56 8 120v92l44 -34q-53 -5 -146.5 -13.5t-197.5 -22t-188 -34.5q-49 -12 -101 -38t-87.5 -73t-35.5 -121q0 -52 26 -105
t87.5 -89t168.5 -36z" />
    <glyph glyph-name="Abreve" unicode="&#x102;" horiz-adv-x="1218" 
d="M610 1572q-63 0 -115 31t-82.5 82.5t-30.5 114.5h78q0 -61 44.5 -105.5t105.5 -44.5q63 0 106.5 44.5t43.5 105.5h78q0 -63 -30.5 -114.5t-82.5 -82.5t-115 -31zM40 0l524 1440h90l524 -1440h-90l-510 1402h60l-508 -1402h-90zM240 374v80h736v-80h-736z" />
    <glyph glyph-name="abreve" unicode="&#x103;" horiz-adv-x="1084" 
d="M560 1212q-63 0 -115 31t-82.5 82.5t-30.5 114.5h78q0 -61 44.5 -105.5t105.5 -44.5q63 0 106.5 44.5t43.5 105.5h78q0 -63 -30.5 -114.5t-82.5 -82.5t-115 -31zM454 -30q-126 0 -209 44t-124 116t-41 156q0 95 41.5 157.5t108.5 98.5t144 52q94 19 201.5 33.5
t198.5 24.5t136 16l-30 -20q5 191 -69.5 284.5t-262.5 93.5q-136 0 -218.5 -60.5t-115.5 -185.5l-92 24q36 150 147.5 228t282.5 78q150 0 250 -61t136 -165q14 -40 20 -97t6 -111v-676h-78v296l40 -2q-43 -154 -171 -239t-301 -85zM450 54q117 0 206.5 42t145 121.5
t70.5 190.5q8 56 8 120v92l44 -34q-53 -5 -146.5 -13.5t-197.5 -22t-188 -34.5q-49 -12 -101 -38t-87.5 -73t-35.5 -121q0 -52 26 -105t87.5 -89t168.5 -36z" />
    <glyph glyph-name="Aogonek" unicode="&#x104;" horiz-adv-x="1218" 
d="M1036 -484q-47 0 -87 25t-64.5 66t-24.5 89q0 60 35 124.5t93 127.5t128 118l62 -66q-61 -40 -113.5 -92t-84.5 -107.5t-32 -104.5q0 -45 27 -72.5t61 -27.5q27 0 54.5 16.5t49.5 41.5l50 -56q-33 -42 -73 -62t-81 -20zM40 0l524 1440h90l524 -1440h-90l-510 1402h60
l-508 -1402h-90zM240 374v80h736v-80h-736z" />
    <glyph glyph-name="aogonek" unicode="&#x105;" horiz-adv-x="1084" 
d="M822 -484q-47 0 -87 25t-64.5 66t-24.5 89q0 60 35 124.5t93 127.5t128 118l62 -66q-61 -40 -113.5 -92t-84.5 -107.5t-32 -104.5q0 -45 27 -72.5t61 -27.5q27 0 54.5 16.5t49.5 41.5l50 -56q-33 -42 -73 -62t-81 -20zM454 -30q-126 0 -209 44t-124 116t-41 156
q0 95 41.5 157.5t108.5 98.5t144 52q94 19 201.5 33.5t198.5 24.5t136 16l-30 -20q5 191 -69.5 284.5t-262.5 93.5q-136 0 -218.5 -60.5t-115.5 -185.5l-92 24q36 150 147.5 228t282.5 78q150 0 250 -61t136 -165q14 -40 20 -97t6 -111v-676h-78v296l40 -2
q-43 -154 -171 -239t-301 -85zM450 54q117 0 206.5 42t145 121.5t70.5 190.5q8 56 8 120v92l44 -34q-53 -5 -146.5 -13.5t-197.5 -22t-188 -34.5q-49 -12 -101 -38t-87.5 -73t-35.5 -121q0 -52 26 -105t87.5 -89t168.5 -36z" />
    <glyph glyph-name="Cacute" unicode="&#x106;" horiz-adv-x="1400" 
d="M757 1620h-88l96 270h88zM706 -30q-215 0 -358.5 96t-215.5 265t-72 389t72 389t215.5 265t358.5 96q252 0 406 -131.5t208 -350.5l-88 -20q-48 191 -179.5 304.5t-346.5 113.5q-185 0 -307.5 -85t-184.5 -235.5t-64 -345.5t60 -345t186.5 -235.5t309.5 -85.5
q215 0 346.5 114t179.5 304l88 -20q-54 -219 -208 -350.5t-406 -131.5z" />
    <glyph glyph-name="cacute" unicode="&#x107;" horiz-adv-x="1078" 
d="M640 1260h-88l96 270h88zM574 -30q-161 0 -270 72t-165 200.5t-59 297.5q3 173 59.5 301t165.5 198.5t269 70.5q150 0 267.5 -71.5t166.5 -196.5l-80 -34q-45 104 -138.5 161t-215.5 57q-136 0 -225 -61.5t-133 -171t-46 -253.5q3 -220 104 -353t300 -133q119 0 211 55
t141 161l82 -36q-67 -130 -177 -197t-257 -67z" />
    <glyph glyph-name="Ccircumflex" unicode="&#x108;" horiz-adv-x="1400" 
d="M461 1620l200 240h92l200 -240h-100l-146 170l-146 -170h-100zM706 -30q-215 0 -358.5 96t-215.5 265t-72 389t72 389t215.5 265t358.5 96q252 0 406 -131.5t208 -350.5l-88 -20q-48 191 -179.5 304.5t-346.5 113.5q-185 0 -307.5 -85t-184.5 -235.5t-64 -345.5t60 -345
t186.5 -235.5t309.5 -85.5q215 0 346.5 114t179.5 304l88 -20q-54 -219 -208 -350.5t-406 -131.5z" />
    <glyph glyph-name="ccircumflex" unicode="&#x109;" horiz-adv-x="1078" 
d="M328 1260l200 240h92l200 -240h-100l-146 170l-146 -170h-100zM574 -30q-161 0 -270 72t-165 200.5t-59 297.5q3 173 59.5 301t165.5 198.5t269 70.5q150 0 267.5 -71.5t166.5 -196.5l-80 -34q-45 104 -138.5 161t-215.5 57q-136 0 -225 -61.5t-133 -171t-46 -253.5
q3 -220 104 -353t300 -133q119 0 211 55t141 161l82 -36q-67 -130 -177 -197t-257 -67z" />
    <glyph glyph-name="Cdotaccent" unicode="&#x10a;" horiz-adv-x="1400" 
d="M666 1680v120h120v-120h-120zM706 -30q-215 0 -358.5 96t-215.5 265t-72 389t72 389t215.5 265t358.5 96q252 0 406 -131.5t208 -350.5l-88 -20q-48 191 -179.5 304.5t-346.5 113.5q-185 0 -307.5 -85t-184.5 -235.5t-64 -345.5t60 -345t186.5 -235.5t309.5 -85.5
q215 0 346.5 114t179.5 304l88 -20q-54 -219 -208 -350.5t-406 -131.5z" />
    <glyph glyph-name="cdotaccent" unicode="&#x10b;" horiz-adv-x="1078" 
d="M524 1320v120h120v-120h-120zM574 -30q-161 0 -270 72t-165 200.5t-59 297.5q3 173 59.5 301t165.5 198.5t269 70.5q150 0 267.5 -71.5t166.5 -196.5l-80 -34q-45 104 -138.5 161t-215.5 57q-136 0 -225 -61.5t-133 -171t-46 -253.5q3 -220 104 -353t300 -133
q119 0 211 55t141 161l82 -36q-67 -130 -177 -197t-257 -67z" />
    <glyph glyph-name="Ccaron" unicode="&#x10c;" horiz-adv-x="1400" 
d="M522 1860h100l146 -170l146 170h100l-200 -240h-92zM706 -30q-215 0 -358.5 96t-215.5 265t-72 389t72 389t215.5 265t358.5 96q252 0 406 -131.5t208 -350.5l-88 -20q-48 191 -179.5 304.5t-346.5 113.5q-185 0 -307.5 -85t-184.5 -235.5t-64 -345.5t60 -345
t186.5 -235.5t309.5 -85.5q215 0 346.5 114t179.5 304l88 -20q-54 -219 -208 -350.5t-406 -131.5z" />
    <glyph glyph-name="ccaron" unicode="&#x10d;" horiz-adv-x="1078" 
d="M328 1500h100l146 -170l146 170h100l-200 -240h-92zM574 -30q-161 0 -270 72t-165 200.5t-59 297.5q3 173 59.5 301t165.5 198.5t269 70.5q150 0 267.5 -71.5t166.5 -196.5l-80 -34q-45 104 -138.5 161t-215.5 57q-136 0 -225 -61.5t-133 -171t-46 -253.5
q3 -220 104 -353t300 -133q119 0 211 55t141 161l82 -36q-67 -130 -177 -197t-257 -67z" />
    <glyph glyph-name="Dcaron" unicode="&#x10e;" horiz-adv-x="1304" 
d="M322 1860h100l146 -170l146 170h100l-200 -240h-92zM140 0v1440h422q26 0 83 -1t109 -9q159 -23 263.5 -122t155.5 -251.5t51 -336.5q0 -185 -51 -337.5t-155.5 -251t-263.5 -121.5q-51 -7 -109.5 -8.5t-82.5 -1.5h-422zM230 84h332q48 0 96.5 3t81.5 9
q142 24 228.5 109.5t126 218t39.5 296.5t-39.5 296.5t-126 218t-228.5 109.5q-33 6 -83 9t-95 3h-332v-1272z" />
    <glyph glyph-name="dcaron" unicode="&#x10f;" horiz-adv-x="1346" 
d="M550 -30q-153 0 -257.5 75.5t-158.5 205t-54 291.5q0 159 53 288t154.5 204.5t246.5 75.5q151 0 254.5 -73.5t156.5 -202t53 -292.5q0 -161 -52.5 -290.5t-152.5 -205.5t-243 -76zM550 54q127 0 212.5 64t128.5 174.5t43 249.5q0 141 -43.5 250.5t-129 171.5t-211.5 62
q-129 0 -213.5 -63.5t-125.5 -173t-41 -247.5q0 -139 43 -249.5t127.5 -174.5t209.5 -64zM934 0v850h-6v590h84v-1440h-78zM1240 1102l6 52q35 -2 47 16.5t12.5 48t0.5 61.5h-66v180h120v-240q0 -66 -36 -98t-84 -20z" />
    <glyph glyph-name="Dcroat" unicode="&#x110;" horiz-adv-x="1282" 
d="M20 678v84h600v-84h-600zM118 0v1440h422q26 0 83 -1t109 -9q159 -23 263.5 -122t155.5 -251.5t51 -336.5q0 -185 -51 -337.5t-155.5 -251t-263.5 -121.5q-51 -7 -109.5 -8.5t-82.5 -1.5h-422zM208 84h332q48 0 96.5 3t81.5 9q142 24 228.5 109.5t126 218t39.5 296.5
t-39.5 296.5t-126 218t-228.5 109.5q-33 6 -83 9t-95 3h-332v-1272z" />
    <glyph glyph-name="dcroat" unicode="&#x111;" horiz-adv-x="1152" 
d="M680 1200v84h480v-84h-480zM550 -30q-153 0 -257.5 75.5t-158.5 205t-54 291.5q0 159 53 288t154.5 204.5t246.5 75.5q151 0 254.5 -73.5t156.5 -202t53 -292.5q0 -161 -52.5 -290.5t-152.5 -205.5t-243 -76zM550 54q127 0 212.5 64t128.5 174.5t43 249.5
q0 141 -43.5 250.5t-129 171.5t-211.5 62q-129 0 -213.5 -63.5t-125.5 -173t-41 -247.5q0 -139 43 -249.5t127.5 -174.5t209.5 -64zM934 0v850h-6v590h84v-1440h-78z" />
    <glyph glyph-name="Emacron" unicode="&#x112;" horiz-adv-x="1120" 
d="M340 1680v84h480v-84h-480zM140 0v1440h880v-84h-796v-594h676v-84h-676v-594h796v-84h-880z" />
    <glyph glyph-name="emacron" unicode="&#x113;" 
d="M354 1320v84h480v-84h-480zM574 -30q-153 0 -263.5 69t-170.5 197t-60 304q0 177 59.5 305t170 196.5t264.5 68.5q155 0 265 -70t168.5 -203t58.5 -321h-90v28q-6 233 -109.5 357.5t-292.5 124.5q-192 0 -298 -127.5t-106 -358.5t106 -358.5t298 -127.5q134 0 235 63
t161 181l70 -40q-66 -138 -187 -213t-279 -75zM134 516v84h880v-84h-880z" />
    <glyph glyph-name="Edotaccent" unicode="&#x116;" horiz-adv-x="1120" 
d="M530 1680v120h120v-120h-120zM140 0v1440h880v-84h-796v-594h676v-84h-676v-594h796v-84h-880z" />
    <glyph glyph-name="edotaccent" unicode="&#x117;" 
d="M514 1320v120h120v-120h-120zM574 -30q-153 0 -263.5 69t-170.5 197t-60 304q0 177 59.5 305t170 196.5t264.5 68.5q155 0 265 -70t168.5 -203t58.5 -321h-90v28q-6 233 -109.5 357.5t-292.5 124.5q-192 0 -298 -127.5t-106 -358.5t106 -358.5t298 -127.5q134 0 235 63
t161 181l70 -40q-66 -138 -187 -213t-279 -75zM134 516v84h880v-84h-880z" />
    <glyph glyph-name="Eogonek" unicode="&#x118;" horiz-adv-x="1120" 
d="M878 -484q-47 0 -87 25t-64.5 66t-24.5 89q0 60 35 124.5t93 127.5t128 118l62 -66q-61 -40 -113.5 -92t-84.5 -107.5t-32 -104.5q0 -45 27 -72.5t61 -27.5q27 0 54.5 16.5t49.5 41.5l50 -56q-33 -42 -73 -62t-81 -20zM140 0v1440h880v-84h-796v-594h676v-84h-676v-594
h796v-84h-880z" />
    <glyph glyph-name="eogonek" unicode="&#x119;" 
d="M852 -464q-54 -22 -105.5 -11t-86.5 45q-36 36 -44.5 83t6.5 101q12 44 35 85.5t53 80.5q20 27 66 76.5t94.5 111.5t77.5 128l84 6q-21 -46 -57.5 -100.5t-75.5 -106t-71 -91t-44 -56.5q-25 -37 -48 -77t-34 -79q-7 -28 -6 -54.5t22 -47.5q41 -40 88.5 -23.5t83.5 49.5
l52 -58q-18 -18 -40.5 -34t-49.5 -28zM574 -30q-153 0 -263.5 69t-170.5 197t-60 304q0 177 59.5 305t170 196.5t264.5 68.5q155 0 265 -70t168.5 -203t58.5 -321h-90v28q-6 233 -109.5 357.5t-292.5 124.5q-192 0 -298 -127.5t-106 -358.5t106 -358.5t298 -127.5
q134 0 235 63t161 181l70 -40q-66 -138 -187 -213t-279 -75zM134 516v84h880v-84h-880z" />
    <glyph glyph-name="Ecaron" unicode="&#x11a;" horiz-adv-x="1120" 
d="M340 1860h100l146 -170l146 170h100l-200 -240h-92zM140 0v1440h880v-84h-796v-594h676v-84h-676v-594h796v-84h-880z" />
    <glyph glyph-name="ecaron" unicode="&#x11b;" 
d="M328 1500h100l146 -170l146 170h100l-200 -240h-92zM574 -30q-153 0 -263.5 69t-170.5 197t-60 304q0 177 59.5 305t170 196.5t264.5 68.5q155 0 265 -70t168.5 -203t58.5 -321h-90v28q-6 233 -109.5 357.5t-292.5 124.5q-192 0 -298 -127.5t-106 -358.5t106 -358.5
t298 -127.5q134 0 235 63t161 181l70 -40q-66 -138 -187 -213t-279 -75zM134 516v84h880v-84h-880z" />
    <glyph glyph-name="Gcircumflex" unicode="&#x11c;" horiz-adv-x="1374" 
d="M441 1620l200 240h92l200 -240h-100l-146 170l-146 -170h-100zM706 -30q-161 0 -282 55t-202 155t-121.5 237.5t-40.5 302.5q0 220 72 388.5t215.5 264t358.5 95.5q206 0 343 -96.5t195 -249.5l-82 -34q-52 135 -169 215.5t-287 80.5q-185 0 -307.5 -84.5t-184.5 -234.5
t-64 -345t60 -345t186.5 -235.5t309.5 -85.5t299 73.5t166.5 204.5t52.5 304h-384v84h470q3 -28 3.5 -50t0.5 -36q0 -188 -63 -338.5t-197.5 -238t-347.5 -87.5z" />
    <glyph glyph-name="gcircumflex" unicode="&#x11d;" horiz-adv-x="1152" 
d="M300 1260l200 240h92l200 -240h-100l-146 170l-146 -170h-100zM552 -510q-78 0 -157 22t-148.5 74.5t-118.5 143.5l74 50q54 -111 152 -157.5t198 -46.5q145 0 226.5 54.5t114.5 162t33 267.5v276h8v744h78v-1020q0 -49 -2 -95t-8 -91q-16 -131 -69.5 -216t-147.5 -126.5
t-233 -41.5zM550 -30q-153 0 -257.5 75.5t-158.5 205t-54 291.5q0 159 53 288t154.5 204.5t246.5 75.5q151 0 254.5 -73.5t156.5 -202t53 -292.5q0 -161 -52.5 -290.5t-152.5 -205.5t-243 -76zM550 54q127 0 212.5 64t128.5 174.5t43 249.5q0 141 -43.5 250.5t-129 171.5
t-211.5 62q-129 0 -213.5 -63.5t-125.5 -173t-41 -247.5q0 -139 43 -249.5t127.5 -174.5t209.5 -64z" />
    <glyph glyph-name="Gbreve" unicode="&#x11e;" horiz-adv-x="1374" 
d="M711 1572q-63 0 -114.5 31t-82.5 82.5t-31 114.5h78q0 -61 44.5 -105.5t105.5 -44.5q63 0 106.5 44.5t43.5 105.5h78q0 -63 -30.5 -114.5t-82.5 -82.5t-115 -31zM706 -30q-161 0 -282 55t-202 155t-121.5 237.5t-40.5 302.5q0 220 72 388.5t215.5 264t358.5 95.5
q206 0 343 -96.5t195 -249.5l-82 -34q-52 135 -169 215.5t-287 80.5q-185 0 -307.5 -84.5t-184.5 -234.5t-64 -345t60 -345t186.5 -235.5t309.5 -85.5t299 73.5t166.5 204.5t52.5 304h-384v84h470q3 -28 3.5 -50t0.5 -36q0 -188 -63 -338.5t-197.5 -238t-347.5 -87.5z" />
    <glyph glyph-name="gbreve" unicode="&#x11f;" horiz-adv-x="1152" 
d="M604 1212q-63 0 -115 31t-82.5 82.5t-30.5 114.5h78q0 -61 44.5 -105.5t105.5 -44.5q63 0 106.5 44.5t43.5 105.5h78q0 -63 -30.5 -114.5t-82.5 -82.5t-115 -31zM552 -510q-78 0 -157 22t-148.5 74.5t-118.5 143.5l74 50q54 -111 152 -157.5t198 -46.5q145 0 226.5 54.5
t114.5 162t33 267.5v276h8v744h78v-1020q0 -49 -2 -95t-8 -91q-16 -131 -69.5 -216t-147.5 -126.5t-233 -41.5zM550 -30q-153 0 -257.5 75.5t-158.5 205t-54 291.5q0 159 53 288t154.5 204.5t246.5 75.5q151 0 254.5 -73.5t156.5 -202t53 -292.5q0 -161 -52.5 -290.5
t-152.5 -205.5t-243 -76zM550 54q127 0 212.5 64t128.5 174.5t43 249.5q0 141 -43.5 250.5t-129 171.5t-211.5 62q-129 0 -213.5 -63.5t-125.5 -173t-41 -247.5q0 -139 43 -249.5t127.5 -174.5t209.5 -64z" />
    <glyph glyph-name="Gdotaccent" unicode="&#x120;" horiz-adv-x="1374" 
d="M666 1680v120h120v-120h-120zM706 -30q-161 0 -282 55t-202 155t-121.5 237.5t-40.5 302.5q0 220 72 388.5t215.5 264t358.5 95.5q206 0 343 -96.5t195 -249.5l-82 -34q-52 135 -169 215.5t-287 80.5q-185 0 -307.5 -84.5t-184.5 -234.5t-64 -345t60 -345t186.5 -235.5
t309.5 -85.5t299 73.5t166.5 204.5t52.5 304h-384v84h470q3 -28 3.5 -50t0.5 -36q0 -188 -63 -338.5t-197.5 -238t-347.5 -87.5z" />
    <glyph glyph-name="gdotaccent" unicode="&#x121;" horiz-adv-x="1152" 
d="M546 1320v120h120v-120h-120zM552 -510q-78 0 -157 22t-148.5 74.5t-118.5 143.5l74 50q54 -111 152 -157.5t198 -46.5q145 0 226.5 54.5t114.5 162t33 267.5v276h8v744h78v-1020q0 -49 -2 -95t-8 -91q-16 -131 -69.5 -216t-147.5 -126.5t-233 -41.5zM550 -30
q-153 0 -257.5 75.5t-158.5 205t-54 291.5q0 159 53 288t154.5 204.5t246.5 75.5q151 0 254.5 -73.5t156.5 -202t53 -292.5q0 -161 -52.5 -290.5t-152.5 -205.5t-243 -76zM550 54q127 0 212.5 64t128.5 174.5t43 249.5q0 141 -43.5 250.5t-129 171.5t-211.5 62
q-129 0 -213.5 -63.5t-125.5 -173t-41 -247.5q0 -139 43 -249.5t127.5 -174.5t209.5 -64z" />
    <glyph glyph-name="uni0122" unicode="&#x122;" horiz-adv-x="1374" 
d="M648 -510v60q10 0 26 7.5t27.5 24.5t8.5 46h-62v120h120v-120q0 -76 -42 -107t-78 -31zM706 -30q-161 0 -282 55t-202 155t-121.5 237.5t-40.5 302.5q0 220 72 388.5t215.5 264t358.5 95.5q206 0 343 -96.5t195 -249.5l-82 -34q-52 135 -169 215.5t-287 80.5
q-185 0 -307.5 -84.5t-184.5 -234.5t-64 -345t60 -345t186.5 -235.5t309.5 -85.5t299 73.5t166.5 204.5t52.5 304h-384v84h470q3 -28 3.5 -50t0.5 -36q0 -188 -63 -338.5t-197.5 -238t-347.5 -87.5z" />
    <glyph glyph-name="uni0123" unicode="&#x123;" horiz-adv-x="1152" 
d="M646 1578v-60q-10 0 -26 -7.5t-27.5 -24.5t-8.5 -46h62v-120h-120v120q0 77 42 107.5t78 30.5zM552 -510q-78 0 -157 22t-148.5 74.5t-118.5 143.5l74 50q54 -111 152 -157.5t198 -46.5q145 0 226.5 54.5t114.5 162t33 267.5v276h8v744h78v-1020q0 -49 -2 -95t-8 -91
q-16 -131 -69.5 -216t-147.5 -126.5t-233 -41.5zM550 -30q-153 0 -257.5 75.5t-158.5 205t-54 291.5q0 159 53 288t154.5 204.5t246.5 75.5q151 0 254.5 -73.5t156.5 -202t53 -292.5q0 -161 -52.5 -290.5t-152.5 -205.5t-243 -76zM550 54q127 0 212.5 64t128.5 174.5
t43 249.5q0 141 -43.5 250.5t-129 171.5t-211.5 62q-129 0 -213.5 -63.5t-125.5 -173t-41 -247.5q0 -139 43 -249.5t127.5 -174.5t209.5 -64z" />
    <glyph glyph-name="Hcircumflex" unicode="&#x124;" horiz-adv-x="1320" 
d="M414 1620l200 240h92l200 -240h-100l-146 170l-146 -170h-100zM140 0v1440h84v-678h872v678h84v-1440h-84v678h-872v-678h-84z" />
    <glyph glyph-name="hcircumflex" unicode="&#x125;" 
d="M-67 1620l200 240h92l200 -240h-100l-146 170l-146 -170h-100zM942 0v572q0 116 -23.5 200.5t-69.5 140t-111.5 82.5t-149.5 27q-99 0 -168.5 -34.5t-112.5 -94.5t-63 -138t-20 -165l-78 -2q0 185 61 298.5t161.5 165.5t219.5 52q82 0 150.5 -23t122 -66.5t90.5 -106.5
t56 -143.5t19 -176.5v-588h-84zM140 0v1440h78v-850h6v-590h-84z" />
    <glyph glyph-name="Hbar" unicode="&#x126;" horiz-adv-x="1360" 
d="M160 0v1440h84v-678h872v678h84v-1440h-84v678h-872v-678h-84zM20 996v84h1320v-84h-1320z" />
    <glyph glyph-name="hbar" unicode="&#x127;" 
d="M0 1200v84h480v-84h-480zM942 0v572q0 116 -23.5 200.5t-69.5 140t-111.5 82.5t-149.5 27q-99 0 -168.5 -34.5t-112.5 -94.5t-63 -138t-20 -165l-78 -2q0 185 61 298.5t161.5 165.5t219.5 52q82 0 150.5 -23t122 -66.5t90.5 -106.5t56 -143.5t19 -176.5v-588h-84zM140 0
v1440h78v-850h6v-590h-84z" />
    <glyph glyph-name="Itilde" unicode="&#x128;" horiz-adv-x="404" 
d="M341 1620q-39 0 -76.5 14.5t-73.5 33.5t-69 33.5t-63 14.5q-43 0 -53.5 -29.5t-0.5 -56.5h-72q-18 69 20.5 117.5t107.5 48.5q40 0 78 -14.5t74 -33.5t69 -33.5t63 -14.5q38 0 52 28t2 62h72q18 -67 -20 -118.5t-110 -51.5zM160 0v1440h84v-1440h-84z" />
    <glyph glyph-name="itilde" unicode="&#x129;" horiz-adv-x="404" 
d="M341 1260q-39 0 -76.5 14.5t-73.5 33.5t-69 33.5t-63 14.5q-43 0 -53.5 -29.5t-0.5 -56.5h-72q-18 69 20.5 117.5t107.5 48.5q40 0 78 -14.5t74 -33.5t69 -33.5t63 -14.5q38 0 52 28t2 62h72q18 -67 -20 -118.5t-110 -51.5zM160 0v1080h84v-1080h-84z" />
    <glyph glyph-name="Imacron" unicode="&#x12a;" horiz-adv-x="404" 
d="M-38 1680v84h480v-84h-480zM160 0v1440h84v-1440h-84z" />
    <glyph glyph-name="imacron" unicode="&#x12b;" horiz-adv-x="404" 
d="M-38 1320v84h480v-84h-480zM160 0v1080h84v-1080h-84z" />
    <glyph glyph-name="Iogonek" unicode="&#x12e;" horiz-adv-x="404" 
d="M102 -484q-47 0 -87 25t-64.5 66t-24.5 89q0 60 35 124.5t93 127.5t128 118l62 -66q-61 -40 -113.5 -92t-84.5 -107.5t-32 -104.5q0 -45 27 -72.5t61 -27.5q27 0 54.5 16.5t49.5 41.5l50 -56q-33 -42 -73 -62t-81 -20zM160 0v1440h84v-1440h-84z" />
    <glyph glyph-name="iogonek" unicode="&#x12f;" horiz-adv-x="404" 
d="M102 -484q-47 0 -87 25t-64.5 66t-24.5 89q0 60 35 124.5t93 127.5t128 118l62 -66q-61 -40 -113.5 -92t-84.5 -107.5t-32 -104.5q0 -45 27 -72.5t61 -27.5q27 0 54.5 16.5t49.5 41.5l50 -56q-33 -42 -73 -62t-81 -20zM160 1312v128h84v-128h-84zM160 0v1080h84v-1080
h-84z" />
    <glyph glyph-name="Idotaccent" unicode="&#x130;" horiz-adv-x="404" 
d="M142 1680v120h120v-120h-120zM160 0v1440h84v-1440h-84z" />
    <glyph glyph-name="dotlessi" unicode="&#x131;" horiz-adv-x="404" 
d="M160 0v1080h84v-1080h-84z" />
    <glyph glyph-name="Jcircumflex" unicode="&#x134;" horiz-adv-x="878" 
d="M428 1620l200 240h92l200 -240h-100l-146 170l-146 -170h-100zM358 -28q-130 0 -229 76t-129 202l86 20q23 -91 97 -152.5t179 -61.5q65 0 130 30t104 100q27 50 31.5 105t4.5 133v1016h84v-1016q0 -55 -1 -102.5t-10.5 -91.5t-34.5 -88q-48 -84 -130.5 -127t-181.5 -43z
" />
    <glyph glyph-name="jcircumflex" unicode="&#x135;" horiz-adv-x="450" 
d="M-20 -480v86h68q63 0 110.5 35.5t47.5 128.5v1310h84v-1300q0 -138 -56.5 -199t-187.5 -61h-66zM2 1260l200 240h92l200 -240h-100l-146 170l-146 -170h-100z" />
    <glyph glyph-name="uni0136" unicode="&#x136;" horiz-adv-x="1116" 
d="M524 -510v60q10 0 26 7.5t27.5 24.5t8.5 46h-62v120h120v-120q0 -76 -42 -107t-78 -31zM140 0v1440h84v-688l712 688h116l-706 -688l770 -752h-116l-776 752v-752h-84z" />
    <glyph glyph-name="uni0137" unicode="&#x137;" horiz-adv-x="936" 
d="M448 -510v60q10 0 26 7.5t27.5 24.5t8.5 46h-62v120h120v-120q0 -76 -42 -107t-78 -31zM140 0v1440h84v-880l540 520h126l-564 -540l650 -540h-144l-608 520v-520h-84z" />
    <glyph glyph-name="Lacute" unicode="&#x139;" horiz-adv-x="990" 
d="M248 1620h-88l96 270h88zM160 0v1440h84v-1356h716v-84h-800z" />
    <glyph glyph-name="lacute" unicode="&#x13a;" horiz-adv-x="404" 
d="M248 1620h-88l96 270h88zM160 0v1470h84v-1470h-84z" />
    <glyph glyph-name="uni013B" unicode="&#x13b;" horiz-adv-x="990" 
d="M500 -510v60q10 0 26 7.5t27.5 24.5t8.5 46h-62v120h120v-120q0 -76 -42 -107t-78 -31zM160 0v1440h84v-1356h716v-84h-800z" />
    <glyph glyph-name="uni013C" unicode="&#x13c;" horiz-adv-x="404" 
d="M142 -510v60q10 0 26 7.5t27.5 24.5t8.5 46h-62v120h120v-120q0 -76 -42 -107t-78 -31zM160 0v1470h84v-1470h-84z" />
    <glyph glyph-name="Lcaron" unicode="&#x13d;" horiz-adv-x="990" 
d="M160 0v1440h84v-1356h716v-84h-800zM634 1102l6 52q35 -2 47 16.5t12.5 48t0.5 61.5h-66v180h120v-240q0 -66 -36 -98t-84 -20z" />
    <glyph glyph-name="lcaron" unicode="&#x13e;" horiz-adv-x="520" 
d="M160 0v1470h84v-1470h-84zM414 1102l6 52q35 -2 47 16.5t12.5 48t0.5 61.5h-66v180h120v-240q0 -66 -36 -98t-84 -20z" />
    <glyph glyph-name="Lslash" unicode="&#x141;" horiz-adv-x="990" 
d="M98 450v100l526 302v-98zM160 0v1440h84v-1356h716v-84h-800z" />
    <glyph glyph-name="lslash" unicode="&#x142;" horiz-adv-x="722" 
d="M98 534v100l526 302v-98zM320 0v1470h84v-1470h-84z" />
    <glyph glyph-name="Nacute" unicode="&#x143;" horiz-adv-x="1324" 
d="M728 1620h-88l96 270h88zM140 0v1440h84l876 -1290v1290h84v-1440h-84l-876 1292v-1292h-84z" />
    <glyph glyph-name="nacute" unicode="&#x144;" 
d="M649 1260h-88l96 270h88zM942 0v572q0 116 -23.5 200.5t-69.5 140t-111.5 82.5t-149.5 27q-99 0 -168.5 -34.5t-112.5 -94.5t-63 -138t-20 -165l-78 -2q0 185 61 298.5t161.5 165.5t219.5 52q82 0 150.5 -23t122 -66.5t90.5 -106.5t56 -143.5t19 -176.5v-588h-84zM140 0
v1080h78v-220h6v-860h-84z" />
    <glyph glyph-name="uni0145" unicode="&#x145;" horiz-adv-x="1324" 
d="M622 -510v60q10 0 26 7.5t27.5 24.5t8.5 46h-62v120h120v-120q0 -76 -42 -107t-78 -31zM140 0v1440h84l876 -1290v1290h84v-1440h-84l-876 1292v-1292h-84z" />
    <glyph glyph-name="uni0146" unicode="&#x146;" 
d="M524 -510v60q10 0 26 7.5t27.5 24.5t8.5 46h-62v120h120v-120q0 -76 -42 -107t-78 -31zM942 0v572q0 116 -23.5 200.5t-69.5 140t-111.5 82.5t-149.5 27q-99 0 -168.5 -34.5t-112.5 -94.5t-63 -138t-20 -165l-78 -2q0 185 61 298.5t161.5 165.5t219.5 52q82 0 150.5 -23
t122 -66.5t90.5 -106.5t56 -143.5t19 -176.5v-588h-84zM140 0v1080h78v-220h6v-860h-84z" />
    <glyph glyph-name="Ncaron" unicode="&#x147;" horiz-adv-x="1324" 
d="M444 1860h100l146 -170l146 170h100l-200 -240h-92zM140 0v1440h84l876 -1290v1290h84v-1440h-84l-876 1292v-1292h-84z" />
    <glyph glyph-name="ncaron" unicode="&#x148;" 
d="M334 1500h100l146 -170l146 170h100l-200 -240h-92zM942 0v572q0 116 -23.5 200.5t-69.5 140t-111.5 82.5t-149.5 27q-99 0 -168.5 -34.5t-112.5 -94.5t-63 -138t-20 -165l-78 -2q0 185 61 298.5t161.5 165.5t219.5 52q82 0 150.5 -23t122 -66.5t90.5 -106.5t56 -143.5
t19 -176.5v-588h-84zM140 0v1080h78v-220h6v-860h-84z" />
    <glyph glyph-name="Eng" unicode="&#x14a;" horiz-adv-x="1324" 
d="M1100 1440h84v-1630q0 -87 -36 -127.5t-116 -40.5q-19 0 -37.5 2t-44.5 8v82q17 -3 31.5 -4.5t26.5 -1.5q54 0 73 33t19 129q0 54 -10.5 97.5t-31.5 74.5l-834 1230v-1292h-84v1440h84l876 -1290v1290z" />
    <glyph glyph-name="eng" unicode="&#x14b;" 
d="M922 -356q-42 -4 -71 -1.5t-59 9.5v82q49 -7 78.5 -3.5t45 21t21 51.5t5.5 87v112h84v-192q0 -85 -29.5 -121t-74.5 -45zM942 0v572q0 116 -23.5 200.5t-69.5 140t-111.5 82.5t-149.5 27q-99 0 -168.5 -34.5t-112.5 -94.5t-63 -138t-20 -165l-78 -2q0 185 61 298.5
t161.5 165.5t219.5 52q82 0 150.5 -23t122 -66.5t90.5 -106.5t56 -143.5t19 -176.5v-588h-84zM140 0v1080h78v-220h6v-860h-84z" />
    <glyph glyph-name="Omacron" unicode="&#x14c;" horiz-adv-x="1412" 
d="M466 1680v84h480v-84h-480zM706 -30q-215 0 -358.5 96t-215.5 265t-72 389t72 389t215.5 265t358.5 96t358.5 -96t215.5 -265t72 -389t-72 -389t-215.5 -265t-358.5 -96zM706 54q185 0 308.5 85.5t185.5 235.5t62 345t-62 345.5t-185.5 235.5t-308.5 85t-307.5 -85
t-184.5 -235.5t-64 -345.5t60 -345t186.5 -235.5t309.5 -85.5z" />
    <glyph glyph-name="omacron" unicode="&#x14d;" horiz-adv-x="1148" 
d="M334 1320v84h480v-84h-480zM574 -30q-160 0 -270 73t-167 202t-57 297q0 170 58 298t168.5 199t267.5 71q161 0 271 -72.5t166.5 -200.5t56.5 -295q0 -171 -57 -299.5t-167.5 -200.5t-269.5 -72zM574 54q204 0 304 135.5t100 352.5q0 221 -100.5 352.5t-303.5 131.5
q-137 0 -226.5 -62t-133.5 -171t-44 -251q0 -220 102.5 -354t301.5 -134z" />
    <glyph glyph-name="Ohungarumlaut" unicode="&#x150;" horiz-adv-x="1412" 
d="M927 1620h-88l96 270h88zM577 1620h-88l96 270h88zM706 -30q-215 0 -358.5 96t-215.5 265t-72 389t72 389t215.5 265t358.5 96t358.5 -96t215.5 -265t72 -389t-72 -389t-215.5 -265t-358.5 -96zM706 54q185 0 308.5 85.5t185.5 235.5t62 345t-62 345.5t-185.5 235.5
t-308.5 85t-307.5 -85t-184.5 -235.5t-64 -345.5t60 -345t186.5 -235.5t309.5 -85.5z" />
    <glyph glyph-name="ohungarumlaut" unicode="&#x151;" horiz-adv-x="1148" 
d="M799 1260h-88l96 270h88zM449 1260h-88l96 270h88zM574 -30q-160 0 -270 73t-167 202t-57 297q0 170 58 298t168.5 199t267.5 71q161 0 271 -72.5t166.5 -200.5t56.5 -295q0 -171 -57 -299.5t-167.5 -200.5t-269.5 -72zM574 54q204 0 304 135.5t100 352.5
q0 221 -100.5 352.5t-303.5 131.5q-137 0 -226.5 -62t-133.5 -171t-44 -251q0 -220 102.5 -354t301.5 -134z" />
    <glyph glyph-name="OE" unicode="&#x152;" horiz-adv-x="2248" 
d="M706 -30q-215 0 -358.5 96t-215.5 265t-72 389t72 389t215.5 265t358.5 96t358.5 -96t215.5 -265t72 -389t-72 -389t-215.5 -265t-358.5 -96zM706 54q185 0 308.5 85.5t185.5 235.5t62 345t-62 345.5t-185.5 235.5t-308.5 85t-307.5 -85t-184.5 -235.5t-64 -345.5
t60 -345t186.5 -235.5t309.5 -85.5zM1268 0v1440h880v-84h-796v-594h676v-84h-676v-594h796v-84h-880z" />
    <glyph glyph-name="oe" unicode="&#x153;" horiz-adv-x="2046" 
d="M1474 -30q-153 0 -263.5 69t-170.5 197t-60 304q0 177 59.5 305t170 196.5t264.5 68.5q155 0 265 -70t168.5 -203t58.5 -321h-90v28q-6 233 -109.5 357.5t-292.5 124.5q-192 0 -298 -127.5t-106 -358.5t106 -358.5t298 -127.5q134 0 235 63t161 181l70 -40
q-66 -138 -187 -213t-279 -75zM1034 516v84h880v-84h-880zM574 -30q-160 0 -270 73t-167 202t-57 297q0 170 58 298t168.5 199t267.5 71q161 0 271 -72.5t166.5 -200.5t56.5 -295q0 -171 -57 -299.5t-167.5 -200.5t-269.5 -72zM574 54q204 0 304 135.5t100 352.5
q0 221 -100.5 352.5t-303.5 131.5q-137 0 -226.5 -62t-133.5 -171t-44 -251q0 -220 102.5 -354t301.5 -134z" />
    <glyph glyph-name="Racute" unicode="&#x154;" horiz-adv-x="1222" 
d="M592 1620h-88l96 270h88zM140 0v1440h530q21 0 43 -1.5t49 -6.5q104 -16 180.5 -75.5t118 -150t41.5 -198.5q0 -154 -84 -270t-228 -148l-16 -14h-550v-576h-84zM1042 0l-284 586l72 54l312 -640h-100zM224 660h446q17 0 40.5 2t47.5 6q83 16 139.5 66t85.5 121.5
t29 152.5t-29 152.5t-85.5 121.5t-139.5 66q-24 5 -47.5 6.5t-40.5 1.5h-446v-696z" />
    <glyph glyph-name="racute" unicode="&#x155;" horiz-adv-x="670" 
d="M348 1260h-88l96 270h88zM140 0v1080h78v-258l-26 34q17 44 43 82t51 62q44 43 104.5 65.5t121.5 26t108 -11.5v-80q-67 15 -142 5.5t-140 -69.5q-57 -53 -80.5 -122t-28.5 -142.5t-5 -139.5v-532h-84z" />
    <glyph glyph-name="uni0156" unicode="&#x156;" horiz-adv-x="1222" 
d="M530 -510v60q10 0 26 7.5t27.5 24.5t8.5 46h-62v120h120v-120q0 -76 -42 -107t-78 -31zM140 0v1440h530q21 0 43 -1.5t49 -6.5q104 -16 180.5 -75.5t118 -150t41.5 -198.5q0 -154 -84 -270t-228 -148l-16 -14h-550v-576h-84zM1042 0l-284 586l72 54l312 -640h-100z
M224 660h446q17 0 40.5 2t47.5 6q83 16 139.5 66t85.5 121.5t29 152.5t-29 152.5t-85.5 121.5t-139.5 66q-24 5 -47.5 6.5t-40.5 1.5h-446v-696z" />
    <glyph glyph-name="uni0157" unicode="&#x157;" horiz-adv-x="670" 
d="M122 -510v60q10 0 26 7.5t27.5 24.5t8.5 46h-62v120h120v-120q0 -76 -42 -107t-78 -31zM140 0v1080h78v-258l-26 34q17 44 43 82t51 62q44 43 104.5 65.5t121.5 26t108 -11.5v-80q-67 15 -142 5.5t-140 -69.5q-57 -53 -80.5 -122t-28.5 -142.5t-5 -139.5v-532h-84z" />
    <glyph glyph-name="Rcaron" unicode="&#x158;" horiz-adv-x="1222" 
d="M306 1860h100l146 -170l146 170h100l-200 -240h-92zM140 0v1440h530q21 0 43 -1.5t49 -6.5q104 -16 180.5 -75.5t118 -150t41.5 -198.5q0 -154 -84 -270t-228 -148l-16 -14h-550v-576h-84zM1042 0l-284 586l72 54l312 -640h-100zM224 660h446q17 0 40.5 2t47.5 6
q83 16 139.5 66t85.5 121.5t29 152.5t-29 152.5t-85.5 121.5t-139.5 66q-24 5 -47.5 6.5t-40.5 1.5h-446v-696z" />
    <glyph glyph-name="rcaron" unicode="&#x159;" horiz-adv-x="670" 
d="M134 1500h100l146 -170l146 170h100l-200 -240h-92zM140 0v1080h78v-258l-26 34q17 44 43 82t51 62q44 43 104.5 65.5t121.5 26t108 -11.5v-80q-67 15 -142 5.5t-140 -69.5q-57 -53 -80.5 -122t-28.5 -142.5t-5 -139.5v-532h-84z" />
    <glyph glyph-name="Sacute" unicode="&#x15a;" horiz-adv-x="1178" 
d="M640 1620h-88l96 270h88zM618 -30q-146 0 -262.5 47.5t-193 134.5t-102.5 206l84 16q39 -148 166 -234t308 -86q126 0 220 40t146 112.5t52 169.5q0 73 -27 122t-68.5 79.5t-86.5 48.5t-80 28l-360 108q-78 23 -134.5 56t-92.5 75t-53.5 92t-17.5 107q0 110 59.5 195.5
t165.5 134t245 48.5q141 0 253 -52t183.5 -146.5t89.5 -221.5l-84 -16q-14 105 -74 184.5t-155 123.5t-213 44q-113 0 -198.5 -39t-133.5 -105t-48 -148q0 -86 46.5 -137.5t113.5 -80t128 -46.5l298 -90q38 -11 93 -32.5t108.5 -61.5t89 -105.5t35.5 -164.5q0 -93 -35 -168
t-101 -128t-158 -81.5t-206 -28.5z" />
    <glyph glyph-name="sacute" unicode="&#x15b;" horiz-adv-x="1028" 
d="M565 1260h-88l96 270h88zM534 -28q-183 0 -304 76.5t-150 211.5l86 16q27 -100 126.5 -160t243.5 -60q147 0 233.5 63t86.5 171q0 59 -26 96.5t-101.5 68.5t-222.5 71q-154 42 -239.5 81.5t-120 89t-34.5 121.5q0 86 51 152t141 103t208 37q119 0 214.5 -39.5t154 -110
t67.5 -162.5l-86 -16q-19 113 -115.5 178.5t-240.5 65.5q-135 2 -220.5 -55t-85.5 -149q0 -51 29 -87.5t101 -66.5t200 -62q162 -41 252.5 -83t127 -98t36.5 -139q0 -147 -110 -230.5t-302 -83.5z" />
    <glyph glyph-name="Scircumflex" unicode="&#x15c;" horiz-adv-x="1178" 
d="M358 1620l200 240h92l200 -240h-100l-146 170l-146 -170h-100zM618 -30q-146 0 -262.5 47.5t-193 134.5t-102.5 206l84 16q39 -148 166 -234t308 -86q126 0 220 40t146 112.5t52 169.5q0 73 -27 122t-68.5 79.5t-86.5 48.5t-80 28l-360 108q-78 23 -134.5 56t-92.5 75
t-53.5 92t-17.5 107q0 110 59.5 195.5t165.5 134t245 48.5q141 0 253 -52t183.5 -146.5t89.5 -221.5l-84 -16q-14 105 -74 184.5t-155 123.5t-213 44q-113 0 -198.5 -39t-133.5 -105t-48 -148q0 -86 46.5 -137.5t113.5 -80t128 -46.5l298 -90q38 -11 93 -32.5t108.5 -61.5
t89 -105.5t35.5 -164.5q0 -93 -35 -168t-101 -128t-158 -81.5t-206 -28.5z" />
    <glyph glyph-name="scircumflex" unicode="&#x15d;" horiz-adv-x="1028" 
d="M288 1260l200 240h92l200 -240h-100l-146 170l-146 -170h-100zM534 -28q-183 0 -304 76.5t-150 211.5l86 16q27 -100 126.5 -160t243.5 -60q147 0 233.5 63t86.5 171q0 59 -26 96.5t-101.5 68.5t-222.5 71q-154 42 -239.5 81.5t-120 89t-34.5 121.5q0 86 51 152t141 103
t208 37q119 0 214.5 -39.5t154 -110t67.5 -162.5l-86 -16q-19 113 -115.5 178.5t-240.5 65.5q-135 2 -220.5 -55t-85.5 -149q0 -51 29 -87.5t101 -66.5t200 -62q162 -41 252.5 -83t127 -98t36.5 -139q0 -147 -110 -230.5t-302 -83.5z" />
    <glyph glyph-name="Scedilla" unicode="&#x15e;" horiz-adv-x="1178" 
d="M570 -478q-33 0 -63 8t-57 20l28 74q50 -20 86 -20q45 0 69.5 29t24.5 65q0 51 -42 72.5t-92 37.5l76 206h84l-58 -156q51 -21 85.5 -60t34.5 -104q0 -72 -52 -122t-124 -50zM618 -30q-146 0 -262.5 47.5t-193 134.5t-102.5 206l84 16q39 -148 166 -234t308 -86
q126 0 220 40t146 112.5t52 169.5q0 73 -27 122t-68.5 79.5t-86.5 48.5t-80 28l-360 108q-78 23 -134.5 56t-92.5 75t-53.5 92t-17.5 107q0 110 59.5 195.5t165.5 134t245 48.5q141 0 253 -52t183.5 -146.5t89.5 -221.5l-84 -16q-14 105 -74 184.5t-155 123.5t-213 44
q-113 0 -198.5 -39t-133.5 -105t-48 -148q0 -86 46.5 -137.5t113.5 -80t128 -46.5l298 -90q38 -11 93 -32.5t108.5 -61.5t89 -105.5t35.5 -164.5q0 -93 -35 -168t-101 -128t-158 -81.5t-206 -28.5z" />
    <glyph glyph-name="scedilla" unicode="&#x15f;" horiz-adv-x="1028" 
d="M502 -478q-33 0 -63 8t-57 20l28 74q50 -20 86 -20q45 0 69.5 29t24.5 65q0 51 -42 72.5t-92 37.5l76 206h84l-58 -156q51 -21 85.5 -60t34.5 -104q0 -72 -52 -122t-124 -50zM534 -28q-183 0 -304 76.5t-150 211.5l86 16q27 -100 126.5 -160t243.5 -60q147 0 233.5 63
t86.5 171q0 59 -26 96.5t-101.5 68.5t-222.5 71q-154 42 -239.5 81.5t-120 89t-34.5 121.5q0 86 51 152t141 103t208 37q119 0 214.5 -39.5t154 -110t67.5 -162.5l-86 -16q-19 113 -115.5 178.5t-240.5 65.5q-135 2 -220.5 -55t-85.5 -149q0 -51 29 -87.5t101 -66.5t200 -62
q162 -41 252.5 -83t127 -98t36.5 -139q0 -147 -110 -230.5t-302 -83.5z" />
    <glyph glyph-name="Scaron" unicode="&#x160;" horiz-adv-x="1178" 
d="M370 1860h100l146 -170l146 170h100l-200 -240h-92zM618 -30q-146 0 -262.5 47.5t-193 134.5t-102.5 206l84 16q39 -148 166 -234t308 -86q126 0 220 40t146 112.5t52 169.5q0 73 -27 122t-68.5 79.5t-86.5 48.5t-80 28l-360 108q-78 23 -134.5 56t-92.5 75t-53.5 92
t-17.5 107q0 110 59.5 195.5t165.5 134t245 48.5q141 0 253 -52t183.5 -146.5t89.5 -221.5l-84 -16q-14 105 -74 184.5t-155 123.5t-213 44q-113 0 -198.5 -39t-133.5 -105t-48 -148q0 -86 46.5 -137.5t113.5 -80t128 -46.5l298 -90q38 -11 93 -32.5t108.5 -61.5t89 -105.5
t35.5 -164.5q0 -93 -35 -168t-101 -128t-158 -81.5t-206 -28.5z" />
    <glyph glyph-name="scaron" unicode="&#x161;" horiz-adv-x="1028" 
d="M294 1500h100l146 -170l146 170h100l-200 -240h-92zM534 -28q-183 0 -304 76.5t-150 211.5l86 16q27 -100 126.5 -160t243.5 -60q147 0 233.5 63t86.5 171q0 59 -26 96.5t-101.5 68.5t-222.5 71q-154 42 -239.5 81.5t-120 89t-34.5 121.5q0 86 51 152t141 103t208 37
q119 0 214.5 -39.5t154 -110t67.5 -162.5l-86 -16q-19 113 -115.5 178.5t-240.5 65.5q-135 2 -220.5 -55t-85.5 -149q0 -51 29 -87.5t101 -66.5t200 -62q162 -41 252.5 -83t127 -98t36.5 -139q0 -147 -110 -230.5t-302 -83.5z" />
    <glyph glyph-name="uni0162" unicode="&#x162;" horiz-adv-x="1180" 
d="M548 0v1356h-528v84h1140v-84h-528v-1356h-84zM518 -492q-33 0 -63 8t-57 20l28 74q50 -20 86 -20q45 0 69.5 29t24.5 65q0 51 -42 72.5t-92 37.5l76 206h84l-58 -156q51 -21 85.5 -60t34.5 -104q0 -72 -52 -122t-124 -50z" />
    <glyph glyph-name="uni0163" unicode="&#x163;" horiz-adv-x="758" 
d="M406 -478q-33 0 -63 8t-57 20l28 74q50 -20 86 -20q45 0 69.5 29t24.5 65q0 51 -42 72.5t-92 37.5l76 206h84l-58 -156q51 -21 85.5 -60t34.5 -104q0 -72 -52 -122t-124 -50zM698 0q-81 -18 -160 -13.5t-141 38t-93 101.5q-24 53 -27 107.5t-3 124.5v1022h84v-1022
q0 -70 1.5 -113t20.5 -81q36 -72 114 -88.5t204 4.5v-80zM20 996v84h678v-84h-678z" />
    <glyph glyph-name="Tcaron" unicode="&#x164;" horiz-adv-x="1180" 
d="M344 1860h100l146 -170l146 170h100l-200 -240h-92zM548 0v1356h-528v84h1140v-84h-528v-1356h-84z" />
    <glyph glyph-name="tcaron" unicode="&#x165;" horiz-adv-x="758" 
d="M698 0q-81 -18 -160 -13.5t-141 38t-93 101.5q-24 53 -27 107.5t-3 124.5v1022h84v-1022q0 -70 1.5 -113t20.5 -81q36 -72 114 -88.5t204 4.5v-80zM20 996v84h678v-84h-678zM578 1242l6 52q35 -2 47 16.5t12.5 48t0.5 61.5h-66v180h120v-240q0 -66 -36 -98t-84 -20z" />
    <glyph glyph-name="Tbar" unicode="&#x166;" horiz-adv-x="1180" 
d="M170 678v84h840v-84h-840zM548 0v1356h-528v84h1140v-84h-528v-1356h-84z" />
    <glyph glyph-name="tbar" unicode="&#x167;" horiz-adv-x="798" 
d="M20 498v84h678v-84h-678zM698 0q-81 -18 -160 -13.5t-141 38t-93 101.5q-24 53 -27 107.5t-3 124.5v1022h84v-1022q0 -70 1.5 -113t20.5 -81q36 -72 114 -88.5t204 4.5v-80zM20 996v84h678v-84h-678z" />
    <glyph glyph-name="Utilde" unicode="&#x168;" horiz-adv-x="1380" 
d="M690 -30q-160 0 -284 67t-195 188.5t-71 284.5v930h84v-902q0 -133 45 -226.5t116 -151t152 -84t153 -26.5t153 26.5t152 84t116 151t45 226.5v902h84v-930q0 -162 -71 -283.5t-195 -189t-284 -67.5zM834 1620q-39 0 -76.5 14.5t-73.5 33.5t-69 33.5t-63 14.5
q-43 0 -53.5 -29.5t-0.5 -56.5h-72q-18 69 20.5 117.5t107.5 48.5q40 0 78 -14.5t74 -33.5t69 -33.5t63 -14.5q38 0 52 28t2 62h72q18 -67 -20 -118.5t-110 -51.5z" />
    <glyph glyph-name="utilde" unicode="&#x169;" 
d="M558 -24q-82 0 -150.5 23t-122 66.5t-90.5 106.5t-56 143.5t-19 176.5v588h84v-572q0 -115 23.5 -200t69.5 -140.5t111.5 -82.5t149.5 -27q99 0 168.5 34.5t112.5 94.5t63 138t20 165l78 2q0 -185 -61 -298.5t-161.5 -165.5t-219.5 -52zM928 0v220h-6v860h84v-1080h-78z
M726 1260q-39 0 -76.5 14.5t-73.5 33.5t-69 33.5t-63 14.5q-43 0 -53.5 -29.5t-0.5 -56.5h-72q-18 69 20.5 117.5t107.5 48.5q40 0 78 -14.5t74 -33.5t69 -33.5t63 -14.5q38 0 52 28t2 62h72q18 -67 -20 -118.5t-110 -51.5z" />
    <glyph glyph-name="Umacron" unicode="&#x16a;" horiz-adv-x="1380" 
d="M450 1680v84h480v-84h-480zM690 -30q-160 0 -284 67t-195 188.5t-71 284.5v930h84v-902q0 -133 45 -226.5t116 -151t152 -84t153 -26.5t153 26.5t152 84t116 151t45 226.5v902h84v-930q0 -162 -71 -283.5t-195 -189t-284 -67.5z" />
    <glyph glyph-name="umacron" unicode="&#x16b;" 
d="M322 1320v84h480v-84h-480zM558 -24q-82 0 -150.5 23t-122 66.5t-90.5 106.5t-56 143.5t-19 176.5v588h84v-572q0 -115 23.5 -200t69.5 -140.5t111.5 -82.5t149.5 -27q99 0 168.5 34.5t112.5 94.5t63 138t20 165l78 2q0 -185 -61 -298.5t-161.5 -165.5t-219.5 -52zM928 0
v220h-6v860h84v-1080h-78z" />
    <glyph glyph-name="Ubreve" unicode="&#x16c;" horiz-adv-x="1380" 
d="M690 1572q-63 0 -114.5 31t-82.5 82.5t-31 114.5h78q0 -61 44.5 -105.5t105.5 -44.5q63 0 106.5 44.5t43.5 105.5h78q0 -63 -30.5 -114.5t-82.5 -82.5t-115 -31zM690 -30q-160 0 -284 67t-195 188.5t-71 284.5v930h84v-902q0 -133 45 -226.5t116 -151t152 -84t153 -26.5
t153 26.5t152 84t116 151t45 226.5v902h84v-930q0 -162 -71 -283.5t-195 -189t-284 -67.5z" />
    <glyph glyph-name="ubreve" unicode="&#x16d;" 
d="M563 1212q-63 0 -115 31t-82.5 82.5t-30.5 114.5h78q0 -61 44.5 -105.5t105.5 -44.5q63 0 106.5 44.5t43.5 105.5h78q0 -63 -30.5 -114.5t-82.5 -82.5t-115 -31zM558 -24q-82 0 -150.5 23t-122 66.5t-90.5 106.5t-56 143.5t-19 176.5v588h84v-572q0 -115 23.5 -200
t69.5 -140.5t111.5 -82.5t149.5 -27q99 0 168.5 34.5t112.5 94.5t63 138t20 165l78 2q0 -185 -61 -298.5t-161.5 -165.5t-219.5 -52zM928 0v220h-6v860h84v-1080h-78z" />
    <glyph glyph-name="Uring" unicode="&#x16e;" horiz-adv-x="1380" 
d="M690 1560q-53 0 -97 26t-70.5 70t-26.5 98q0 53 26.5 97t70.5 70.5t97 26.5q54 0 98 -26.5t70 -70.5t26 -97q0 -54 -26 -98t-70 -70t-98 -26zM690 1644q47 0 78.5 32.5t31.5 77.5q0 46 -31.5 78t-78.5 32q-45 0 -77.5 -32t-32.5 -78q0 -45 32.5 -77.5t77.5 -32.5z
M690 -30q-160 0 -284 67t-195 188.5t-71 284.5v930h84v-902q0 -133 45 -226.5t116 -151t152 -84t153 -26.5t153 26.5t152 84t116 151t45 226.5v902h84v-930q0 -162 -71 -283.5t-195 -189t-284 -67.5z" />
    <glyph glyph-name="uring" unicode="&#x16f;" 
d="M564 1200q-53 0 -97 26t-70.5 70t-26.5 98q0 53 26.5 97t70.5 70.5t97 26.5q54 0 98 -26.5t70 -70.5t26 -97q0 -54 -26 -98t-70 -70t-98 -26zM564 1284q47 0 78.5 32.5t31.5 77.5q0 46 -31.5 78t-78.5 32q-45 0 -77.5 -32t-32.5 -78q0 -45 32.5 -77.5t77.5 -32.5z
M558 -24q-82 0 -150.5 23t-122 66.5t-90.5 106.5t-56 143.5t-19 176.5v588h84v-572q0 -115 23.5 -200t69.5 -140.5t111.5 -82.5t149.5 -27q99 0 168.5 34.5t112.5 94.5t63 138t20 165l78 2q0 -185 -61 -298.5t-161.5 -165.5t-219.5 -52zM928 0v220h-6v860h84v-1080h-78z" />
    <glyph glyph-name="Uhungarumlaut" unicode="&#x170;" horiz-adv-x="1380" 
d="M896 1620h-88l96 270h88zM546 1620h-88l96 270h88zM690 -30q-160 0 -284 67t-195 188.5t-71 284.5v930h84v-902q0 -133 45 -226.5t116 -151t152 -84t153 -26.5t153 26.5t152 84t116 151t45 226.5v902h84v-930q0 -162 -71 -283.5t-195 -189t-284 -67.5z" />
    <glyph glyph-name="uhungarumlaut" unicode="&#x171;" 
d="M775 1260h-88l96 270h88zM425 1260h-88l96 270h88zM558 -24q-82 0 -150.5 23t-122 66.5t-90.5 106.5t-56 143.5t-19 176.5v588h84v-572q0 -115 23.5 -200t69.5 -140.5t111.5 -82.5t149.5 -27q99 0 168.5 34.5t112.5 94.5t63 138t20 165l78 2q0 -185 -61 -298.5
t-161.5 -165.5t-219.5 -52zM928 0v220h-6v860h84v-1080h-78z" />
    <glyph glyph-name="Uogonek" unicode="&#x172;" horiz-adv-x="1380" 
d="M690 -30q-160 0 -284 67t-195 188.5t-71 284.5v930h84v-902q0 -133 45 -226.5t116 -151t152 -84t153 -26.5t153 26.5t152 84t116 151t45 226.5v902h84v-930q0 -162 -71 -283.5t-195 -189t-284 -67.5zM884 -414q-47 0 -87 25t-64.5 66t-24.5 89q0 60 35 124.5t93 127.5
t128 118l62 -66q-61 -40 -113.5 -92t-84.5 -107.5t-32 -104.5q0 -45 27 -72.5t61 -27.5q27 0 54.5 16.5t49.5 41.5l50 -56q-33 -42 -73 -62t-81 -20z" />
    <glyph glyph-name="uogonek" unicode="&#x173;" 
d="M864 -484q-47 0 -87 25t-64.5 66t-24.5 89q0 60 35 124.5t93 127.5t128 118l62 -66q-61 -40 -113.5 -92t-84.5 -107.5t-32 -104.5q0 -45 27 -72.5t61 -27.5q27 0 54.5 16.5t49.5 41.5l50 -56q-33 -42 -73 -62t-81 -20zM558 -24q-82 0 -150.5 23t-122 66.5t-90.5 106.5
t-56 143.5t-19 176.5v588h84v-572q0 -115 23.5 -200t69.5 -140.5t111.5 -82.5t149.5 -27q99 0 168.5 34.5t112.5 94.5t63 138t20 165l78 2q0 -185 -61 -298.5t-161.5 -165.5t-219.5 -52zM928 0v220h-6v860h84v-1080h-78z" />
    <glyph glyph-name="Wcircumflex" unicode="&#x174;" horiz-adv-x="1818" 
d="M664 1620l200 240h92l200 -240h-100l-146 170l-146 -170h-100zM452 0l-412 1440h86l370 -1288l368 1288h88l370 -1288l368 1288h88l-412 -1440h-88l-370 1286l-368 -1286h-88z" />
    <glyph glyph-name="wcircumflex" unicode="&#x175;" horiz-adv-x="1488" 
d="M498 1260l200 240h92l200 -240h-100l-146 170l-146 -170h-100zM370 0l-330 1080h88l286 -936l286 936h88l286 -936l288 936h86l-330 -1080h-88l-286 938l-286 -938h-88z" />
    <glyph glyph-name="Ycircumflex" unicode="&#x176;" horiz-adv-x="1038" 
d="M274 1620l200 240h92l200 -240h-100l-146 170l-146 -170h-100zM478 0v612l-478 828h96l424 -732l422 732h96l-476 -828v-612h-84z" />
    <glyph glyph-name="ycircumflex" unicode="&#x177;" horiz-adv-x="1012" 
d="M276 1260l200 240h92l200 -240h-100l-146 170l-146 -170h-100zM302 -480l210 564l2 -168l-474 1164h92l424 -1048h-64l380 1048h90l-566 -1560h-94z" />
    <glyph glyph-name="Ydieresis" unicode="&#x178;" horiz-adv-x="1038" 
d="M640 1680v120h120v-120h-120zM280 1680v120h120v-120h-120zM478 0v612l-478 828h96l424 -732l422 732h96l-476 -828v-612h-84z" />
    <glyph glyph-name="Zacute" unicode="&#x179;" horiz-adv-x="1162" 
d="M607 1620h-88l96 270h88zM100 0v30l838 1326h-838v84h962v-34l-834 -1324h834v-82h-962z" />
    <glyph glyph-name="zacute" unicode="&#x17a;" horiz-adv-x="1054" 
d="M615 1260h-88l96 270h88zM40 0v30l780 962h-732v88h886v-34l-780 -958h732v-88h-886z" />
    <glyph glyph-name="Zdotaccent" unicode="&#x17b;" horiz-adv-x="1162" 
d="M574 1680v120h120v-120h-120zM100 0v30l838 1326h-838v84h962v-34l-834 -1324h834v-82h-962z" />
    <glyph glyph-name="zdotaccent" unicode="&#x17c;" horiz-adv-x="1054" 
d="M472 1320v120h120v-120h-120zM40 0v30l780 962h-732v88h886v-34l-780 -958h732v-88h-886z" />
    <glyph glyph-name="Zcaron" unicode="&#x17d;" horiz-adv-x="1162" 
d="M386 1860h100l146 -170l146 170h100l-200 -240h-92zM100 0v30l838 1326h-838v84h962v-34l-834 -1324h834v-82h-962z" />
    <glyph glyph-name="zcaron" unicode="&#x17e;" horiz-adv-x="1054" 
d="M306 1500h100l146 -170l146 170h100l-200 -240h-92zM40 0v30l780 962h-732v88h886v-34l-780 -958h732v-88h-886z" />
    <glyph glyph-name="florin" unicode="&#x192;" horiz-adv-x="1448" 
d="M304 -30q-62 0 -117 14t-90 28.5t-37 15.5l36 76q2 0 32.5 -12.5t77.5 -25t100 -12.5q36 0 80.5 11.5t88.5 44.5t79 97t52 169l122 746q16 96 53 159.5t86.5 101.5t101.5 56.5t98 24.5t75 6q67 0 124 -13.5t90.5 -28.5t31.5 -18l-42 -72l-28 12t-75.5 24t-106.5 12
q-33 0 -81.5 -8.5t-99 -36t-90 -83t-55.5 -150.5l-122 -746q-22 -133 -69.5 -211.5t-106 -117.5t-114.5 -51t-94 -12zM260 678v84h986v-84h-986z" />
    <glyph glyph-name="Ohorn" unicode="&#x1a0;" horiz-adv-x="1412" 
d="M1117 1626h84q11 -64 1.5 -123t-62.5 -100q-37 -28 -106 -39.5t-142 34.5v50q53 -16 88.5 -15.5t66.5 16.5q56 28 66.5 75t3.5 102zM706 -30q-215 0 -358.5 96t-215.5 265t-72 389t72 389t215.5 265t358.5 96t358.5 -96t215.5 -265t72 -389t-72 -389t-215.5 -265
t-358.5 -96zM706 54q185 0 308.5 85.5t185.5 235.5t62 345t-62 345.5t-185.5 235.5t-308.5 85t-307.5 -85t-184.5 -235.5t-64 -345.5t60 -345t186.5 -235.5t309.5 -85.5z" />
    <glyph glyph-name="ohorn" unicode="&#x1a1;" horiz-adv-x="1148" 
d="M977 1260h84q11 -64 1.5 -123t-62.5 -100q-37 -28 -106 -39.5t-142 34.5v50q53 -16 88.5 -15.5t66.5 16.5q56 28 66.5 75t3.5 102zM574 -30q-160 0 -270 73t-167 202t-57 297q0 170 58 298t168.5 199t267.5 71q161 0 271 -72.5t166.5 -200.5t56.5 -295q0 -171 -57 -299.5
t-167.5 -200.5t-269.5 -72zM574 54q204 0 304 135.5t100 352.5q0 221 -100.5 352.5t-303.5 131.5q-137 0 -226.5 -62t-133.5 -171t-44 -251q0 -220 102.5 -354t301.5 -134z" />
    <glyph glyph-name="Uhorn" unicode="&#x1af;" horiz-adv-x="1380" 
d="M1321 1620h84q11 -64 2 -124t-62 -100q-37 -28 -84 -31.5t-105 5.5v70q22 1 46.5 1t49.5 6q62 15 69 66.5t0 106.5zM690 -30q-160 0 -284 67t-195 188.5t-71 284.5v930h84v-902q0 -133 45 -226.5t116 -151t152 -84t153 -26.5t153 26.5t152 84t116 151t45 226.5v902h84
v-930q0 -162 -71 -283.5t-195 -189t-284 -67.5z" />
    <glyph glyph-name="uhorn" unicode="&#x1b0;" 
d="M1087 1260h84q11 -64 2 -124t-62 -100q-37 -28 -84 -31.5t-105 5.5v70q22 1 46.5 1t49.5 6q62 15 69 66.5t0 106.5zM558 -24q-82 0 -150.5 23t-122 66.5t-90.5 106.5t-56 143.5t-19 176.5v588h84v-572q0 -115 23.5 -200t69.5 -140.5t111.5 -82.5t149.5 -27
q99 0 168.5 34.5t112.5 94.5t63 138t20 165l78 2q0 -185 -61 -298.5t-161.5 -165.5t-219.5 -52zM928 0v220h-6v860h84v-1080h-78z" />
    <glyph glyph-name="uni0218" unicode="&#x218;" horiz-adv-x="1178" 
d="M582 -510v60q10 0 26 7.5t27.5 24.5t8.5 46h-62v120h120v-120q0 -76 -42 -107t-78 -31zM618 -30q-146 0 -262.5 47.5t-193 134.5t-102.5 206l84 16q39 -148 166 -234t308 -86q126 0 220 40t146 112.5t52 169.5q0 73 -27 122t-68.5 79.5t-86.5 48.5t-80 28l-360 108
q-78 23 -134.5 56t-92.5 75t-53.5 92t-17.5 107q0 110 59.5 195.5t165.5 134t245 48.5q141 0 253 -52t183.5 -146.5t89.5 -221.5l-84 -16q-14 105 -74 184.5t-155 123.5t-213 44q-113 0 -198.5 -39t-133.5 -105t-48 -148q0 -86 46.5 -137.5t113.5 -80t128 -46.5l298 -90
q38 -11 93 -32.5t108.5 -61.5t89 -105.5t35.5 -164.5q0 -93 -35 -168t-101 -128t-158 -81.5t-206 -28.5z" />
    <glyph glyph-name="uni0219" unicode="&#x219;" horiz-adv-x="1028" 
d="M460 -510v60q10 0 26 7.5t27.5 24.5t8.5 46h-62v120h120v-120q0 -76 -42 -107t-78 -31zM534 -28q-183 0 -304 76.5t-150 211.5l86 16q27 -100 126.5 -160t243.5 -60q147 0 233.5 63t86.5 171q0 59 -26 96.5t-101.5 68.5t-222.5 71q-154 42 -239.5 81.5t-120 89
t-34.5 121.5q0 86 51 152t141 103t208 37q119 0 214.5 -39.5t154 -110t67.5 -162.5l-86 -16q-19 113 -115.5 178.5t-240.5 65.5q-135 2 -220.5 -55t-85.5 -149q0 -51 29 -87.5t101 -66.5t200 -62q162 -41 252.5 -83t127 -98t36.5 -139q0 -147 -110 -230.5t-302 -83.5z" />
    <glyph glyph-name="uni021A" unicode="&#x21a;" horiz-adv-x="1180" 
d="M530 -510v60q10 0 26 7.5t27.5 24.5t8.5 46h-62v120h120v-120q0 -76 -42 -107t-78 -31zM548 0v1356h-528v84h1140v-84h-528v-1356h-84z" />
    <glyph glyph-name="uni021B" unicode="&#x21b;" horiz-adv-x="758" 
d="M316 -510v60q10 0 26 7.5t27.5 24.5t8.5 46h-62v120h120v-120q0 -76 -42 -107t-78 -31zM698 0q-81 -18 -160 -13.5t-141 38t-93 101.5q-24 53 -27 107.5t-3 124.5v1022h84v-1022q0 -70 1.5 -113t20.5 -81q36 -72 114 -88.5t204 4.5v-80zM20 996v84h678v-84h-678z" />
    <glyph glyph-name="uni0259" unicode="&#x259;" 
d="M572 1110q153 0 264 -69t170.5 -197t59.5 -304q0 -177 -59.5 -304.5t-170 -196.5t-264.5 -69q-155 0 -265 70t-168.5 203t-58.5 321h90v-28q6 -232 109.5 -357t292.5 -125q192 0 298 127.5t106 358.5t-106 358.5t-298 127.5q-133 0 -234.5 -62.5t-161.5 -181.5l-70 40
q66 138 187.5 213t278.5 75zM1012 564v-84h-880v84h880z" />
    <glyph glyph-name="circumflex" unicode="&#x2c6;" horiz-adv-x="972" 
d="M240 1620l200 240h92l200 -240h-100l-146 170l-146 -170h-100z" />
    <glyph glyph-name="caron" unicode="&#x2c7;" horiz-adv-x="948" 
d="M240 1860h100l146 -170l146 170h100l-200 -240h-92z" />
    <glyph glyph-name="breve" unicode="&#x2d8;" horiz-adv-x="936" 
d="M468 1572q-63 0 -115 31t-82.5 82.5t-30.5 114.5h78q0 -61 44.5 -105.5t105.5 -44.5q63 0 106.5 44.5t43.5 105.5h78q0 -63 -30.5 -114.5t-82.5 -82.5t-115 -31z" />
    <glyph glyph-name="dotaccent" unicode="&#x2d9;" horiz-adv-x="600" 
d="M240 1680v120h120v-120h-120z" />
    <glyph glyph-name="ring" unicode="&#x2da;" horiz-adv-x="876" 
d="M438 1560q-53 0 -97 26t-70.5 70t-26.5 98q0 53 26.5 97t70.5 70.5t97 26.5q54 0 98 -26.5t70 -70.5t26 -97q0 -54 -26 -98t-70 -70t-98 -26zM438 1644q47 0 78.5 32.5t31.5 77.5q0 46 -31.5 78t-78.5 32q-45 0 -77.5 -32t-32.5 -78q0 -45 32.5 -77.5t77.5 -32.5z" />
    <glyph glyph-name="ogonek" unicode="&#x2db;" horiz-adv-x="812" 
d="M416 -484q-47 0 -87 25t-64.5 66t-24.5 89q0 60 35 124.5t93 127.5t128 118l62 -66q-61 -40 -113.5 -92t-84.5 -107.5t-32 -104.5q0 -45 27 -72.5t61 -27.5q27 0 54.5 16.5t49.5 41.5l50 -56q-33 -42 -73 -62t-81 -20z" />
    <glyph glyph-name="tilde" unicode="&#x2dc;" horiz-adv-x="1030" 
d="M654 1620q-39 0 -76.5 14.5t-73.5 33.5t-69 33.5t-63 14.5q-43 0 -53.5 -29.5t-0.5 -56.5h-72q-18 69 20.5 117.5t107.5 48.5q40 0 78 -14.5t74 -33.5t69 -33.5t63 -14.5q38 0 52 28t2 62h72q18 -67 -20 -118.5t-110 -51.5z" />
    <glyph glyph-name="hungarumlaut" unicode="&#x2dd;" horiz-adv-x="994" 
d="M661 1620h-88l96 270h88zM311 1620h-88l96 270h88z" />
    <glyph glyph-name="uni0374" unicode="&#x374;" horiz-adv-x="464" 
d="M208 1170h-88l96 270h88z" />
    <glyph glyph-name="uni0375" unicode="&#x375;" horiz-adv-x="464" 
d="M208 -372h-88l96 270h88z" />
    <glyph glyph-name="uni037E" unicode="&#x37e;" horiz-adv-x="560" 
d="M220 -178l6 52q35 -2 47 16.5t12.5 48t0.5 61.5h-66v180h120v-240q0 -66 -36 -98t-84 -20zM220 960v120h120v-120h-120z" />
    <glyph glyph-name="tonos" unicode="&#x384;" horiz-adv-x="1200" 
d="M586 1170h-88l96 270h88z" />
    <glyph glyph-name="dieresistonos" unicode="&#x385;" horiz-adv-x="1200" 
d="M760 1320v120h120v-120h-120zM322 1320v120h120v-120h-120zM602 1260h-88l96 270h88z" />
    <glyph glyph-name="Alphatonos" unicode="&#x386;" horiz-adv-x="1218" 
d="M40 0l524 1440h90l524 -1440h-90l-510 1402h60l-508 -1402h-90zM240 374v80h736v-80h-736zM226 1170h-88l96 270h88z" />
    <glyph glyph-name="anoteleia" unicode="&#x387;" horiz-adv-x="1200" 
d="M202 550q-34 0 -58 23t-24 57q0 35 24 57.5t58 22.5q32 0 55 -22.5t23 -57.5q0 -34 -23 -57t-55 -23z" />
    <glyph glyph-name="Epsilontonos" unicode="&#x388;" horiz-adv-x="1360" 
d="M380 0v1440h880v-84h-796v-594h676v-84h-676v-594h796v-84h-880zM128 1170h-88l96 270h88z" />
    <glyph glyph-name="Etatonos" unicode="&#x389;" horiz-adv-x="1562" 
d="M382 0v1440h84v-678h872v678h84v-1440h-84v678h-872v-678h-84zM128 1170h-88l96 270h88z" />
    <glyph glyph-name="Iotatonos" unicode="&#x38a;" horiz-adv-x="603" 
d="M379 0v1440h84v-1440h-84zM128 1170h-88l96 270h88z" />
    <glyph glyph-name="Omicrontonos" unicode="&#x38c;" horiz-adv-x="1590" 
d="M884 -30q-215 0 -358.5 96t-215.5 265t-72 389t72 389t215.5 265t358.5 96t358.5 -96t215.5 -265t72 -389t-72 -389t-215.5 -265t-358.5 -96zM884 54q185 0 308.5 85.5t185.5 235.5t62 345t-62 345.5t-185.5 235.5t-308.5 85t-307.5 -85t-184.5 -235.5t-64 -345.5
t60 -345t186.5 -235.5t309.5 -85.5zM156 1170h-88l96 270h88z" />
    <glyph glyph-name="Upsilontonos" unicode="&#x38e;" horiz-adv-x="1368" 
d="M808 0v612l-478 828h96l424 -732l422 732h96l-476 -828v-612h-84zM168 1170h-88l96 270h88z" />
    <glyph glyph-name="Omegatonos" unicode="&#x38f;" horiz-adv-x="1622" 
d="M230 0v84h314q-142 108 -228 276t-86 390q0 152 43 283t126 228.5t203 152t274 54.5t274 -54.5t203 -152t126 -228.5t43 -283q0 -222 -85.5 -390t-228.5 -276h312v-84h-452l2 84q78 41 160 127t139.5 214t62.5 295q4 133 -32.5 252.5t-109 212t-177 146t-237.5 53.5
q-131 0 -234 -52.5t-175 -144t-109.5 -209t-37.5 -248.5q0 -130 34 -236t89 -187.5t118 -137t121 -85.5v-84h-452zM156 1170h-88l96 270h88z" />
    <glyph glyph-name="iotadieresistonos" unicode="&#x390;" horiz-adv-x="644" 
d="M394 -10q-70 9 -122.5 42t-81.5 94q-24 53 -27 107.5t-3 124.5v722h84v-722q0 -70 0.5 -112t21.5 -84q23 -43 56.5 -63.5t81.5 -26.5q45 -4 92.5 -2.5t87.5 10.5v-80q-32 -7 -65 -10.5t-64.5 -3.5t-60.5 4zM394 1320v120h120v-120h-120zM-44 1320v120h120v-120h-120z
M236 1260h-88l96 270h88z" />
    <glyph glyph-name="Alpha" unicode="&#x391;" horiz-adv-x="1218" 
d="M40 0l524 1440h90l524 -1440h-90l-510 1402h60l-508 -1402h-90zM240 374v80h736v-80h-736z" />
    <glyph glyph-name="Beta" unicode="&#x392;" horiz-adv-x="1202" 
d="M140 0v1440h546q104 0 192 -44.5t141 -124.5t53 -185q0 -114 -66 -209.5t-174 -134.5l-4 48q143 -46 229.5 -147.5t86.5 -254.5q0 -123 -56 -209.5t-151.5 -132.5t-212.5 -46h-584zM224 84h460q104 0 187.5 35t132 101t48.5 160t-44.5 170.5t-119 122t-164.5 45.5h-500
v-634zM224 800h462q81 0 148.5 39t107.5 105t40 148q0 120 -85.5 193t-210.5 73h-462v-558z" />
    <glyph glyph-name="Gamma" unicode="&#x393;" horiz-adv-x="1040" 
d="M140 0v1440h880v-84h-796v-1356h-84z" />
    <glyph glyph-name="uni0394" unicode="&#x394;" horiz-adv-x="1218" 
d="M110 0v84h998v-84h-998zM564 1440h90l524 -1440h-90l-480 1318l-478 -1318h-90z" />
    <glyph glyph-name="Epsilon" unicode="&#x395;" horiz-adv-x="1120" 
d="M140 0v1440h880v-84h-796v-594h676v-84h-676v-594h796v-84h-880z" />
    <glyph glyph-name="Zeta" unicode="&#x396;" horiz-adv-x="1162" 
d="M100 0v30l838 1326h-838v84h962v-34l-834 -1324h834v-82h-962z" />
    <glyph glyph-name="Eta" unicode="&#x397;" horiz-adv-x="1320" 
d="M140 0v1440h84v-678h872v678h84v-1440h-84v678h-872v-678h-84z" />
    <glyph glyph-name="Theta" unicode="&#x398;" horiz-adv-x="1412" 
d="M466 678v84h480v-84h-480zM706 -30q-215 0 -358.5 96t-215.5 265t-72 389t72 389t215.5 265t358.5 96t358.5 -96t215.5 -265t72 -389t-72 -389t-215.5 -265t-358.5 -96zM706 54q185 0 308.5 85.5t185.5 235.5t62 345t-62 345.5t-185.5 235.5t-308.5 85t-307.5 -85
t-184.5 -235.5t-64 -345.5t60 -345t186.5 -235.5t309.5 -85.5z" />
    <glyph glyph-name="Iota" unicode="&#x399;" horiz-adv-x="404" 
d="M160 0v1440h84v-1440h-84z" />
    <glyph glyph-name="Kappa" unicode="&#x39a;" horiz-adv-x="1116" 
d="M140 0v1440h84v-688l712 688h116l-706 -688l770 -752h-116l-776 752v-752h-84z" />
    <glyph glyph-name="Lambda" unicode="&#x39b;" horiz-adv-x="1158" 
d="M534 1440h90l524 -1440h-90l-480 1318l-478 -1318h-90z" />
    <glyph glyph-name="Mu" unicode="&#x39c;" horiz-adv-x="1662" 
d="M140 0v1440h80l612 -1338l606 1338h84v-1438h-84v1236l-560 -1238h-94l-560 1238v-1238h-84z" />
    <glyph glyph-name="Nu" unicode="&#x39d;" horiz-adv-x="1324" 
d="M140 0v1440h84l876 -1290v1290h84v-1440h-84l-876 1292v-1292h-84z" />
    <glyph glyph-name="Xi" unicode="&#x39e;" horiz-adv-x="1340" 
d="M140 1356v84h1060v-84h-1060zM140 0v84h1060v-84h-1060zM240 678v84h860v-84h-860z" />
    <glyph glyph-name="Omicron" unicode="&#x39f;" horiz-adv-x="1412" 
d="M706 -30q-215 0 -358.5 96t-215.5 265t-72 389t72 389t215.5 265t358.5 96t358.5 -96t215.5 -265t72 -389t-72 -389t-215.5 -265t-358.5 -96zM706 54q185 0 308.5 85.5t185.5 235.5t62 345t-62 345.5t-185.5 235.5t-308.5 85t-307.5 -85t-184.5 -235.5t-64 -345.5
t60 -345t186.5 -235.5t309.5 -85.5z" />
    <glyph glyph-name="Pi" unicode="&#x3a0;" horiz-adv-x="1340" 
d="M140 0v1440h1060v-1440h-84v1356h-892v-1356h-84z" />
    <glyph glyph-name="Rho" unicode="&#x3a1;" horiz-adv-x="1162" 
d="M140 0v1440h530q21 0 43 -1.5t49 -6.5q104 -16 180.5 -75.5t118 -150t41.5 -198.5t-41.5 -198.5t-118 -150t-180.5 -75.5q-27 -4 -49 -6t-43 -2h-446v-576h-84zM224 660h446q17 0 40.5 2t47.5 6q83 16 139.5 66t85.5 121.5t29 152.5t-29 152.5t-85.5 121.5t-139.5 66
q-24 5 -47.5 6.5t-40.5 1.5h-446v-696z" />
    <glyph glyph-name="Sigma" unicode="&#x3a3;" horiz-adv-x="1320" 
d="M140 0v80l630 640l-630 636v84h1040v-84h-898l614 -620v-32l-614 -620h860v-84h-1002z" />
    <glyph glyph-name="Tau" unicode="&#x3a4;" horiz-adv-x="1180" 
d="M548 0v1356h-528v84h1140v-84h-528v-1356h-84z" />
    <glyph glyph-name="Upsilon" unicode="&#x3a5;" horiz-adv-x="1038" 
d="M478 0v612l-478 828h96l424 -732l422 732h96l-476 -828v-612h-84z" />
    <glyph glyph-name="Phi" unicode="&#x3a6;" horiz-adv-x="1384" 
d="M650 0v182q-111 -19 -216.5 11t-189.5 105t-134 193t-50 275q0 158 50 275.5t134 192.5t189.5 105t216.5 11v90h84v-90q111 19 216.5 -11t189.5 -105t134 -192.5t50 -275.5q0 -157 -50 -275t-134 -193t-189.5 -105t-216.5 -11v-182h-84zM650 268v998
q-100 14 -190.5 -14.5t-160 -94.5t-109.5 -164.5t-40 -226.5q0 -127 40 -226t109.5 -164t160 -93t190.5 -15zM734 268q101 -13 191 15t159.5 93t109.5 164t40 226q0 128 -40 226.5t-109.5 164.5t-159.5 94.5t-191 14.5v-998z" />
    <glyph glyph-name="Chi" unicode="&#x3a7;" 
d="M20 0l506 730l-494 710h100l440 -642l442 642h100l-494 -710l506 -730h-100l-454 660l-452 -660h-100z" />
    <glyph glyph-name="Psi" unicode="&#x3a8;" horiz-adv-x="1380" 
d="M648 0v374q-121 3 -213.5 46t-156.5 115.5t-100 162.5q-28 72 -33 127t-5 85v530h84v-426q0 -37 2.5 -99t17.5 -125q35 -144 140 -239t264 -97v986h84v-986q159 0 264.5 96t139.5 240q15 63 17.5 125t2.5 99v426h84v-530q0 -30 -4.5 -85t-33.5 -127q-36 -91 -101 -163.5
t-157.5 -115.5t-211.5 -45v-374h-84z" />
    <glyph glyph-name="uni03A9" unicode="&#x3a9;" horiz-adv-x="1412" 
d="M60 0v84h314q-142 108 -228 276t-86 390q0 152 43 283t126 228.5t203 152t274 54.5t274 -54.5t203 -152t126 -228.5t43 -283q0 -222 -85.5 -390t-228.5 -276h312v-84h-452l2 84q78 41 160 127t139.5 214t62.5 295q4 133 -32.5 252.5t-109 212t-177 146t-237.5 53.5
q-131 0 -234 -52.5t-175 -144t-109.5 -209t-37.5 -248.5q0 -130 34 -236t89 -187.5t118 -137t121 -85.5v-84h-452z" />
    <glyph glyph-name="Iotadieresis" unicode="&#x3aa;" horiz-adv-x="404" 
d="M322 1680v120h120v-120h-120zM-38 1680v120h120v-120h-120zM160 0v1440h84v-1440h-84z" />
    <glyph glyph-name="Upsilondieresis" unicode="&#x3ab;" horiz-adv-x="1038" 
d="M640 1680v120h120v-120h-120zM280 1680v120h120v-120h-120zM478 0v612l-478 828h96l424 -732l422 732h96l-476 -828v-612h-84z" />
    <glyph glyph-name="alphatonos" unicode="&#x3ac;" horiz-adv-x="1192" 
d="M617 1260h-88l96 270h88zM550 -30q-153 0 -257.5 75.5t-158.5 204.5t-54 290q0 160 53.5 289t158.5 205t260 76q182 0 299.5 -107t142.5 -293l-20 -54v424h78v-1080h-78v428l20 -54q-25 -189 -144.5 -296.5t-299.5 -107.5zM550 54q127 0 212.5 64t128.5 174.5t43 249.5
q0 141 -43.5 250.5t-129 171.5t-211.5 62q-129 0 -213.5 -63.5t-125.5 -173t-41 -247.5q0 -139 43 -249.5t127.5 -174.5t209.5 -64z" />
    <glyph glyph-name="epsilontonos" unicode="&#x3ad;" horiz-adv-x="994" 
d="M514 1260h-88l96 270h88zM462 -30q-111 0 -197 40.5t-135.5 113t-49.5 168.5q0 62 23.5 125.5t73.5 108t131 50.5l-12 -40q-87 33 -139.5 100t-52.5 170q0 93 45.5 161.5t126 105.5t184.5 37q137 0 243 -46.5t181 -141.5l-66 -56q-57 72 -148.5 116t-199.5 44
q-115 0 -197.5 -55.5t-82.5 -166.5q0 -97 73 -150.5t199 -53.5h158v-82h-160q-110 0 -174.5 -25t-92 -73.5t-27.5 -119.5q0 -115 85 -180.5t223 -65.5q132 0 231 62t159 182l70 -40q-67 -136 -184.5 -212t-287.5 -76z" />
    <glyph glyph-name="etatonos" unicode="&#x3ae;" 
d="M649 1260h-88l96 270h88zM942 0v572q0 116 -23.5 200.5t-69.5 140t-111.5 82.5t-149.5 27q-99 0 -168.5 -34.5t-112.5 -94.5t-63 -138t-20 -165l-78 -2q0 185 61 298.5t161.5 165.5t219.5 52q82 0 150.5 -23t122 -66.5t90.5 -106.5t56 -143.5t19 -176.5v-588h-84zM140 0
v1080h78v-220h6v-860h-84z" />
    <glyph glyph-name="iotatonos" unicode="&#x3af;" horiz-adv-x="644" 
d="M250 1260h-88l96 270h88zM394 -10q-70 9 -122.5 42t-81.5 94q-24 53 -27 107.5t-3 124.5v722h84v-722q0 -70 0.5 -112t21.5 -84q23 -43 56.5 -63.5t81.5 -26.5q45 -4 92.5 -2.5t87.5 10.5v-80q-32 -7 -65 -10.5t-64.5 -3.5t-60.5 4z" />
    <glyph glyph-name="upsilondieresistonos" unicode="&#x3b0;" horiz-adv-x="1116" 
d="M120 492v588h84v-572q0 -115 23.5 -200t69.5 -140.5t111.5 -82.5t149.5 -27t149.5 27t111.5 82.5t69.5 140.5t23.5 200v572h84v-588q0 -96 -19 -176.5t-56 -143.5t-90.5 -106.5t-122 -66.5t-150.5 -23t-150.5 23t-122 66.5t-90.5 106.5t-56 143.5t-19 176.5zM717 1320
v120h120v-120h-120zM279 1320v120h120v-120h-120zM559 1260h-88l96 270h88z" />
    <glyph glyph-name="alpha" unicode="&#x3b1;" horiz-adv-x="1192" 
d="M550 -30q-153 0 -257.5 75.5t-158.5 204.5t-54 290q0 160 53.5 289t158.5 205t260 76q182 0 299.5 -107t142.5 -293l-20 -54v424h78v-1080h-78v428l20 -54q-25 -189 -144.5 -296.5t-299.5 -107.5zM550 54q127 0 212.5 64t128.5 174.5t43 249.5q0 141 -43.5 250.5
t-129 171.5t-211.5 62q-129 0 -213.5 -63.5t-125.5 -173t-41 -247.5q0 -139 43 -249.5t127.5 -174.5t209.5 -64z" />
    <glyph glyph-name="beta" unicode="&#x3b2;" horiz-adv-x="1086" 
d="M140 -480v1560q0 51 7.5 96.5t20.5 79.5q24 63 70.5 111.5t116 75.5t163.5 27q114 0 199 -42.5t132 -124t47 -199.5q0 -120 -52 -207t-156 -113q52 -4 111 -29.5t111 -73.5t85 -121t33 -174q0 -117 -51 -211t-150.5 -149.5t-244.5 -55.5q-123 0 -213.5 40.5t-146.5 107.5
v-598h-82zM586 56q103 0 182.5 42.5t124.5 117.5t45 174q0 156 -112.5 244t-307.5 94v84q76 10 141.5 42.5t106 94t40.5 157.5q0 129 -76 204.5t-210 75.5q-93 0 -167 -42t-103 -132q-12 -39 -16 -82.5t-4 -87.5v-634q0 -43 4.5 -80t11.5 -64q27 -93 123 -150.5t217 -57.5z
" />
    <glyph glyph-name="gamma" unicode="&#x3b3;" horiz-adv-x="956" 
d="M432 -360v360l-392 1080h90l348 -958l350 958h88l-392 -1080v-360h-92z" />
    <glyph glyph-name="delta" unicode="&#x3b4;" horiz-adv-x="1148" 
d="M574 -28q-160 0 -270 66.5t-167 185.5t-57 276q0 160 59 281t169.5 186t265.5 57v14q161 0 271 -67.5t166.5 -187.5t56.5 -277q0 -159 -57 -279t-167.5 -187.5t-269.5 -67.5zM574 56q203 0 303.5 124.5t100.5 329.5q0 204 -100.5 324t-303.5 120q-205 0 -304.5 -124
t-99.5 -324q0 -205 102.5 -327.5t301.5 -122.5zM716 946q-61 21 -143.5 41.5t-160 52t-129 84.5t-51.5 138q0 49 19 88.5t56 67t91 40.5q36 9 68.5 10.5t45.5 1.5h400v-76h-382q-27 0 -52 -2.5t-46 -7.5q-52 -12 -85 -42t-33 -80q0 -43 29.5 -76t86 -60.5t138 -54.5
t184.5 -59z" />
    <glyph glyph-name="epsilon" unicode="&#x3b5;" horiz-adv-x="994" 
d="M462 -30q-111 0 -197 40.5t-135.5 113t-49.5 168.5q0 62 23.5 125.5t73.5 108t131 50.5l-12 -40q-87 33 -139.5 100t-52.5 170q0 93 45.5 161.5t126 105.5t184.5 37q137 0 243 -46.5t181 -141.5l-66 -56q-57 72 -148.5 116t-199.5 44q-115 0 -197.5 -55.5t-82.5 -166.5
q0 -97 73 -150.5t199 -53.5h158v-82h-160q-110 0 -174.5 -25t-92 -73.5t-27.5 -119.5q0 -115 85 -180.5t223 -65.5q132 0 231 62t159 182l70 -40q-67 -136 -184.5 -212t-287.5 -76z" />
    <glyph glyph-name="zeta" unicode="&#x3b6;" horiz-adv-x="980" 
d="M858 -240q7 83 -5.5 131t-49 71.5t-100.5 30.5t-161 7q-80 0 -161.5 7.5t-149.5 39.5t-109.5 102.5t-41.5 196.5q0 66 20.5 139.5t83.5 171.5t192 237q27 28 93.5 98t157.5 165t193 199h-680v84h800v-84q-42 -44 -94.5 -98.5t-108.5 -112t-108.5 -111.5t-95 -98
t-67.5 -70q-122 -128 -186.5 -218t-88 -159.5t-23.5 -136.5q0 -105 45 -164t135 -83.5t226 -24.5q7 0 35.5 -0.5t65 -2.5t67.5 -7q63 -10 113 -42t74.5 -96.5t10.5 -171.5h-82z" />
    <glyph glyph-name="eta" unicode="&#x3b7;" 
d="M942 0v572q0 116 -23.5 200.5t-69.5 140t-111.5 82.5t-149.5 27q-99 0 -168.5 -34.5t-112.5 -94.5t-63 -138t-20 -165l-78 -2q0 185 61 298.5t161.5 165.5t219.5 52q82 0 150.5 -23t122 -66.5t90.5 -106.5t56 -143.5t19 -176.5v-588h-84zM140 0v1080h78v-220h6v-860h-84z
" />
    <glyph glyph-name="theta" unicode="&#x3b8;" horiz-adv-x="1276" 
d="M128 678v84h1018v-84h-1018zM638 -30q-144 0 -249.5 63t-173.5 169.5t-101.5 241t-33.5 276.5q0 143 33.5 276.5t101.5 240t173.5 169t249.5 62.5t249.5 -62.5t173.5 -169t101.5 -240t33.5 -276.5q0 -150 -33.5 -285t-101.5 -240t-173.5 -165t-249.5 -60zM638 54
q116 0 203 54t145.5 147.5t88.5 213.5t31 251q2 131 -27.5 250.5t-88.5 212.5t-147.5 147t-204.5 54t-203 -54t-145.5 -147t-88 -212.5t-31.5 -250.5q-1 -131 28 -251t88 -213.5t147.5 -147.5t204.5 -54z" />
    <glyph glyph-name="iota" unicode="&#x3b9;" horiz-adv-x="644" 
d="M394 -10q-70 9 -122.5 42t-81.5 94q-24 53 -27 107.5t-3 124.5v722h84v-722q0 -70 0.5 -112t21.5 -84q23 -43 56.5 -63.5t81.5 -26.5q45 -4 92.5 -2.5t87.5 10.5v-80q-32 -7 -65 -10.5t-64.5 -3.5t-60.5 4z" />
    <glyph glyph-name="kappa" unicode="&#x3ba;" horiz-adv-x="936" 
d="M140 0v1080h84v-520l540 520h126l-564 -540l650 -540h-144l-608 520v-520h-84z" />
    <glyph glyph-name="lambda" unicode="&#x3bb;" horiz-adv-x="996" 
d="M80 0l392 1080q-39 103 -66 173t-69.5 105.5t-126.5 35.5h-50v76h60q21 0 46 -1.5t44 -6.5q71 -15 115.5 -72t75.5 -139t63 -171l392 -1080h-90l-348 958l-350 -958h-88z" />
    <glyph glyph-name="uni03BC" unicode="&#x3bc;" horiz-adv-x="1166" 
d="M140 -480v1560h84v-572q0 -115 23.5 -200t69.5 -140.5t111.5 -82.5t149.5 -27q99 0 168.5 34.5t112.5 94.5t63 138t20 165v590h84v-1080h-78v174q-60 -103 -158 -150.5t-212 -47.5q-121 0 -212.5 49.5t-147.5 142.5v-648h-78z" />
    <glyph glyph-name="nu" unicode="&#x3bd;" horiz-adv-x="956" 
d="M432 0l-392 1080h88l350 -958l348 958h90l-392 -1080h-92z" />
    <glyph glyph-name="xi" unicode="&#x3be;" horiz-adv-x="1072" 
d="M984 -240q9 114 -19 164.5t-104.5 63t-212.5 12.5q-212 0 -336.5 53.5t-178 147t-53.5 213.5q0 150 70 238t188 118q-94 42 -153 128.5t-59 207.5q0 92 34.5 160.5t95 113.5t138.5 67.5t166 22.5q185 0 305.5 -89t186.5 -233l-88 -34q-66 129 -157.5 200.5t-246.5 71.5
q-148 0 -246 -69.5t-98 -212.5q0 -132 89 -207t249 -83q23 -1 60.5 -1.5t69 -0.5h36.5v-84h-19t-41.5 -1.5t-105.5 -4.5q-111 -5 -197.5 -30.5t-136.5 -88.5t-50 -179q0 -121 58 -197t172.5 -111.5t283.5 -35.5q7 0 39 -0.5t72.5 -2.5t72.5 -7q60 -9 111 -40.5t76.5 -96.5
t10.5 -173h-82z" />
    <glyph glyph-name="omicron" unicode="&#x3bf;" horiz-adv-x="1148" 
d="M574 -30q-160 0 -270 73t-167 202t-57 297q0 170 58 298t168.5 199t267.5 71q161 0 271 -72.5t166.5 -200.5t56.5 -295q0 -171 -57 -299.5t-167.5 -200.5t-269.5 -72zM574 54q204 0 304 135.5t100 352.5q0 221 -100.5 352.5t-303.5 131.5q-137 0 -226.5 -62t-133.5 -171
t-44 -251q0 -220 102.5 -354t301.5 -134z" />
    <glyph glyph-name="pi" unicode="&#x3c0;" horiz-adv-x="1280" 
d="M280 0v996h-240v84h1200v-84h-240v-996h-84v996h-552v-996h-84z" />
    <glyph glyph-name="rho" unicode="&#x3c1;" horiz-adv-x="1144" 
d="M140 -480v962q0 54 1.5 92t2.5 60q9 137 64 244.5t153 169.5t237 62q154 0 257.5 -75.5t156 -204.5t52.5 -288q0 -162 -54 -291.5t-157.5 -205t-252.5 -75.5q-133 0 -230.5 60t-145.5 156v-666h-84zM594 54q125 0 209.5 64t127.5 174.5t43 249.5q0 138 -41.5 247.5
t-125.5 173t-213 63.5q-126 0 -208 -61.5t-122 -170.5t-40 -250q0 -140 39.5 -251t121.5 -175t209 -64z" />
    <glyph glyph-name="uni03C2" unicode="&#x3c2;" horiz-adv-x="1078" 
d="M858 -240q10 115 -18.5 163.5t-101.5 60t-196 16.5q-131 5 -216 44.5t-135 99t-73.5 127t-30.5 131.5t-7 110q0 193 57 326.5t165.5 202.5t263.5 69q156 0 273 -69.5t169 -198.5l-80 -34q-45 104 -139 161t-219 57q-133 0 -221.5 -63.5t-133 -173.5t-45.5 -249
q-1 -59 11.5 -137t50 -152t112 -122.5t198.5 -48.5q24 0 59.5 -0.5t73 -2.5t67.5 -7q64 -10 114 -42.5t74 -97t10 -170.5h-82z" />
    <glyph glyph-name="sigma" unicode="&#x3c3;" horiz-adv-x="1168" 
d="M574 -30q-152 0 -263 71t-171 196.5t-60 288.5q0 150 50 267t142.5 190t221.5 91q36 5 80 5.5t80 0.5h474v-84h-356l44 28q117 -60 184.5 -192t67.5 -306q0 -163 -60 -288.5t-171 -196.5t-263 -71zM574 54q198 0 301 130.5t103 341.5q0 209 -103 339t-301 131
q-134 1 -224 -60.5t-135 -168t-45 -241.5q0 -214 106 -343t298 -129z" />
    <glyph glyph-name="tau" unicode="&#x3c4;" horiz-adv-x="990" 
d="M682 -10q-70 9 -122.5 42t-81.5 94q-24 53 -27 107.5t-3 124.5v638h-398v84h880v-84h-398v-638q0 -70 0.5 -112t21.5 -84q23 -43 56.5 -63.5t81.5 -26.5q45 -4 92.5 -2.5t87.5 10.5v-80q-32 -7 -64.5 -10.5t-64.5 -3.5t-61 4z" />
    <glyph glyph-name="upsilon" unicode="&#x3c5;" horiz-adv-x="1116" 
d="M120 492v588h84v-572q0 -115 23.5 -200t69.5 -140.5t111.5 -82.5t149.5 -27t149.5 27t111.5 82.5t69.5 140.5t23.5 200v572h84v-588q0 -96 -19 -176.5t-56 -143.5t-90.5 -106.5t-122 -66.5t-150.5 -23t-150.5 23t-122 66.5t-90.5 106.5t-56 143.5t-19 176.5z" />
    <glyph glyph-name="phi" unicode="&#x3c6;" horiz-adv-x="1436" 
d="M656 -450v428q-158 -25 -289 35t-209 194t-78 331t78 332t209 196t289 36v336h84v-336q158 25 289 -36t209 -196t78 -332t-78 -331t-209 -194t-289 -35v-428h-84zM656 62v956q-81 14 -166 -5t-158 -75.5t-117.5 -155t-44.5 -244.5t44.5 -244t117.5 -153.5t158 -73.5
t166 -5zM740 62q81 -13 166 5t158 73.5t117.5 153.5t44.5 244t-44.5 244.5t-117.5 155t-158 75.5t-166 5v-956z" />
    <glyph glyph-name="chi" unicode="&#x3c7;" horiz-adv-x="1018" 
d="M20 0l440 546l-430 534h104l376 -472l374 472h104l-430 -534l440 -546h-106l-382 484l-384 -484h-106z" />
    <glyph glyph-name="psi" unicode="&#x3c8;" horiz-adv-x="1340" 
d="M628 -450v420q-116 3 -209 46.5t-159 116t-102 161.5q-28 72 -33 128t-5 84v574h84v-470q0 -34 2.5 -98t17.5 -126q23 -96 82 -171.5t142.5 -119.5t179.5 -45v1030h84v-1030q96 1 179.5 45t142.5 119.5t82 171.5q15 62 17.5 126t2.5 98v470h84v-574q0 -28 -4.5 -84
t-33.5 -128q-34 -84 -98.5 -156.5t-158 -118.5t-213.5 -49v-420h-84z" />
    <glyph glyph-name="omega" unicode="&#x3c9;" horiz-adv-x="1524" 
d="M470 -32q-133 0 -219.5 63.5t-128.5 176.5t-42 262q0 224 91 380.5t293 259.5l44 -78q-181 -93 -259.5 -227.5t-78.5 -326.5q0 -121 32.5 -217.5t99.5 -152.5t170 -56q104 0 157.5 49t72 129t18.5 172v286h84v-286q0 -89 18 -169t71.5 -130.5t158.5 -50.5t171.5 57.5
t98.5 154t32 214.5q0 195 -79.5 329t-258.5 225l44 78q206 -105 295 -262t89 -378q0 -151 -43 -264t-129 -175.5t-216 -62.5q-118 0 -204 63.5t-106 196.5h32q-19 -133 -105 -196.5t-203 -63.5z" />
    <glyph glyph-name="iotadieresis" unicode="&#x3ca;" horiz-adv-x="604" 
d="M322 1320v120h120v-120h-120zM-38 1320v120h120v-120h-120zM394 -10q-70 9 -122.5 42t-81.5 94q-24 53 -27 107.5t-3 124.5v722h84v-722q0 -70 0.5 -112t21.5 -84q23 -43 56.5 -63.5t81.5 -26.5q45 -4 92.5 -2.5t87.5 10.5v-80q-32 -7 -65 -10.5t-64.5 -3.5t-60.5 4z" />
    <glyph glyph-name="upsilondieresis" unicode="&#x3cb;" horiz-adv-x="1116" 
d="M678 1320v120h120v-120h-120zM318 1320v120h120v-120h-120zM120 492v588h84v-572q0 -115 23.5 -200t69.5 -140.5t111.5 -82.5t149.5 -27t149.5 27t111.5 82.5t69.5 140.5t23.5 200v572h84v-588q0 -96 -19 -176.5t-56 -143.5t-90.5 -106.5t-122 -66.5t-150.5 -23
t-150.5 23t-122 66.5t-90.5 106.5t-56 143.5t-19 176.5z" />
    <glyph glyph-name="omicrontonos" unicode="&#x3cc;" horiz-adv-x="1148" 
d="M615 1260h-88l96 270h88zM574 -30q-160 0 -270 73t-167 202t-57 297q0 170 58 298t168.5 199t267.5 71q161 0 271 -72.5t166.5 -200.5t56.5 -295q0 -171 -57 -299.5t-167.5 -200.5t-269.5 -72zM574 54q204 0 304 135.5t100 352.5q0 221 -100.5 352.5t-303.5 131.5
q-137 0 -226.5 -62t-133.5 -171t-44 -251q0 -220 102.5 -354t301.5 -134z" />
    <glyph glyph-name="upsilontonos" unicode="&#x3cd;" horiz-adv-x="1116" 
d="M577 1260h-88l96 270h88zM120 492v588h84v-572q0 -115 23.5 -200t69.5 -140.5t111.5 -82.5t149.5 -27t149.5 27t111.5 82.5t69.5 140.5t23.5 200v572h84v-588q0 -96 -19 -176.5t-56 -143.5t-90.5 -106.5t-122 -66.5t-150.5 -23t-150.5 23t-122 66.5t-90.5 106.5
t-56 143.5t-19 176.5z" />
    <glyph glyph-name="omegatonos" unicode="&#x3ce;" horiz-adv-x="1524" 
d="M795 1260h-88l96 270h88zM470 -32q-133 0 -219.5 63.5t-128.5 176.5t-42 262q0 224 91 380.5t293 259.5l44 -78q-181 -93 -259.5 -227.5t-78.5 -326.5q0 -121 32.5 -217.5t99.5 -152.5t170 -56q104 0 157.5 49t72 129t18.5 172v286h84v-286q0 -89 18 -169t71.5 -130.5
t158.5 -50.5t171.5 57.5t98.5 154t32 214.5q0 195 -79.5 329t-258.5 225l44 78q206 -105 295 -262t89 -378q0 -151 -43 -264t-129 -175.5t-216 -62.5q-118 0 -204 63.5t-106 196.5h32q-19 -133 -105 -196.5t-203 -63.5z" />
    <glyph glyph-name="uni0400" unicode="&#x400;" horiz-adv-x="1120" 
d="M574 1620l-96 270h88l96 -270h-88zM140 0v1440h880v-84h-796v-594h676v-84h-676v-594h796v-84h-880z" />
    <glyph glyph-name="uni0401" unicode="&#x401;" horiz-adv-x="1120" 
d="M670 1680v120h120v-120h-120zM310 1680v120h120v-120h-120zM140 0v1440h880v-84h-796v-594h676v-84h-676v-594h796v-84h-880z" />
    <glyph glyph-name="uni0402" unicode="&#x402;" horiz-adv-x="1252" 
d="M140 0v1356h-140v84h540v-84h-322v-458q62 110 177 161t265 51q245 0 378.5 -133.5t133.5 -408.5q0 -168 -53 -296t-161 -200t-272 -72v84q126 0 216 58t138 169t48 271q0 154 -48 252t-143 145t-237 47q-160 0 -264.5 -62.5t-145.5 -203.5q-19 -69 -22.5 -142.5
t-3.5 -141.5v-476h-84z" />
    <glyph glyph-name="uni0403" unicode="&#x403;" horiz-adv-x="1040" 
d="M463 1620h-88l96 270h88zM140 0v1440h880v-84h-796v-1356h-84z" />
    <glyph glyph-name="uni0404" unicode="&#x404;" horiz-adv-x="1424" 
d="M746 -30q-214 0 -359.5 100t-218.5 270t-68 380q5 225 78.5 393.5t215.5 262.5t352 94q236 0 400 -130.5t218 -367.5l-88 -14q-42 198 -181 310.5t-349 115.5q-177 2 -298.5 -77.5t-186 -220.5t-71.5 -324h540v-84h-540q3 -114 29.5 -221t102.5 -209q75 -100 185 -146
t239 -48q192 -3 332 103.5t192 298.5l84 -24q-34 -143 -119.5 -246.5t-210.5 -159.5t-278 -56z" />
    <glyph glyph-name="uni0405" unicode="&#x405;" horiz-adv-x="1178" 
d="M618 -30q-146 0 -262.5 47.5t-193 134.5t-102.5 206l84 16q39 -148 166 -234t308 -86q126 0 220 40t146 112.5t52 169.5q0 73 -27 122t-68.5 79.5t-86.5 48.5t-80 28l-360 108q-78 23 -134.5 56t-92.5 75t-53.5 92t-17.5 107q0 110 59.5 195.5t165.5 134t245 48.5
q141 0 253 -52t183.5 -146.5t89.5 -221.5l-84 -16q-14 105 -74 184.5t-155 123.5t-213 44q-113 0 -198.5 -39t-133.5 -105t-48 -148q0 -86 46.5 -137.5t113.5 -80t128 -46.5l298 -90q38 -11 93 -32.5t108.5 -61.5t89 -105.5t35.5 -164.5q0 -93 -35 -168t-101 -128
t-158 -81.5t-206 -28.5z" />
    <glyph glyph-name="uni0406" unicode="&#x406;" horiz-adv-x="404" 
d="M160 0v1440h84v-1440h-84z" />
    <glyph glyph-name="uni0407" unicode="&#x407;" horiz-adv-x="404" 
d="M322 1680v120h120v-120h-120zM-38 1680v120h120v-120h-120zM160 0v1440h84v-1440h-84z" />
    <glyph glyph-name="uni0408" unicode="&#x408;" horiz-adv-x="878" 
d="M358 -28q-130 0 -229 76t-129 202l86 20q23 -91 97 -152.5t179 -61.5q65 0 130 30t104 100q27 50 31.5 105t4.5 133v1016h84v-1016q0 -55 -1 -102.5t-10.5 -91.5t-34.5 -88q-48 -84 -130.5 -127t-181.5 -43z" />
    <glyph glyph-name="uni0409" unicode="&#x409;" horiz-adv-x="2166" 
d="M1124 0v1440h84v-576h446q21 0 43 -1.5t49 -6.5q104 -16 180.5 -75.5t118 -150t41.5 -198.5t-41.5 -198.5t-118 -150t-180.5 -75.5q-27 -4 -49 -6t-43 -2h-530zM1208 84h446q17 0 40.5 2t47.5 6q83 16 139.5 66t85.5 121.5t29 152.5t-29 152.5t-85.5 121.5t-139.5 66
q-24 5 -47.5 6.5t-40.5 1.5h-446v-696zM20 0v84q60 -7 97.5 2t60.5 45t39.5 111t34.5 200q17 114 29 220.5t22 220.5t18 249.5t15 307.5h872v-1440h-84v1356h-700q-8 -127 -15 -244t-15.5 -232t-20.5 -235.5t-31 -256.5q-13 -91 -30.5 -172.5t-50.5 -139.5t-90.5 -80.5
t-150.5 4.5z" />
    <glyph glyph-name="uni040A" unicode="&#x40a;" horiz-adv-x="2058" 
d="M140 0v1440h84v-576h848v-84h-848v-780h-84zM1016 0v1440h84v-576h446q21 0 43 -1.5t49 -6.5q104 -16 180.5 -75.5t118 -150t41.5 -198.5t-41.5 -198.5t-118 -150t-180.5 -75.5q-27 -4 -49 -6t-43 -2h-530zM1100 84h446q17 0 40.5 2t47.5 6q83 16 139.5 66t85.5 121.5
t29 152.5t-29 152.5t-85.5 121.5t-139.5 66q-24 5 -47.5 6.5t-40.5 1.5h-446v-696z" />
    <glyph glyph-name="uni040B" unicode="&#x40b;" horiz-adv-x="1254" 
d="M0 1356v84h540v-84h-540zM224 1440v-700l-42 64q75 50 175 82t233 32q191 0 306 -68t166.5 -187t51.5 -271v-392h-84v356q0 119 -26 207.5t-79.5 148t-134 89t-190.5 29.5q-144 0 -249.5 -41t-158.5 -91l32 116v-814h-84v1440h84z" />
    <glyph glyph-name="uni040C" unicode="&#x40c;" horiz-adv-x="1116" 
d="M140 0v1440h84v-688l712 688h116l-706 -688l770 -752h-116l-776 752v-752h-84zM635 1620h-88l96 270h88z" />
    <glyph glyph-name="uni040D" unicode="&#x40d;" horiz-adv-x="1324" 
d="M140 0v1440h84v-1290l876 1290h84v-1440h-84v1292l-876 -1292h-84zM642 1620l-96 270h88l96 -270h-88z" />
    <glyph glyph-name="uni040E" unicode="&#x40e;" horiz-adv-x="1228" 
d="M590 1572q-63 0 -115 31t-82.5 82.5t-30.5 114.5h78q0 -61 44.5 -105.5t105.5 -44.5q63 0 106.5 44.5t43.5 105.5h78q0 -63 -30.5 -114.5t-82.5 -82.5t-115 -31zM418 0l144 310l-522 1130h90l476 -1036l482 1036h90l-664 -1440h-96z" />
    <glyph glyph-name="uni040F" unicode="&#x40f;" horiz-adv-x="1420" 
d="M668 -240v240h-528v1440h84v-1356h972v1356h84v-1440h-528v-240h-84z" />
    <glyph glyph-name="uni0410" unicode="&#x410;" horiz-adv-x="1218" 
d="M40 0l524 1440h90l524 -1440h-90l-510 1402h60l-508 -1402h-90zM240 374v80h736v-80h-736z" />
    <glyph glyph-name="uni0411" unicode="&#x411;" horiz-adv-x="1162" 
d="M140 0v1440h840v-84h-756v-492h446q21 0 43 -1.5t49 -6.5q104 -16 180.5 -75.5t118 -150t41.5 -198.5t-41.5 -198.5t-118 -150t-180.5 -75.5q-27 -4 -49 -6t-43 -2h-530zM224 84h446q17 0 40.5 2t47.5 6q125 24 189.5 121.5t64.5 218.5q0 122 -64.5 219t-189.5 121
q-24 5 -47.5 6.5t-40.5 1.5h-446v-696z" />
    <glyph glyph-name="uni0412" unicode="&#x412;" horiz-adv-x="1202" 
d="M140 0v1440h546q104 0 192 -44.5t141 -124.5t53 -185q0 -114 -66 -209.5t-174 -134.5l-4 48q143 -46 229.5 -147.5t86.5 -254.5q0 -123 -56 -209.5t-151.5 -132.5t-212.5 -46h-584zM224 84h460q104 0 187.5 35t132 101t48.5 160t-44.5 170.5t-119 122t-164.5 45.5h-500
v-634zM224 800h462q81 0 148.5 39t107.5 105t40 148q0 120 -85.5 193t-210.5 73h-462v-558z" />
    <glyph glyph-name="uni0413" unicode="&#x413;" horiz-adv-x="1040" 
d="M140 0v1440h880v-84h-796v-1356h-84z" />
    <glyph glyph-name="uni0414" unicode="&#x414;" horiz-adv-x="1456" 
d="M80 -240v324q93 0 146.5 47.5t80 124.5t39 169.5t22.5 182.5q16 139 25 267t15 264.5t14 300.5h854v-1356h100v-324h-84v240h-1128v-240h-84zM298 84h894v1272h-688q-6 -133 -12.5 -263t-16 -261.5t-23.5 -267.5q-12 -120 -29 -215t-46.5 -162t-78.5 -103z" />
    <glyph glyph-name="uni0415" unicode="&#x415;" horiz-adv-x="1120" 
d="M140 0v1440h880v-84h-796v-594h676v-84h-676v-594h796v-84h-880z" />
    <glyph glyph-name="uni0416" unicode="&#x416;" horiz-adv-x="1748" 
d="M20 0l702 752l-638 688h116l632 -688v688h84v-688l632 688h116l-638 -688l702 -752h-116l-696 752v-752h-84v752l-696 -752h-116z" />
    <glyph glyph-name="uni0417" unicode="&#x417;" horiz-adv-x="1122" 
d="M568 -30q-144 0 -247 42t-167.5 112.5t-93.5 155.5l86 36q24 -77 80.5 -136t143 -92.5t200.5 -33.5q124 0 214 40.5t139 117t49 184.5q0 112 -50 174.5t-137 89t-197 30.5q-74 3 -105.5 4.5t-41.5 1.5h-19v84h37t69.5 0.5t59.5 1.5q162 8 250 90t88 212q0 144 -98.5 223
t-251.5 79q-145 0 -239 -71.5t-159 -200.5l-88 34q65 144 188 233t300 89q89 0 168.5 -25t140 -73.5t95 -120.5t34.5 -167q0 -129 -61 -218.5t-151 -127.5q119 -30 188.5 -116.5t69.5 -229.5q0 -127 -58 -222t-168.5 -147.5t-267.5 -52.5z" />
    <glyph glyph-name="uni0418" unicode="&#x418;" horiz-adv-x="1324" 
d="M1184 0h-84v1292l-876 -1292h-84v1440h84v-1290l876 1290h84v-1440z" />
    <glyph glyph-name="uni0419" unicode="&#x419;" horiz-adv-x="1324" 
d="M140 0v1440h84v-1290l876 1290h84v-1440h-84v1292l-876 -1292h-84zM682 1572q-63 0 -114.5 31t-82.5 82.5t-31 114.5h78q0 -61 44.5 -105.5t105.5 -44.5q63 0 106.5 44.5t43.5 105.5h78q0 -63 -30.5 -114.5t-82.5 -82.5t-115 -31z" />
    <glyph glyph-name="uni041A" unicode="&#x41a;" horiz-adv-x="1116" 
d="M140 0v1440h84v-688l712 688h116l-706 -688l770 -752h-116l-776 752v-752h-84z" />
    <glyph glyph-name="uni041B" unicode="&#x41b;" horiz-adv-x="1368" 
d="M40 0v84q60 -7 97.5 2t60.5 45t39.5 111t34.5 200q17 114 29 220.5t22 220.5t18 249.5t15 307.5h872v-1440h-84v1356h-700q-8 -127 -15 -244t-15.5 -232t-20.5 -235.5t-31 -256.5q-13 -91 -30.5 -172.5t-50.5 -139.5t-90.5 -80.5t-150.5 4.5z" />
    <glyph glyph-name="uni041C" unicode="&#x41c;" horiz-adv-x="1662" 
d="M140 0v1440h80l612 -1338l606 1338h84v-1438h-84v1236l-560 -1238h-94l-560 1238v-1238h-84z" />
    <glyph glyph-name="uni041D" unicode="&#x41d;" horiz-adv-x="1320" 
d="M140 0v1440h84v-678h872v678h84v-1440h-84v678h-872v-678h-84z" />
    <glyph glyph-name="uni041E" unicode="&#x41e;" horiz-adv-x="1412" 
d="M706 -30q-215 0 -358.5 96t-215.5 265t-72 389t72 389t215.5 265t358.5 96t358.5 -96t215.5 -265t72 -389t-72 -389t-215.5 -265t-358.5 -96zM706 54q185 0 308.5 85.5t185.5 235.5t62 345t-62 345.5t-185.5 235.5t-308.5 85t-307.5 -85t-184.5 -235.5t-64 -345.5
t60 -345t186.5 -235.5t309.5 -85.5z" />
    <glyph glyph-name="uni041F" unicode="&#x41f;" horiz-adv-x="1340" 
d="M140 0v1440h1060v-1440h-84v1356h-892v-1356h-84z" />
    <glyph glyph-name="uni0420" unicode="&#x420;" horiz-adv-x="1162" 
d="M140 0v1440h530q21 0 43 -1.5t49 -6.5q104 -16 180.5 -75.5t118 -150t41.5 -198.5t-41.5 -198.5t-118 -150t-180.5 -75.5q-27 -4 -49 -6t-43 -2h-446v-576h-84zM224 660h446q17 0 40.5 2t47.5 6q83 16 139.5 66t85.5 121.5t29 152.5t-29 152.5t-85.5 121.5t-139.5 66
q-24 5 -47.5 6.5t-40.5 1.5h-446v-696z" />
    <glyph glyph-name="uni0421" unicode="&#x421;" horiz-adv-x="1400" 
d="M706 -30q-215 0 -358.5 96t-215.5 265t-72 389t72 389t215.5 265t358.5 96q252 0 406 -131.5t208 -350.5l-88 -20q-48 191 -179.5 304.5t-346.5 113.5q-185 0 -307.5 -85t-184.5 -235.5t-64 -345.5t60 -345t186.5 -235.5t309.5 -85.5q215 0 346.5 114t179.5 304l88 -20
q-54 -219 -208 -350.5t-406 -131.5z" />
    <glyph glyph-name="uni0422" unicode="&#x422;" horiz-adv-x="1180" 
d="M548 0v1356h-528v84h1140v-84h-528v-1356h-84z" />
    <glyph glyph-name="uni0423" unicode="&#x423;" horiz-adv-x="1228" 
d="M418 0l144 310l-522 1130h90l476 -1036l482 1036h90l-664 -1440h-96z" />
    <glyph glyph-name="uni0424" unicode="&#x424;" horiz-adv-x="1384" 
d="M650 0v182q-111 -19 -216.5 11t-189.5 105t-134 193t-50 275q0 158 50 275.5t134 192.5t189.5 105t216.5 11v90h84v-90q111 19 216.5 -11t189.5 -105t134 -192.5t50 -275.5q0 -157 -50 -275t-134 -193t-189.5 -105t-216.5 -11v-182h-84zM650 268v998
q-100 14 -190.5 -14.5t-160 -94.5t-109.5 -164.5t-40 -226.5q0 -127 40 -226t109.5 -164t160 -93t190.5 -15zM734 268q101 -13 191 15t159.5 93t109.5 164t40 226q0 128 -40 226.5t-109.5 164.5t-159.5 94.5t-191 14.5v-998z" />
    <glyph glyph-name="uni0425" unicode="&#x425;" 
d="M20 0l506 730l-494 710h100l440 -642l442 642h100l-494 -710l506 -730h-100l-454 660l-452 -660h-100z" />
    <glyph glyph-name="uni0426" unicode="&#x426;" horiz-adv-x="1388" 
d="M1284 -160v160h-1144v1440h84v-1356h912v1356h84v-1356h148v-244h-84z" />
    <glyph glyph-name="uni0427" unicode="&#x427;" horiz-adv-x="1254" 
d="M1030 0v700l42 -64q-75 -49 -174.5 -81.5t-233.5 -32.5q-191 0 -306 68t-166.5 187t-51.5 271v392h84v-356q0 -118 26 -207t79.5 -148.5t134.5 -89t190 -29.5q144 0 250 41.5t158 90.5l-32 -116v814h84v-1440h-84z" />
    <glyph glyph-name="uni0428" unicode="&#x428;" horiz-adv-x="1760" 
d="M140 0v1440h84v-1356h614v1356h84v-1356h614v1356h84v-1440h-1480z" />
    <glyph glyph-name="uni0429" unicode="&#x429;" horiz-adv-x="1788" 
d="M1684 -160v160h-140v84h224v-244h-84zM140 0v1440h84v-1356h614v1356h84v-1356h614v1356h84v-1440h-1480z" />
    <glyph glyph-name="uni042A" unicode="&#x42a;" horiz-adv-x="1182" 
d="M160 0v1356h-180v84h264v-576h446q21 0 43 -1.5t49 -6.5q104 -16 180.5 -75.5t118 -150t41.5 -198.5t-41.5 -198.5t-118 -150t-180.5 -75.5q-27 -4 -49 -6t-43 -2h-530zM244 84h446q17 0 40.5 2t47.5 6q83 16 139.5 66t85.5 121.5t29 152.5t-29 152.5t-85.5 121.5
t-139.5 66q-24 5 -47.5 6.5t-40.5 1.5h-446v-696z" />
    <glyph glyph-name="uni042B" unicode="&#x42b;" horiz-adv-x="1466" 
d="M140 0v1440h84v-576h446q21 0 43 -1.5t49 -6.5q104 -16 180.5 -75.5t118 -150t41.5 -198.5t-41.5 -198.5t-118 -150t-180.5 -75.5q-27 -4 -49 -6t-43 -2h-530zM224 84h446q17 0 40.5 2t47.5 6q83 16 139.5 66t85.5 121.5t29 152.5t-29 152.5t-85.5 121.5t-139.5 66
q-24 5 -47.5 6.5t-40.5 1.5h-446v-696zM1242 0v1440h84v-1440h-84z" />
    <glyph glyph-name="uni042C" unicode="&#x42c;" horiz-adv-x="1182" 
d="M140 0v1440h84v-576h446q21 0 43 -1.5t49 -6.5q104 -16 180.5 -75.5t118 -150t41.5 -198.5t-41.5 -198.5t-118 -150t-180.5 -75.5q-27 -4 -49 -6t-43 -2h-530zM224 84h446q17 0 40.5 2t47.5 6q83 16 139.5 66t85.5 121.5t29 152.5t-29 152.5t-85.5 121.5t-139.5 66
q-24 5 -47.5 6.5t-40.5 1.5h-446v-696z" />
    <glyph glyph-name="uni042D" unicode="&#x42d;" horiz-adv-x="1384" 
d="M678 -30q-153 0 -278 56t-210.5 159.5t-119.5 246.5l84 24q53 -192 192.5 -298.5t331.5 -103.5q129 2 239 48t185 146q77 102 103 209t29 221h-540v84h540q-7 183 -71.5 324t-186 220.5t-298.5 77.5q-210 -3 -349 -115.5t-181 -310.5l-88 14q54 237 218.5 367.5
t399.5 130.5q210 0 352 -94t215.5 -262.5t78.5 -393.5q5 -210 -67.5 -380t-218.5 -270t-360 -100z" />
    <glyph glyph-name="uni042E" unicode="&#x42e;" horiz-adv-x="1796" 
d="M140 0v1440h84v-678h468v-84h-468v-678h-84zM1178 -30q-144 0 -249.5 63t-173.5 169.5t-101.5 241t-33.5 276.5q0 143 33.5 276.5t101.5 240t173.5 169t249.5 62.5t249.5 -62.5t173.5 -169t101.5 -240t33.5 -276.5q0 -150 -33.5 -285t-101.5 -240t-173.5 -165t-249.5 -60
zM1178 54q116 0 203 54t145.5 147.5t88.5 213.5t31 251q2 131 -27.5 250.5t-88.5 212.5t-147.5 147t-204.5 54t-203 -54t-145.5 -147t-88 -212.5t-31.5 -250.5q-1 -131 28 -251t88 -213.5t147.5 -147.5t204.5 -54z" />
    <glyph glyph-name="uni042F" unicode="&#x42f;" horiz-adv-x="1222" 
d="M1082 0h-84v576h-550l-16 14q-144 32 -228 148t-84 270q0 108 41.5 198.5t118 150t180.5 75.5q27 5 49 6.5t43 1.5h530v-1440zM180 0h-100l312 640l72 -54zM998 660v696h-446q-16 0 -40 -1.5t-48 -6.5q-83 -16 -139.5 -66t-85.5 -121.5t-29 -152.5t29 -152.5t85.5 -121.5
t139.5 -66q24 -4 48 -6t40 -2h446z" />
    <glyph glyph-name="uni0430" unicode="&#x430;" horiz-adv-x="1084" 
d="M454 -30q-126 0 -209 44t-124 116t-41 156q0 95 41.5 157.5t108.5 98.5t144 52q94 19 201.5 33.5t198.5 24.5t136 16l-30 -20q5 191 -69.5 284.5t-262.5 93.5q-136 0 -218.5 -60.5t-115.5 -185.5l-92 24q36 150 147.5 228t282.5 78q150 0 250 -61t136 -165q14 -40 20 -97
t6 -111v-676h-78v296l40 -2q-43 -154 -171 -239t-301 -85zM450 54q117 0 206.5 42t145 121.5t70.5 190.5q8 56 8 120v92l44 -34q-53 -5 -146.5 -13.5t-197.5 -22t-188 -34.5q-49 -12 -101 -38t-87.5 -73t-35.5 -121q0 -52 26 -105t87.5 -89t168.5 -36z" />
    <glyph glyph-name="uni0431" unicode="&#x431;" 
d="M562 -30q-149 0 -257 63.5t-166.5 197.5t-58.5 345q0 85 8.5 182.5t22 182.5t27.5 133q23 77 71 144.5t115 109.5q59 39 138.5 61.5t165.5 35.5t166.5 22.5t141.5 22.5l12 -80q-53 -9 -129.5 -19t-161 -25t-161.5 -38t-132 -58q-87 -52 -133.5 -162.5t-58.5 -263.5
q62 101 171 157.5t245 56.5q147 0 254.5 -66.5t165.5 -187t58 -282.5t-59.5 -281.5t-172.5 -185t-272 -65.5zM572 54q198 0 301 123t103 327q0 209 -107 329.5t-299 120.5t-296 -120.5t-104 -329.5q0 -207 103 -328.5t299 -121.5z" />
    <glyph glyph-name="uni0432" unicode="&#x432;" horiz-adv-x="1040" 
d="M140 0v1080h414q21 0 71.5 -3t98.5 -15q99 -25 151.5 -103.5t52.5 -174.5q0 -51 -14.5 -96.5t-43.5 -81.5q-13 -18 -31 -32.5t-35 -23.5q27 -6 66 -32q59 -39 84.5 -99.5t25.5 -132.5q0 -112 -53.5 -179.5t-134.5 -90.5q-42 -12 -87.5 -14t-80.5 -2h-484zM224 84h400
q21 0 57.5 3t64.5 9q75 17 109.5 70.5t34.5 119.5q0 86 -53 142t-145 66q-24 3 -50.5 3.5t-49.5 0.5h-368v-414zM224 582h370q23 0 57 3.5t61 12.5q65 21 95.5 74t30.5 114q0 68 -33 118.5t-95 71.5q-43 15 -88.5 17.5t-57.5 2.5h-340v-414z" />
    <glyph glyph-name="uni0433" unicode="&#x433;" horiz-adv-x="910" 
d="M140 0v1080h720v-84h-636v-996h-84z" />
    <glyph glyph-name="uni0434" unicode="&#x434;" horiz-adv-x="1150" 
d="M60 -240v324q95 0 137 59t69 179q19 83 31 181t21 236t18 341h654v-996h100v-324h-84v240h-862v-240h-84zM260 84h646v912h-484q-4 -87 -10.5 -187t-15 -200t-21 -187t-29.5 -148q-18 -63 -36 -112t-50 -78z" />
    <glyph glyph-name="uni0435" unicode="&#x435;" 
d="M574 -30q-153 0 -263.5 69t-170.5 197t-60 304q0 177 59.5 305t170 196.5t264.5 68.5q155 0 265 -70t168.5 -203t58.5 -321h-90v28q-6 233 -109.5 357.5t-292.5 124.5q-192 0 -298 -127.5t-106 -358.5t106 -358.5t298 -127.5q134 0 235 63t161 181l70 -40
q-66 -138 -187 -213t-279 -75zM134 516v84h880v-84h-880z" />
    <glyph glyph-name="uni0436" unicode="&#x436;" horiz-adv-x="1308" 
d="M20 0l496 540l-480 540h100l476 -540v540h84v-540l476 540h100l-480 -540l496 -540h-100l-492 540v-540h-84v540l-492 -540h-100z" />
    <glyph glyph-name="uni0437" unicode="&#x437;" horiz-adv-x="994" 
d="M532 -30q-169 0 -286.5 76t-185.5 212l70 40q60 -120 159 -182t231 -62q138 0 223 65.5t85 180.5q0 71 -27.5 119.5t-92 73.5t-174.5 25h-160v82h158q126 0 199 53.5t73 150.5q0 111 -82 166.5t-198 55.5q-108 0 -199.5 -44t-148.5 -116l-66 56q75 95 181.5 141.5
t242.5 46.5q104 0 184.5 -37t126 -105.5t45.5 -161.5q0 -103 -52.5 -170t-139.5 -100l-12 40q81 -6 131.5 -50.5t73.5 -108t23 -125.5q0 -96 -49 -168.5t-135.5 -113t-197.5 -40.5z" />
    <glyph glyph-name="uni0438" unicode="&#x438;" horiz-adv-x="1086" 
d="M946 1080v-1080h-84v932l-644 -932h-78v1080h84v-932l644 932h78z" />
    <glyph glyph-name="uni0439" unicode="&#x439;" horiz-adv-x="1086" 
d="M554 1212q-63 0 -115 31t-82.5 82.5t-30.5 114.5h78q0 -61 44.5 -105.5t105.5 -44.5q63 0 106.5 44.5t43.5 105.5h78q0 -63 -30.5 -114.5t-82.5 -82.5t-115 -31zM946 1080v-1080h-84v932l-644 -932h-78v1080h84v-932l644 932h78z" />
    <glyph glyph-name="uni043A" unicode="&#x43a;" horiz-adv-x="936" 
d="M140 0v1080h84v-520l540 520h126l-564 -540l650 -540h-144l-608 520v-520h-84z" />
    <glyph glyph-name="uni043B" unicode="&#x43b;" horiz-adv-x="1112" 
d="M40 0v80q61 -11 92 7.5t45 59.5t23 97q17 103 30 222.5t24.5 269.5t23.5 344h694v-1080h-84v996h-524q-9 -133 -19 -254.5t-21 -227.5t-23 -192.5t-25 -149.5q-14 -70 -35 -113.5t-67 -58.5t-134 0z" />
    <glyph glyph-name="uni043C" unicode="&#x43c;" horiz-adv-x="1340" 
d="M140 0v1080h86l444 -976l444 976h86v-1080h-84v880l-400 -880h-92l-400 880v-880h-84z" />
    <glyph glyph-name="uni043D" unicode="&#x43d;" horiz-adv-x="1140" 
d="M140 0v1080h84v-498h692v498h84v-1080h-84v498h-692v-498h-84z" />
    <glyph glyph-name="uni043E" unicode="&#x43e;" horiz-adv-x="1148" 
d="M574 -30q-160 0 -270 73t-167 202t-57 297q0 170 58 298t168.5 199t267.5 71q161 0 271 -72.5t166.5 -200.5t56.5 -295q0 -171 -57 -299.5t-167.5 -200.5t-269.5 -72zM574 54q204 0 304 135.5t100 352.5q0 221 -100.5 352.5t-303.5 131.5q-137 0 -226.5 -62t-133.5 -171
t-44 -251q0 -220 102.5 -354t301.5 -134z" />
    <glyph glyph-name="uni043F" unicode="&#x43f;" horiz-adv-x="1086" 
d="M140 0v1080h806v-1080h-84v996h-638v-996h-84z" />
    <glyph glyph-name="uni0440" unicode="&#x440;" horiz-adv-x="1152" 
d="M602 -30q-143 0 -243 76t-152.5 205.5t-52.5 290.5q0 164 53 292.5t156.5 202t254.5 73.5q145 0 246.5 -75.5t154.5 -204.5t53 -288q0 -162 -54 -291.5t-158.5 -205t-257.5 -75.5zM140 -480v1560h78v-850h6v-710h-84zM602 54q125 0 209.5 64t127.5 174.5t43 249.5
q0 138 -41.5 247.5t-125.5 173t-213 63.5q-126 0 -211.5 -62t-129 -171.5t-43.5 -250.5q0 -139 43 -249.5t128.5 -174.5t212.5 -64z" />
    <glyph glyph-name="uni0441" unicode="&#x441;" horiz-adv-x="1078" 
d="M574 -30q-161 0 -270 72t-165 200.5t-59 297.5q3 173 59.5 301t165.5 198.5t269 70.5q150 0 267.5 -71.5t166.5 -196.5l-80 -34q-45 104 -138.5 161t-215.5 57q-136 0 -225 -61.5t-133 -171t-46 -253.5q3 -220 104 -353t300 -133q119 0 211 55t141 161l82 -36
q-67 -130 -177 -197t-257 -67z" />
    <glyph glyph-name="uni0442" unicode="&#x442;" horiz-adv-x="980" 
d="M448 0v996h-398v84h880v-84h-398v-996h-84z" />
    <glyph glyph-name="uni0443" unicode="&#x443;" horiz-adv-x="1012" 
d="M302 -480l210 564l2 -168l-474 1164h92l424 -1048h-64l380 1048h90l-566 -1560h-94z" />
    <glyph glyph-name="uni0444" unicode="&#x444;" horiz-adv-x="1396" 
d="M656 -450v428q-158 -25 -289 35t-209 194t-78 331t78 332t209 196t289 36v336h84v-336q158 25 289 -36t209 -196t78 -332t-78 -331t-209 -194t-289 -35v-428h-84zM656 62v956q-81 14 -166 -5t-158 -75.5t-117.5 -155t-44.5 -244.5t44.5 -244t117.5 -153.5t158 -73.5
t166 -5zM740 62q81 -13 166 5t158 73.5t117.5 153.5t44.5 244t-44.5 244.5t-117.5 155t-158 75.5t-166 5v-956z" />
    <glyph glyph-name="uni0445" unicode="&#x445;" horiz-adv-x="1018" 
d="M20 0l440 546l-430 534h104l376 -472l374 472h104l-430 -534l440 -546h-106l-382 484l-384 -484h-106z" />
    <glyph glyph-name="uni0446" unicode="&#x446;" horiz-adv-x="1188" 
d="M1084 -160v160h-944v1080h84v-996h638v996h84v-996h222v-244h-84z" />
    <glyph glyph-name="uni0447" unicode="&#x447;" horiz-adv-x="1046" 
d="M822 0v428q-52 -27 -136.5 -49.5t-183.5 -22.5q-162 0 -266 71.5t-136 206.5q-10 42 -14 88.5t-5 84t-1 51.5v222h84v-222q0 -40 2 -82t8 -80q21 -129 105 -197.5t235 -68.5q86 0 168.5 21.5t139.5 60.5v568h84v-1080h-84z" />
    <glyph glyph-name="uni0448" unicode="&#x448;" horiz-adv-x="1474" 
d="M140 0v1080h84v-996h472v996h84v-996h470v996h84v-1080h-1194z" />
    <glyph glyph-name="uni0449" unicode="&#x449;" horiz-adv-x="1522" 
d="M1418 -160v160h-1278v1080h84v-996h472v996h84v-996h470v996h84v-996h168v-244h-84z" />
    <glyph glyph-name="uni044A" unicode="&#x44a;" horiz-adv-x="1064" 
d="M182 0l-2 996h-140v84h226v-438h292q48 0 86 -2t72 -8q72 -12 133 -46t98 -98t37 -166q0 -136 -70.5 -212t-163.5 -96q-42 -9 -83.5 -11.5t-88.5 -2.5h-396zM266 84h288q41 0 93 2t89 12q59 17 108.5 64.5t49.5 159.5q0 108 -46.5 158t-129.5 66q-37 8 -80 10t-84 2h-288
v-474z" />
    <glyph glyph-name="uni044B" unicode="&#x44b;" horiz-adv-x="1248" 
d="M142 0l-2 1080h86v-438h232q48 0 86 -2t72 -8q72 -13 133 -47t98 -97.5t37 -165.5q0 -136 -70.5 -212t-163.5 -96q-42 -9 -83.5 -11.5t-88.5 -2.5h-336zM226 84h228q41 0 93 2t89 12q59 17 108.5 64.5t49.5 159.5q0 108 -46.5 158t-129.5 66q-37 8 -80 10t-84 2h-228
v-474zM1024 0v1080h84v-1080h-84z" />
    <glyph glyph-name="uni044C" unicode="&#x44c;" horiz-adv-x="1024" 
d="M142 0l-2 1080h86v-438h292q48 0 86 -2t72 -8q72 -12 133 -46t98 -98t37 -166q0 -136 -70.5 -212t-163.5 -96q-42 -9 -83.5 -11.5t-88.5 -2.5h-396zM226 84h288q41 0 93 2t89 12q59 17 108.5 64.5t49.5 159.5q0 108 -46.5 158t-129.5 66q-37 8 -80 10t-84 2h-288v-474z
" />
    <glyph glyph-name="uni044D" unicode="&#x44d;" horiz-adv-x="1078" 
d="M506 -30q-148 0 -258 67t-178 197l82 36q50 -106 142 -161t210 -55q191 0 290.5 121t111.5 323h-566v84h566q-10 200 -109 322t-293 122q-121 0 -215 -57t-139 -161l-80 34q50 125 167.5 196.5t274.5 71.5q155 0 263.5 -70.5t165.5 -198.5t57 -301q0 -175 -58.5 -303
t-168.5 -197.5t-265 -69.5z" />
    <glyph glyph-name="uni044E" unicode="&#x44e;" horiz-adv-x="1502" 
d="M928 -30q-153 0 -260.5 67t-166 186t-65.5 275h-212v-498h-84v1080h84v-498h210q7 159 67 278t167.5 184.5t257.5 65.5q162 0 272.5 -72.5t167 -200.5t56.5 -295q0 -170 -57 -299t-167 -201t-270 -72zM924 54q207 0 307.5 134t100.5 354q0 222 -101.5 353t-304.5 131
q-190 0 -296 -127t-106 -357q0 -220 102 -354t298 -134z" />
    <glyph glyph-name="uni044F" unicode="&#x44f;" horiz-adv-x="1064" 
d="M838 0v438h-292q-48 0 -88.5 5t-75.5 11q-106 21 -184 94t-78 206q0 129 71.5 207t162.5 103q45 12 90.5 14t81.5 2h396l2 -1080h-86zM80 0l330 480h104l-334 -480h-100zM550 522h288v474h-288q-28 0 -81.5 -2t-98.5 -16q-36 -11 -73 -37t-62 -71.5t-25 -113.5
q0 -93 49.5 -146.5t128.5 -73.5q44 -10 87.5 -12t74.5 -2z" />
    <glyph glyph-name="uni0450" unicode="&#x450;" 
d="M552 1260l-96 270h88l96 -270h-88zM574 -30q-153 0 -263.5 69t-170.5 197t-60 304q0 177 59.5 305t170 196.5t264.5 68.5q155 0 265 -70t168.5 -203t58.5 -321h-90v28q-6 233 -109.5 357.5t-292.5 124.5q-192 0 -298 -127.5t-106 -358.5t106 -358.5t298 -127.5
q134 0 235 63t161 181l70 -40q-66 -138 -187 -213t-279 -75zM134 516v84h880v-84h-880z" />
    <glyph glyph-name="uni0451" unicode="&#x451;" 
d="M694 1320v120h120v-120h-120zM334 1320v120h120v-120h-120zM574 -30q-153 0 -263.5 69t-170.5 197t-60 304q0 177 59.5 305t170 196.5t264.5 68.5q155 0 265 -70t168.5 -203t58.5 -321h-90v28q-6 233 -109.5 357.5t-292.5 124.5q-192 0 -298 -127.5t-106 -358.5
t106 -358.5t298 -127.5q134 0 235 63t161 181l70 -40q-66 -138 -187 -213t-279 -75zM134 516v84h880v-84h-880z" />
    <glyph glyph-name="uni0452" unicode="&#x452;" 
d="M920 -356q-27 -4 -64.5 -1.5t-63.5 9.5v82q49 -7 78.5 -3.5t45 21t21 51.5t5.5 87v682q0 116 -23.5 200.5t-69.5 140t-111.5 82.5t-149.5 27q-99 0 -168.5 -34.5t-112.5 -94.5t-63 -138t-20 -165v-590h-84v1200h-140v84h140v156h78v-156h262v-84h-262v-294
q60 104 158 151t212 47q82 0 150.5 -23t122 -66.5t90.5 -106.5t56 -143.5t19 -176.5v-778q0 -82 -29 -120t-77 -46z" />
    <glyph glyph-name="uni0453" unicode="&#x453;" horiz-adv-x="910" 
d="M463 1260h-88l96 270h88zM140 0v1080h720v-84h-636v-996h-84z" />
    <glyph glyph-name="uni0454" unicode="&#x454;" horiz-adv-x="1078" 
d="M572 -30q-155 0 -265 69.5t-168.5 197.5t-58.5 303q0 173 57 301t165.5 198.5t263.5 70.5q158 0 275.5 -71.5t166.5 -196.5l-80 -34q-45 104 -138.5 161t-215.5 57q-193 0 -292 -122t-110 -322h566v-84h-566q12 -202 112 -323t290 -121q119 0 211 55t141 161l82 -36
q-67 -130 -177 -197t-259 -67z" />
    <glyph glyph-name="uni0455" unicode="&#x455;" horiz-adv-x="1028" 
d="M534 -28q-183 0 -304 76.5t-150 211.5l86 16q27 -100 126.5 -160t243.5 -60q147 0 233.5 63t86.5 171q0 59 -26 96.5t-101.5 68.5t-222.5 71q-154 42 -239.5 81.5t-120 89t-34.5 121.5q0 86 51 152t141 103t208 37q119 0 214.5 -39.5t154 -110t67.5 -162.5l-86 -16
q-19 113 -115.5 178.5t-240.5 65.5q-135 2 -220.5 -55t-85.5 -149q0 -51 29 -87.5t101 -66.5t200 -62q162 -41 252.5 -83t127 -98t36.5 -139q0 -147 -110 -230.5t-302 -83.5z" />
    <glyph glyph-name="uni0456" unicode="&#x456;" horiz-adv-x="404" 
d="M160 1312v128h84v-128h-84zM160 0v1080h84v-1080h-84z" />
    <glyph glyph-name="uni0457" unicode="&#x457;" horiz-adv-x="404" 
d="M322 1320v120h120v-120h-120zM-38 1320v120h120v-120h-120zM160 0v1080h84v-1080h-84z" />
    <glyph glyph-name="uni0458" unicode="&#x458;" horiz-adv-x="450" 
d="M-20 -480v86h68q63 0 110.5 35.5t47.5 128.5v1310h84v-1300q0 -138 -56.5 -199t-187.5 -61h-66zM206 1312v128h84v-128h-84z" />
    <glyph glyph-name="uni0459" unicode="&#x459;" horiz-adv-x="1650" 
d="M40 0v80q61 -11 91.5 7t44.5 59t24 98q18 103 31 222.5t24 269.5t23 344h634v-438h232q29 0 72 -1t86 -9q67 -11 128.5 -44t100.5 -97t39 -167q0 -142 -71 -215.5t-163 -94.5q-46 -10 -96 -12t-76 -2h-336l-2 996h-462q-9 -133 -19 -254.5t-21 -227.5t-23 -192.5
t-25 -149.5q-14 -70 -35 -113.5t-67 -58.5t-134 0zM912 84h228q47 0 94.5 2t87.5 12q37 10 73.5 33.5t60.5 69.5t24 125q0 105 -46.5 154.5t-129.5 65.5q-45 9 -93 10.5t-71 1.5h-228v-474z" />
    <glyph glyph-name="uni045A" unicode="&#x45a;" horiz-adv-x="1568" 
d="M140 0v1080h84v-438h520v438h86v-438h232q29 0 72 -1t86 -9q67 -11 128.5 -44t100.5 -97t39 -167q0 -142 -71 -215.5t-163 -94.5q-46 -10 -96 -12t-76 -2h-336l-2 558h-520v-558h-84zM830 84h228q47 0 94.5 2t87.5 12q37 10 73.5 33.5t60.5 69.5t24 125
q0 105 -46.5 154.5t-129.5 65.5q-45 9 -93 10.5t-71 1.5h-228v-474z" />
    <glyph glyph-name="uni045B" unicode="&#x45b;" 
d="M0 1200v84h480v-84h-480zM942 0v572q0 116 -23.5 200.5t-69.5 140t-111.5 82.5t-149.5 27q-99 0 -168.5 -34.5t-112.5 -94.5t-63 -138t-20 -165l-78 -2q0 185 61 298.5t161.5 165.5t219.5 52q82 0 150.5 -23t122 -66.5t90.5 -106.5t56 -143.5t19 -176.5v-588h-84zM140 0
v1440h78v-850h6v-590h-84z" />
    <glyph glyph-name="uni045C" unicode="&#x45c;" horiz-adv-x="936" 
d="M489 1260h-88l96 270h88zM140 0v1080h84v-520l540 520h126l-564 -540l650 -540h-144l-608 520v-520h-84z" />
    <glyph glyph-name="uni045D" unicode="&#x45d;" horiz-adv-x="1086" 
d="M569 1260l-96 270h88l96 -270h-88zM946 1080v-1080h-84v932l-644 -932h-78v1080h84v-932l644 932h78z" />
    <glyph glyph-name="uni045E" unicode="&#x45e;" horiz-adv-x="1012" 
d="M560 1212q-63 0 -115 31t-82.5 82.5t-30.5 114.5h78q0 -61 44.5 -105.5t105.5 -44.5q63 0 106.5 44.5t43.5 105.5h78q0 -63 -30.5 -114.5t-82.5 -82.5t-115 -31zM302 -480l210 564l2 -168l-474 1164h92l424 -1048h-64l380 1048h90l-566 -1560h-94z" />
    <glyph glyph-name="uni045F" unicode="&#x45f;" horiz-adv-x="1086" 
d="M528 -240v240h-388v1080h84v-996h638v996h84v-1080h-334v-240h-84z" />
    <glyph glyph-name="uni0490" unicode="&#x490;" horiz-adv-x="1060" 
d="M140 0v1440h816v160h84v-244h-816v-1356h-84z" />
    <glyph glyph-name="uni0491" unicode="&#x491;" horiz-adv-x="910" 
d="M140 0v1080h636v160h84v-244h-636v-996h-84z" />
    <glyph glyph-name="Ustraitcy" unicode="&#x4ae;" horiz-adv-x="1038" 
d="M478 0v612l-478 828h96l424 -732l422 732h96l-476 -828v-612h-84z" />
    <glyph glyph-name="ustraitcy" unicode="&#x4af;" horiz-adv-x="956" 
d="M432 -360v360l-392 1080h90l348 -958l350 958h88l-392 -1080v-360h-92z" />
    <glyph glyph-name="uni04BA" unicode="&#x4ba;" horiz-adv-x="1254" 
d="M224 1440v-700l-42 64q75 50 175 82t233 32q191 0 306 -68t166.5 -187t51.5 -271v-392h-84v356q0 119 -26 207.5t-79.5 148t-134 89t-190.5 29.5q-144 0 -249.5 -41t-158.5 -91l32 116v-814h-84v1440h84z" />
    <glyph glyph-name="uni04BB" unicode="&#x4bb;" horiz-adv-x="1086" 
d="M264 1080v-428q53 27 137 49.5t183 22.5q162 0 266.5 -71.5t135.5 -206.5q10 -42 14 -88.5t5 -84t1 -51.5v-222h-84v222q0 41 -2 83t-8 79q-21 129 -104.5 197.5t-235.5 68.5q-85 0 -168 -21.5t-140 -60.5v-568h-84v1080h84z" />
    <glyph glyph-name="uni04E8" unicode="&#x4e8;" horiz-adv-x="1452" 
d="M130 678v84h1180v-84h-1180zM706 -30q-215 0 -358.5 96t-215.5 265t-72 389t72 389t215.5 265t358.5 96t358.5 -96t215.5 -265t72 -389t-72 -389t-215.5 -265t-358.5 -96zM706 54q185 0 308.5 85.5t185.5 235.5t62 345t-62 345.5t-185.5 235.5t-308.5 85t-307.5 -85
t-184.5 -235.5t-64 -345.5t60 -345t186.5 -235.5t309.5 -85.5z" />
    <glyph glyph-name="uni04E9" unicode="&#x4e9;" horiz-adv-x="1148" 
d="M156 498v84h852v-84h-852zM574 -30q-160 0 -270 73t-167 202t-57 297q0 170 58 298t168.5 199t267.5 71q161 0 271 -72.5t166.5 -200.5t56.5 -295q0 -171 -57 -299.5t-167.5 -200.5t-269.5 -72zM574 54q204 0 304 135.5t100 352.5q0 221 -100.5 352.5t-303.5 131.5
q-137 0 -226.5 -62t-133.5 -171t-44 -251q0 -220 102.5 -354t301.5 -134z" />
    <glyph glyph-name="Wgrave" unicode="&#x1e80;" horiz-adv-x="1818" 
d="M858 1620l-96 270h88l96 -270h-88zM452 0l-412 1440h86l370 -1288l368 1288h88l370 -1288l368 1288h88l-412 -1440h-88l-370 1286l-368 -1286h-88z" />
    <glyph glyph-name="wgrave" unicode="&#x1e81;" horiz-adv-x="1488" 
d="M693 1260l-96 270h88l96 -270h-88zM370 0l-330 1080h88l286 -936l286 936h88l286 -936l288 936h86l-330 -1080h-88l-286 938l-286 -938h-88z" />
    <glyph glyph-name="Wacute" unicode="&#x1e82;" horiz-adv-x="1818" 
d="M960 1620h-88l96 270h88zM452 0l-412 1440h86l370 -1288l368 1288h88l370 -1288l368 1288h88l-412 -1440h-88l-370 1286l-368 -1286h-88z" />
    <glyph glyph-name="wacute" unicode="&#x1e83;" horiz-adv-x="1488" 
d="M795 1260h-88l96 270h88zM370 0l-330 1080h88l286 -936l286 936h88l286 -936l288 936h86l-330 -1080h-88l-286 938l-286 -938h-88z" />
    <glyph glyph-name="Wdieresis" unicode="&#x1e84;" horiz-adv-x="1818" 
d="M1030 1680v120h120v-120h-120zM670 1680v120h120v-120h-120zM452 0l-412 1440h86l370 -1288l368 1288h88l370 -1288l368 1288h88l-412 -1440h-88l-370 1286l-368 -1286h-88z" />
    <glyph glyph-name="wdieresis" unicode="&#x1e85;" horiz-adv-x="1488" 
d="M864 1320v120h120v-120h-120zM504 1320v120h120v-120h-120zM370 0l-330 1080h88l286 -936l286 936h88l286 -936l288 936h86l-330 -1080h-88l-286 938l-286 -938h-88z" />
    <glyph glyph-name="uni1E9E" unicode="&#x1e9e;" horiz-adv-x="1359" 
d="M784 -30q-58 0 -96 8.5t-82 21.5v84q51 -15 92 -20.5t90 -5.5q102 0 184 39.5t130 115t48 184.5q0 94 -47 166.5t-140.5 116t-232.5 48.5v78l268 473q-49 33 -127.5 68t-205.5 35q-183 0 -284.5 -88t-127.5 -213q-14 -68 -17.5 -135.5t-3.5 -133.5v-812h-92v894
q0 69 5 120.5t15 93.5q33 145 115 223t188.5 108.5t214.5 30.5q96 0 179 -26.5t149.5 -63.5t110.5 -70l-278 -501q94 -8 186 -55t153 -135.5t61 -220.5q0 -202 -121.5 -315t-333.5 -113z" />
    <glyph glyph-name="uni1EA0" unicode="&#x1ea0;" horiz-adv-x="1218" 
d="M549 -380v128h120v-128h-120zM40 0l524 1440h90l524 -1440h-90l-510 1402h60l-508 -1402h-90zM240 374v80h736v-80h-736z" />
    <glyph glyph-name="uni1EA1" unicode="&#x1ea1;" horiz-adv-x="1084" 
d="M462 -380v128h120v-128h-120zM454 -30q-126 0 -209 44t-124 116t-41 156q0 95 41.5 157.5t108.5 98.5t144 52q94 19 201.5 33.5t198.5 24.5t136 16l-30 -20q5 191 -69.5 284.5t-262.5 93.5q-136 0 -218.5 -60.5t-115.5 -185.5l-92 24q36 150 147.5 228t282.5 78
q150 0 250 -61t136 -165q14 -40 20 -97t6 -111v-676h-78v296l40 -2q-43 -154 -171 -239t-301 -85zM450 54q117 0 206.5 42t145 121.5t70.5 190.5q8 56 8 120v92l44 -34q-53 -5 -146.5 -13.5t-197.5 -22t-188 -34.5q-49 -12 -101 -38t-87.5 -73t-35.5 -121q0 -52 26 -105
t87.5 -89t168.5 -36z" />
    <glyph glyph-name="uni1EA2" unicode="&#x1ea2;" horiz-adv-x="1218" 
d="M512 1811l-38 49q30 36 73 53.5t87.5 9t79.5 -54.5q25 -33 29.5 -70.5t-8 -74t-39 -67t-62.5 -50.5l-52 48q64 35 82 82t-6 84q-17 27 -42.5 32t-52.5 -6t-51 -35zM40 0l524 1440h90l524 -1440h-90l-510 1402h60l-508 -1402h-90zM240 374v80h736v-80h-736z" />
    <glyph glyph-name="uni1EA3" unicode="&#x1ea3;" horiz-adv-x="1084" 
d="M453 1451l-38 49q30 36 73 53.5t87.5 9t79.5 -54.5q25 -33 29.5 -70.5t-8 -74t-39 -67t-62.5 -50.5l-52 48q64 35 82 82t-6 84q-17 27 -42.5 32t-52.5 -6t-51 -35zM454 -30q-126 0 -209 44t-124 116t-41 156q0 95 41.5 157.5t108.5 98.5t144 52q94 19 201.5 33.5
t198.5 24.5t136 16l-30 -20q5 191 -69.5 284.5t-262.5 93.5q-136 0 -218.5 -60.5t-115.5 -185.5l-92 24q36 150 147.5 228t282.5 78q150 0 250 -61t136 -165q14 -40 20 -97t6 -111v-676h-78v296l40 -2q-43 -154 -171 -239t-301 -85zM450 54q117 0 206.5 42t145 121.5
t70.5 190.5q8 56 8 120v92l44 -34q-53 -5 -146.5 -13.5t-197.5 -22t-188 -34.5q-49 -12 -101 -38t-87.5 -73t-35.5 -121q0 -52 26 -105t87.5 -89t168.5 -36z" />
    <glyph glyph-name="uni1EA4" unicode="&#x1ea4;" horiz-adv-x="1218" 
d="M363 1620l200 240h92l200 -240h-100l-146 170l-146 -170h-100zM917 1830h-88l96 270h88zM40 0l524 1440h90l524 -1440h-90l-510 1402h60l-508 -1402h-90zM240 374v80h736v-80h-736z" />
    <glyph glyph-name="uni1EA5" unicode="&#x1ea5;" horiz-adv-x="1084" 
d="M319 1260l200 240h92l200 -240h-100l-146 170l-146 -170h-100zM873 1470h-88l96 270h88zM454 -30q-126 0 -209 44t-124 116t-41 156q0 95 41.5 157.5t108.5 98.5t144 52q94 19 201.5 33.5t198.5 24.5t136 16l-30 -20q5 191 -69.5 284.5t-262.5 93.5q-136 0 -218.5 -60.5
t-115.5 -185.5l-92 24q36 150 147.5 228t282.5 78q150 0 250 -61t136 -165q14 -40 20 -97t6 -111v-676h-78v296l40 -2q-43 -154 -171 -239t-301 -85zM450 54q117 0 206.5 42t145 121.5t70.5 190.5q8 56 8 120v92l44 -34q-53 -5 -146.5 -13.5t-197.5 -22t-188 -34.5
q-49 -12 -101 -38t-87.5 -73t-35.5 -121q0 -52 26 -105t87.5 -89t168.5 -36z" />
    <glyph glyph-name="uni1EA6" unicode="&#x1ea6;" horiz-adv-x="1218" 
d="M363 1620l200 240h92l200 -240h-100l-146 170l-146 -170h-100zM815 1830l-96 270h88l96 -270h-88zM40 0l524 1440h90l524 -1440h-90l-510 1402h60l-508 -1402h-90zM240 374v80h736v-80h-736z" />
    <glyph glyph-name="uni1EA7" unicode="&#x1ea7;" horiz-adv-x="1084" 
d="M331 1260l200 240h92l200 -240h-100l-146 170l-146 -170h-100zM783 1470l-96 270h88l96 -270h-88zM454 -30q-126 0 -209 44t-124 116t-41 156q0 95 41.5 157.5t108.5 98.5t144 52q94 19 201.5 33.5t198.5 24.5t136 16l-30 -20q5 191 -69.5 284.5t-262.5 93.5
q-136 0 -218.5 -60.5t-115.5 -185.5l-92 24q36 150 147.5 228t282.5 78q150 0 250 -61t136 -165q14 -40 20 -97t6 -111v-676h-78v296l40 -2q-43 -154 -171 -239t-301 -85zM450 54q117 0 206.5 42t145 121.5t70.5 190.5q8 56 8 120v92l44 -34q-53 -5 -146.5 -13.5t-197.5 -22
t-188 -34.5q-49 -12 -101 -38t-87.5 -73t-35.5 -121q0 -52 26 -105t87.5 -89t168.5 -36z" />
    <glyph glyph-name="uni1EA8" unicode="&#x1ea8;" horiz-adv-x="1218" 
d="M364 1620l200 240h92l200 -240h-100l-146 170l-146 -170h-100zM874 1811l-38 49q30 36 73 53.5t87.5 9t79.5 -54.5q25 -33 29.5 -70.5t-8 -74t-39 -67t-62.5 -50.5l-52 48q64 35 82 82t-6 84q-17 27 -42.5 32t-52.5 -6t-51 -35zM40 0l524 1440h90l524 -1440h-90
l-510 1402h60l-508 -1402h-90zM240 374v80h736v-80h-736z" />
    <glyph glyph-name="uni1EA9" unicode="&#x1ea9;" horiz-adv-x="1084" 
d="M296 1260l200 240h92l200 -240h-100l-146 170l-146 -170h-100zM806 1451l-38 49q30 36 73 53.5t87.5 9t79.5 -54.5q25 -33 29.5 -70.5t-8 -74t-39 -67t-62.5 -50.5l-52 48q64 35 82 82t-6 84q-17 27 -42.5 32t-52.5 -6t-51 -35zM454 -30q-126 0 -209 44t-124 116t-41 156
q0 95 41.5 157.5t108.5 98.5t144 52q94 19 201.5 33.5t198.5 24.5t136 16l-30 -20q5 191 -69.5 284.5t-262.5 93.5q-136 0 -218.5 -60.5t-115.5 -185.5l-92 24q36 150 147.5 228t282.5 78q150 0 250 -61t136 -165q14 -40 20 -97t6 -111v-676h-78v296l40 -2
q-43 -154 -171 -239t-301 -85zM450 54q117 0 206.5 42t145 121.5t70.5 190.5q8 56 8 120v92l44 -34q-53 -5 -146.5 -13.5t-197.5 -22t-188 -34.5q-49 -12 -101 -38t-87.5 -73t-35.5 -121q0 -52 26 -105t87.5 -89t168.5 -36z" />
    <glyph glyph-name="uni1EAA" unicode="&#x1eaa;" horiz-adv-x="1218" 
d="M360 1620l200 240h92l200 -240h-100l-146 170l-146 -170h-100zM750 1910q-39 0 -76.5 14.5t-73.5 33.5t-69 33.5t-63 14.5q-43 0 -53.5 -29.5t-0.5 -56.5h-72q-18 69 20.5 117.5t107.5 48.5q40 0 78 -14.5t74 -33.5t69 -33.5t63 -14.5q38 0 52 28t2 62h72
q18 -67 -20 -118.5t-110 -51.5zM40 0l524 1440h90l524 -1440h-90l-510 1402h60l-508 -1402h-90zM240 374v80h736v-80h-736z" />
    <glyph glyph-name="uni1EAB" unicode="&#x1eab;" horiz-adv-x="1084" 
d="M316 1260l200 240h92l200 -240h-100l-146 170l-146 -170h-100zM706 1550q-39 0 -76.5 14.5t-73.5 33.5t-69 33.5t-63 14.5q-43 0 -53.5 -29.5t-0.5 -56.5h-72q-18 69 20.5 117.5t107.5 48.5q40 0 78 -14.5t74 -33.5t69 -33.5t63 -14.5q38 0 52 28t2 62h72
q18 -67 -20 -118.5t-110 -51.5zM454 -30q-126 0 -209 44t-124 116t-41 156q0 95 41.5 157.5t108.5 98.5t144 52q94 19 201.5 33.5t198.5 24.5t136 16l-30 -20q5 191 -69.5 284.5t-262.5 93.5q-136 0 -218.5 -60.5t-115.5 -185.5l-92 24q36 150 147.5 228t282.5 78
q150 0 250 -61t136 -165q14 -40 20 -97t6 -111v-676h-78v296l40 -2q-43 -154 -171 -239t-301 -85zM450 54q117 0 206.5 42t145 121.5t70.5 190.5q8 56 8 120v92l44 -34q-53 -5 -146.5 -13.5t-197.5 -22t-188 -34.5q-49 -12 -101 -38t-87.5 -73t-35.5 -121q0 -52 26 -105
t87.5 -89t168.5 -36z" />
    <glyph glyph-name="uni1EAC" unicode="&#x1eac;" horiz-adv-x="1218" 
d="M549 -380v128h120v-128h-120zM364 1620l200 240h92l200 -240h-100l-146 170l-146 -170h-100zM40 0l524 1440h90l524 -1440h-90l-510 1402h60l-508 -1402h-90zM240 374v80h736v-80h-736z" />
    <glyph glyph-name="uni1EAD" unicode="&#x1ead;" horiz-adv-x="1084" 
d="M462 -380v128h120v-128h-120zM312 1260l200 240h92l200 -240h-100l-146 170l-146 -170h-100zM454 -30q-126 0 -209 44t-124 116t-41 156q0 95 41.5 157.5t108.5 98.5t144 52q94 19 201.5 33.5t198.5 24.5t136 16l-30 -20q5 191 -69.5 284.5t-262.5 93.5
q-136 0 -218.5 -60.5t-115.5 -185.5l-92 24q36 150 147.5 228t282.5 78q150 0 250 -61t136 -165q14 -40 20 -97t6 -111v-676h-78v296l40 -2q-43 -154 -171 -239t-301 -85zM450 54q117 0 206.5 42t145 121.5t70.5 190.5q8 56 8 120v92l44 -34q-53 -5 -146.5 -13.5t-197.5 -22
t-188 -34.5q-49 -12 -101 -38t-87.5 -73t-35.5 -121q0 -52 26 -105t87.5 -89t168.5 -36z" />
    <glyph glyph-name="uni1EAE" unicode="&#x1eae;" horiz-adv-x="1218" 
d="M609 1572q-63 0 -115 31t-82.5 82.5t-30.5 114.5h78q0 -61 44.5 -105.5t105.5 -44.5q63 0 106.5 44.5t43.5 105.5h78q0 -63 -30.5 -114.5t-82.5 -82.5t-115 -31zM647 1830h-88l96 270h88zM40 0l524 1440h90l524 -1440h-90l-510 1402h60l-508 -1402h-90zM240 374v80h736
v-80h-736z" />
    <glyph glyph-name="uni1EAF" unicode="&#x1eaf;" horiz-adv-x="1084" 
d="M559 1212q-63 0 -115 31t-82.5 82.5t-30.5 114.5h78q0 -61 44.5 -105.5t105.5 -44.5q63 0 106.5 44.5t43.5 105.5h78q0 -63 -30.5 -114.5t-82.5 -82.5t-115 -31zM597 1470h-88l96 270h88zM454 -30q-126 0 -209 44t-124 116t-41 156q0 95 41.5 157.5t108.5 98.5t144 52
q94 19 201.5 33.5t198.5 24.5t136 16l-30 -20q5 191 -69.5 284.5t-262.5 93.5q-136 0 -218.5 -60.5t-115.5 -185.5l-92 24q36 150 147.5 228t282.5 78q150 0 250 -61t136 -165q14 -40 20 -97t6 -111v-676h-78v296l40 -2q-43 -154 -171 -239t-301 -85zM450 54q117 0 206.5 42
t145 121.5t70.5 190.5q8 56 8 120v92l44 -34q-53 -5 -146.5 -13.5t-197.5 -22t-188 -34.5q-49 -12 -101 -38t-87.5 -73t-35.5 -121q0 -52 26 -105t87.5 -89t168.5 -36z" />
    <glyph glyph-name="uni1EB0" unicode="&#x1eb0;" horiz-adv-x="1218" 
d="M609 1572q-63 0 -115 31t-82.5 82.5t-30.5 114.5h78q0 -61 43.5 -105.5t106.5 -44.5q62 0 106 44.5t44 105.5h78q0 -63 -30.5 -114.5t-82.5 -82.5t-115 -31zM571 1830l-96 270h88l96 -270h-88zM40 0l524 1440h90l524 -1440h-90l-510 1402h60l-508 -1402h-90zM240 374v80
h736v-80h-736z" />
    <glyph glyph-name="uni1EB1" unicode="&#x1eb1;" horiz-adv-x="1084" 
d="M567 1212q-63 0 -115 31t-82.5 82.5t-30.5 114.5h78q0 -61 43.5 -105.5t106.5 -44.5q62 0 106 44.5t44 105.5h78q0 -63 -30.5 -114.5t-82.5 -82.5t-115 -31zM529 1470l-96 270h88l96 -270h-88zM454 -30q-126 0 -209 44t-124 116t-41 156q0 95 41.5 157.5t108.5 98.5
t144 52q94 19 201.5 33.5t198.5 24.5t136 16l-30 -20q5 191 -69.5 284.5t-262.5 93.5q-136 0 -218.5 -60.5t-115.5 -185.5l-92 24q36 150 147.5 228t282.5 78q150 0 250 -61t136 -165q14 -40 20 -97t6 -111v-676h-78v296l40 -2q-43 -154 -171 -239t-301 -85zM450 54
q117 0 206.5 42t145 121.5t70.5 190.5q8 56 8 120v92l44 -34q-53 -5 -146.5 -13.5t-197.5 -22t-188 -34.5q-49 -12 -101 -38t-87.5 -73t-35.5 -121q0 -52 26 -105t87.5 -89t168.5 -36z" />
    <glyph glyph-name="uni1EB2" unicode="&#x1eb2;" horiz-adv-x="1218" 
d="M609 1572q-63 0 -115 31t-82.5 82.5t-30.5 114.5h78q0 -61 44.5 -105.5t105.5 -44.5q63 0 106.5 44.5t43.5 105.5h78q0 -63 -30.5 -114.5t-82.5 -82.5t-115 -31zM485 2012l-38 49q30 36 73 53.5t87.5 9t79.5 -54.5q25 -33 29.5 -70.5t-8 -74t-39 -67t-62.5 -50.5l-52 48
q64 35 82 82t-6 84q-17 27 -42.5 32t-52.5 -6t-51 -35zM40 0l524 1440h90l524 -1440h-90l-510 1402h60l-508 -1402h-90zM240 374v80h736v-80h-736z" />
    <glyph glyph-name="uni1EB3" unicode="&#x1eb3;" horiz-adv-x="1084" 
d="M573 1212q-63 0 -115 31t-82.5 82.5t-30.5 114.5h78q0 -61 44.5 -105.5t105.5 -44.5q63 0 106.5 44.5t43.5 105.5h78q0 -63 -30.5 -114.5t-82.5 -82.5t-115 -31zM449 1652l-38 49q30 36 73 53.5t87.5 9t79.5 -54.5q25 -33 29.5 -70.5t-8 -74t-39 -67t-62.5 -50.5l-52 48
q64 35 82 82t-6 84q-17 27 -42.5 32t-52.5 -6t-51 -35zM454 -30q-126 0 -209 44t-124 116t-41 156q0 95 41.5 157.5t108.5 98.5t144 52q94 19 201.5 33.5t198.5 24.5t136 16l-30 -20q5 191 -69.5 284.5t-262.5 93.5q-136 0 -218.5 -60.5t-115.5 -185.5l-92 24
q36 150 147.5 228t282.5 78q150 0 250 -61t136 -165q14 -40 20 -97t6 -111v-676h-78v296l40 -2q-43 -154 -171 -239t-301 -85zM450 54q117 0 206.5 42t145 121.5t70.5 190.5q8 56 8 120v92l44 -34q-53 -5 -146.5 -13.5t-197.5 -22t-188 -34.5q-49 -12 -101 -38t-87.5 -73
t-35.5 -121q0 -52 26 -105t87.5 -89t168.5 -36z" />
    <glyph glyph-name="uni1EB4" unicode="&#x1eb4;" horiz-adv-x="1218" 
d="M737 1850q-39 0 -76.5 14.5t-73.5 33.5t-69 33.5t-63 14.5q-43 0 -53.5 -29.5t-0.5 -56.5h-72q-18 69 20.5 117.5t107.5 48.5q40 0 78 -14.5t74 -33.5t69 -33.5t63 -14.5q38 0 52 28t2 62h72q18 -67 -20 -118.5t-110 -51.5zM596 1572q-63 0 -115 31t-82.5 82.5
t-30.5 114.5h78q0 -61 44.5 -105.5t105.5 -44.5q63 0 106.5 44.5t43.5 105.5h78q0 -63 -30.5 -114.5t-82.5 -82.5t-115 -31zM40 0l524 1440h90l524 -1440h-90l-510 1402h60l-508 -1402h-90zM240 374v80h736v-80h-736z" />
    <glyph glyph-name="uni1EB5" unicode="&#x1eb5;" horiz-adv-x="1084" 
d="M667 1490q-39 0 -76.5 14.5t-73.5 33.5t-69 33.5t-63 14.5q-43 0 -53.5 -29.5t-0.5 -56.5h-72q-18 69 20.5 117.5t107.5 48.5q40 0 78 -14.5t74 -33.5t69 -33.5t63 -14.5q38 0 52 28t2 62h72q18 -67 -20 -118.5t-110 -51.5zM526 1212q-63 0 -115 31t-82.5 82.5
t-30.5 114.5h78q0 -61 44.5 -105.5t105.5 -44.5q63 0 106.5 44.5t43.5 105.5h78q0 -63 -30.5 -114.5t-82.5 -82.5t-115 -31zM454 -30q-126 0 -209 44t-124 116t-41 156q0 95 41.5 157.5t108.5 98.5t144 52q94 19 201.5 33.5t198.5 24.5t136 16l-30 -20q5 191 -69.5 284.5
t-262.5 93.5q-136 0 -218.5 -60.5t-115.5 -185.5l-92 24q36 150 147.5 228t282.5 78q150 0 250 -61t136 -165q14 -40 20 -97t6 -111v-676h-78v296l40 -2q-43 -154 -171 -239t-301 -85zM450 54q117 0 206.5 42t145 121.5t70.5 190.5q8 56 8 120v92l44 -34
q-53 -5 -146.5 -13.5t-197.5 -22t-188 -34.5q-49 -12 -101 -38t-87.5 -73t-35.5 -121q0 -52 26 -105t87.5 -89t168.5 -36z" />
    <glyph glyph-name="uni1EB6" unicode="&#x1eb6;" horiz-adv-x="1218" 
d="M549 -380v128h120v-128h-120zM610 1572q-63 0 -115 31t-82.5 82.5t-30.5 114.5h78q0 -61 44.5 -105.5t105.5 -44.5q63 0 106.5 44.5t43.5 105.5h78q0 -63 -30.5 -114.5t-82.5 -82.5t-115 -31zM40 0l524 1440h90l524 -1440h-90l-510 1402h60l-508 -1402h-90zM240 374v80
h736v-80h-736z" />
    <glyph glyph-name="uni1EB7" unicode="&#x1eb7;" horiz-adv-x="1084" 
d="M462 -380v128h120v-128h-120zM560 1212q-63 0 -115 31t-82.5 82.5t-30.5 114.5h78q0 -61 44.5 -105.5t105.5 -44.5q63 0 106.5 44.5t43.5 105.5h78q0 -63 -30.5 -114.5t-82.5 -82.5t-115 -31zM454 -30q-126 0 -209 44t-124 116t-41 156q0 95 41.5 157.5t108.5 98.5
t144 52q94 19 201.5 33.5t198.5 24.5t136 16l-30 -20q5 191 -69.5 284.5t-262.5 93.5q-136 0 -218.5 -60.5t-115.5 -185.5l-92 24q36 150 147.5 228t282.5 78q150 0 250 -61t136 -165q14 -40 20 -97t6 -111v-676h-78v296l40 -2q-43 -154 -171 -239t-301 -85zM450 54
q117 0 206.5 42t145 121.5t70.5 190.5q8 56 8 120v92l44 -34q-53 -5 -146.5 -13.5t-197.5 -22t-188 -34.5q-49 -12 -101 -38t-87.5 -73t-35.5 -121q0 -52 26 -105t87.5 -89t168.5 -36z" />
    <glyph glyph-name="uni1EB8" unicode="&#x1eb8;" horiz-adv-x="1200" 
d="M520 -380v128h120v-128h-120zM140 0v1440h880v-84h-796v-594h676v-84h-676v-594h796v-84h-880z" />
    <glyph glyph-name="uni1EB9" unicode="&#x1eb9;" 
d="M513 -380v128h120v-128h-120zM574 -30q-153 0 -263.5 69t-170.5 197t-60 304q0 177 59.5 305t170 196.5t264.5 68.5q155 0 265 -70t168.5 -203t58.5 -321h-90v28q-6 233 -109.5 357.5t-292.5 124.5q-192 0 -298 -127.5t-106 -358.5t106 -358.5t298 -127.5q134 0 235 63
t161 181l70 -40q-66 -138 -187 -213t-279 -75zM134 516v84h880v-84h-880z" />
    <glyph glyph-name="uni1EBA" unicode="&#x1eba;" horiz-adv-x="1120" 
d="M483 1811l-38 49q30 36 73 53.5t87.5 9t79.5 -54.5q25 -33 29.5 -70.5t-8 -74t-39 -67t-62.5 -50.5l-52 48q64 35 82 82t-6 84q-17 27 -42.5 32t-52.5 -6t-51 -35zM140 0v1440h880v-84h-796v-594h676v-84h-676v-594h796v-84h-880z" />
    <glyph glyph-name="uni1EBB" unicode="&#x1ebb;" horiz-adv-x="1200" 
d="M483 1451l-38 49q30 36 73 53.5t87.5 9t79.5 -54.5q25 -33 29.5 -70.5t-8 -74t-39 -67t-62.5 -50.5l-52 48q64 35 82 82t-6 84q-17 27 -42.5 32t-52.5 -6t-51 -35zM574 -30q-153 0 -263.5 69t-170.5 197t-60 304q0 177 59.5 305t170 196.5t264.5 68.5q155 0 265 -70
t168.5 -203t58.5 -321h-90v28q-6 233 -109.5 357.5t-292.5 124.5q-192 0 -298 -127.5t-106 -358.5t106 -358.5t298 -127.5q134 0 235 63t161 181l70 -40q-66 -138 -187 -213t-279 -75zM134 516v84h880v-84h-880z" />
    <glyph glyph-name="uni1EBC" unicode="&#x1ebc;" horiz-adv-x="1120" 
d="M719 1620q-39 0 -76.5 14.5t-73.5 33.5t-69 33.5t-63 14.5q-43 0 -53.5 -29.5t-0.5 -56.5h-72q-18 69 20.5 117.5t107.5 48.5q40 0 78 -14.5t74 -33.5t69 -33.5t63 -14.5q38 0 52 28t2 62h72q18 -67 -20 -118.5t-110 -51.5zM140 0v1440h880v-84h-796v-594h676v-84h-676
v-594h796v-84h-880z" />
    <glyph glyph-name="uni1EBD" unicode="&#x1ebd;" 
d="M712 1260q-39 0 -76.5 14.5t-73.5 33.5t-69 33.5t-63 14.5q-43 0 -53.5 -29.5t-0.5 -56.5h-72q-18 69 20.5 117.5t107.5 48.5q40 0 78 -14.5t74 -33.5t69 -33.5t63 -14.5q38 0 52 28t2 62h72q18 -67 -20 -118.5t-110 -51.5zM574 -30q-153 0 -263.5 69t-170.5 197t-60 304
q0 177 59.5 305t170 196.5t264.5 68.5q155 0 265 -70t168.5 -203t58.5 -321h-90v28q-6 233 -109.5 357.5t-292.5 124.5q-192 0 -298 -127.5t-106 -358.5t106 -358.5t298 -127.5q134 0 235 63t161 181l70 -40q-66 -138 -187 -213t-279 -75zM134 516v84h880v-84h-880z" />
    <glyph glyph-name="uni1EBE" unicode="&#x1ebe;" horiz-adv-x="1120" 
d="M319 1620l200 240h92l200 -240h-100l-146 170l-146 -170h-100zM873 1830h-88l96 270h88zM140 0v1440h880v-84h-796v-594h676v-84h-676v-594h796v-84h-880z" />
    <glyph glyph-name="uni1EBF" unicode="&#x1ebf;" 
d="M352 1260l200 240h92l200 -240h-100l-146 170l-146 -170h-100zM906 1470h-88l96 270h88zM574 -30q-153 0 -263.5 69t-170.5 197t-60 304q0 177 59.5 305t170 196.5t264.5 68.5q155 0 265 -70t168.5 -203t58.5 -321h-90v28q-6 233 -109.5 357.5t-292.5 124.5
q-192 0 -298 -127.5t-106 -358.5t106 -358.5t298 -127.5q134 0 235 63t161 181l70 -40q-66 -138 -187 -213t-279 -75zM134 516v84h880v-84h-880z" />
    <glyph glyph-name="uni1EC0" unicode="&#x1ec0;" horiz-adv-x="1120" 
d="M370 1620l200 240h92l200 -240h-100l-146 170l-146 -170h-100zM822 1830l-96 270h88l96 -270h-88zM140 0v1440h880v-84h-796v-594h676v-84h-676v-594h796v-84h-880z" />
    <glyph glyph-name="uni1EC1" unicode="&#x1ec1;" 
d="M327 1260l200 240h92l200 -240h-100l-146 170l-146 -170h-100zM779 1470l-96 270h88l96 -270h-88zM574 -30q-153 0 -263.5 69t-170.5 197t-60 304q0 177 59.5 305t170 196.5t264.5 68.5q155 0 265 -70t168.5 -203t58.5 -321h-90v28q-6 233 -109.5 357.5t-292.5 124.5
q-192 0 -298 -127.5t-106 -358.5t106 -358.5t298 -127.5q134 0 235 63t161 181l70 -40q-66 -138 -187 -213t-279 -75zM134 516v84h880v-84h-880z" />
    <glyph glyph-name="uni1EC2" unicode="&#x1ec2;" horiz-adv-x="1200" 
d="M341 1620l200 240h92l200 -240h-100l-146 170l-146 -170h-100zM851 1811l-38 49q30 36 73 53.5t87.5 9t79.5 -54.5q25 -33 29.5 -70.5t-8 -74t-39 -67t-62.5 -50.5l-52 48q64 35 82 82t-6 84q-17 27 -42.5 32t-52.5 -6t-51 -35zM140 0v1440h880v-84h-796v-594h676v-84
h-676v-594h796v-84h-880z" />
    <glyph glyph-name="uni1EC3" unicode="&#x1ec3;" 
d="M342 1260l200 240h92l200 -240h-100l-146 170l-146 -170h-100zM852 1451l-38 49q30 36 73 53.5t87.5 9t79.5 -54.5q25 -33 29.5 -70.5t-8 -74t-39 -67t-62.5 -50.5l-52 48q64 35 82 82t-6 84q-17 27 -42.5 32t-52.5 -6t-51 -35zM574 -30q-153 0 -263.5 69t-170.5 197
t-60 304q0 177 59.5 305t170 196.5t264.5 68.5q155 0 265 -70t168.5 -203t58.5 -321h-90v28q-6 233 -109.5 357.5t-292.5 124.5q-192 0 -298 -127.5t-106 -358.5t106 -358.5t298 -127.5q134 0 235 63t161 181l70 -40q-66 -138 -187 -213t-279 -75zM134 516v84h880v-84h-880z
" />
    <glyph glyph-name="uni1EC4" unicode="&#x1ec4;" horiz-adv-x="1120" 
d="M329 1620l200 240h92l200 -240h-100l-146 170l-146 -170h-100zM719 1910q-39 0 -76.5 14.5t-73.5 33.5t-69 33.5t-63 14.5q-43 0 -53.5 -29.5t-0.5 -56.5h-72q-18 69 20.5 117.5t107.5 48.5q40 0 78 -14.5t74 -33.5t69 -33.5t63 -14.5q38 0 52 28t2 62h72
q18 -67 -20 -118.5t-110 -51.5zM140 0v1440h880v-84h-796v-594h676v-84h-676v-594h796v-84h-880z" />
    <glyph glyph-name="uni1EC5" unicode="&#x1ec5;" 
d="M337 1260l200 240h92l200 -240h-100l-146 170l-146 -170h-100zM727 1550q-39 0 -76.5 14.5t-73.5 33.5t-69 33.5t-63 14.5q-43 0 -53.5 -29.5t-0.5 -56.5h-72q-18 69 20.5 117.5t107.5 48.5q40 0 78 -14.5t74 -33.5t69 -33.5t63 -14.5q38 0 52 28t2 62h72
q18 -67 -20 -118.5t-110 -51.5zM574 -30q-153 0 -263.5 69t-170.5 197t-60 304q0 177 59.5 305t170 196.5t264.5 68.5q155 0 265 -70t168.5 -203t58.5 -321h-90v28q-6 233 -109.5 357.5t-292.5 124.5q-192 0 -298 -127.5t-106 -358.5t106 -358.5t298 -127.5q134 0 235 63
t161 181l70 -40q-66 -138 -187 -213t-279 -75zM134 516v84h880v-84h-880z" />
    <glyph glyph-name="uni1EC6" unicode="&#x1ec6;" horiz-adv-x="1120" 
d="M520 -380v128h120v-128h-120zM324 1620l200 240h92l200 -240h-100l-146 170l-146 -170h-100zM140 0v1440h880v-84h-796v-594h676v-84h-676v-594h796v-84h-880z" />
    <glyph glyph-name="uni1EC7" unicode="&#x1ec7;" 
d="M513 -380v128h120v-128h-120zM328 1260l200 240h92l200 -240h-100l-146 170l-146 -170h-100zM574 -30q-153 0 -263.5 69t-170.5 197t-60 304q0 177 59.5 305t170 196.5t264.5 68.5q155 0 265 -70t168.5 -203t58.5 -321h-90v28q-6 233 -109.5 357.5t-292.5 124.5
q-192 0 -298 -127.5t-106 -358.5t106 -358.5t298 -127.5q134 0 235 63t161 181l70 -40q-66 -138 -187 -213t-279 -75zM134 516v84h880v-84h-880z" />
    <glyph glyph-name="uni1EC8" unicode="&#x1ec8;" horiz-adv-x="404" 
d="M96 1811l-38 49q30 36 73 53.5t87.5 9t79.5 -54.5q25 -33 29.5 -70.5t-8 -74t-39 -67t-62.5 -50.5l-52 48q64 35 82 82t-6 84q-17 27 -42.5 32t-52.5 -6t-51 -35zM160 0v1440h84v-1440h-84z" />
    <glyph glyph-name="uni1EC9" unicode="&#x1ec9;" horiz-adv-x="404" 
d="M87 1451l-38 49q30 36 73 53.5t87.5 9t79.5 -54.5q25 -33 29.5 -70.5t-8 -74t-39 -67t-62.5 -50.5l-52 48q64 35 82 82t-6 84q-17 27 -42.5 32t-52.5 -6t-51 -35zM160 0v1080h84v-1080h-84z" />
    <glyph glyph-name="uni1ECA" unicode="&#x1eca;" horiz-adv-x="404" 
d="M142 -380v128h120v-128h-120zM160 0v1440h84v-1440h-84z" />
    <glyph glyph-name="uni1ECB" unicode="&#x1ecb;" horiz-adv-x="404" 
d="M142 -380v128h120v-128h-120zM160 1312v128h84v-128h-84zM160 0v1080h84v-1080h-84z" />
    <glyph glyph-name="uni1ECC" unicode="&#x1ecc;" horiz-adv-x="1412" 
d="M622 -380v128h120v-128h-120zM706 -30q-215 0 -358.5 96t-215.5 265t-72 389t72 389t215.5 265t358.5 96t358.5 -96t215.5 -265t72 -389t-72 -389t-215.5 -265t-358.5 -96zM706 54q185 0 308.5 85.5t185.5 235.5t62 345t-62 345.5t-185.5 235.5t-308.5 85t-307.5 -85
t-184.5 -235.5t-64 -345.5t60 -345t186.5 -235.5t309.5 -85.5z" />
    <glyph glyph-name="uni1ECD" unicode="&#x1ecd;" horiz-adv-x="1148" 
d="M514 -380v128h120v-128h-120zM574 -30q-160 0 -270 73t-167 202t-57 297q0 170 58 298t168.5 199t267.5 71q161 0 271 -72.5t166.5 -200.5t56.5 -295q0 -171 -57 -299.5t-167.5 -200.5t-269.5 -72zM574 54q204 0 304 135.5t100 352.5q0 221 -100.5 352.5t-303.5 131.5
q-137 0 -226.5 -62t-133.5 -171t-44 -251q0 -220 102.5 -354t301.5 -134z" />
    <glyph glyph-name="uni1ECE" unicode="&#x1ece;" horiz-adv-x="1412" 
d="M633 1811l-38 49q30 36 73 53.5t87.5 9t79.5 -54.5q25 -33 29.5 -70.5t-8 -74t-39 -67t-62.5 -50.5l-52 48q64 35 82 82t-6 84q-17 27 -42.5 32t-52.5 -6t-51 -35zM706 -30q-215 0 -358.5 96t-215.5 265t-72 389t72 389t215.5 265t358.5 96t358.5 -96t215.5 -265t72 -389
t-72 -389t-215.5 -265t-358.5 -96zM706 54q185 0 308.5 85.5t185.5 235.5t62 345t-62 345.5t-185.5 235.5t-308.5 85t-307.5 -85t-184.5 -235.5t-64 -345.5t60 -345t186.5 -235.5t309.5 -85.5z" />
    <glyph glyph-name="uni1ECF" unicode="&#x1ecf;" horiz-adv-x="1148" 
d="M483 1451l-38 49q30 36 73 53.5t87.5 9t79.5 -54.5q25 -33 29.5 -70.5t-8 -74t-39 -67t-62.5 -50.5l-52 48q64 35 82 82t-6 84q-17 27 -42.5 32t-52.5 -6t-51 -35zM574 -30q-160 0 -270 73t-167 202t-57 297q0 170 58 298t168.5 199t267.5 71q161 0 271 -72.5
t166.5 -200.5t56.5 -295q0 -171 -57 -299.5t-167.5 -200.5t-269.5 -72zM574 54q204 0 304 135.5t100 352.5q0 221 -100.5 352.5t-303.5 131.5q-137 0 -226.5 -62t-133.5 -171t-44 -251q0 -220 102.5 -354t301.5 -134z" />
    <glyph glyph-name="uni1ED0" unicode="&#x1ed0;" horiz-adv-x="1412" 
d="M469 1620l200 240h92l200 -240h-100l-146 170l-146 -170h-100zM1023 1830h-88l96 270h88zM706 -30q-215 0 -358.5 96t-215.5 265t-72 389t72 389t215.5 265t358.5 96t358.5 -96t215.5 -265t72 -389t-72 -389t-215.5 -265t-358.5 -96zM706 54q185 0 308.5 85.5
t185.5 235.5t62 345t-62 345.5t-185.5 235.5t-308.5 85t-307.5 -85t-184.5 -235.5t-64 -345.5t60 -345t186.5 -235.5t309.5 -85.5z" />
    <glyph glyph-name="uni1ED1" unicode="&#x1ed1;" horiz-adv-x="1148" 
d="M338 1260l200 240h92l200 -240h-100l-146 170l-146 -170h-100zM892 1470h-88l96 270h88zM574 -30q-160 0 -270 73t-167 202t-57 297q0 170 58 298t168.5 199t267.5 71q161 0 271 -72.5t166.5 -200.5t56.5 -295q0 -171 -57 -299.5t-167.5 -200.5t-269.5 -72zM574 54
q204 0 304 135.5t100 352.5q0 221 -100.5 352.5t-303.5 131.5q-137 0 -226.5 -62t-133.5 -171t-44 -251q0 -220 102.5 -354t301.5 -134z" />
    <glyph glyph-name="uni1ED2" unicode="&#x1ed2;" horiz-adv-x="1412" 
d="M461 1620l200 240h92l200 -240h-100l-146 170l-146 -170h-100zM913 1830l-96 270h88l96 -270h-88zM706 -30q-215 0 -358.5 96t-215.5 265t-72 389t72 389t215.5 265t358.5 96t358.5 -96t215.5 -265t72 -389t-72 -389t-215.5 -265t-358.5 -96zM706 54q185 0 308.5 85.5
t185.5 235.5t62 345t-62 345.5t-185.5 235.5t-308.5 85t-307.5 -85t-184.5 -235.5t-64 -345.5t60 -345t186.5 -235.5t309.5 -85.5z" />
    <glyph glyph-name="uni1ED3" unicode="&#x1ed3;" horiz-adv-x="1148" 
d="M353 1260l200 240h92l200 -240h-100l-146 170l-146 -170h-100zM805 1470l-96 270h88l96 -270h-88zM574 -30q-160 0 -270 73t-167 202t-57 297q0 170 58 298t168.5 199t267.5 71q161 0 271 -72.5t166.5 -200.5t56.5 -295q0 -171 -57 -299.5t-167.5 -200.5t-269.5 -72z
M574 54q204 0 304 135.5t100 352.5q0 221 -100.5 352.5t-303.5 131.5q-137 0 -226.5 -62t-133.5 -171t-44 -251q0 -220 102.5 -354t301.5 -134z" />
    <glyph glyph-name="uni1ED4" unicode="&#x1ed4;" horiz-adv-x="1412" 
d="M497 1620l200 240h92l200 -240h-100l-146 170l-146 -170h-100zM1007 1811l-38 49q30 36 73 53.5t87.5 9t79.5 -54.5q25 -33 29.5 -70.5t-8 -74t-39 -67t-62.5 -50.5l-52 48q64 35 82 82t-6 84q-17 27 -42.5 32t-52.5 -6t-51 -35zM706 -30q-215 0 -358.5 96t-215.5 265
t-72 389t72 389t215.5 265t358.5 96t358.5 -96t215.5 -265t72 -389t-72 -389t-215.5 -265t-358.5 -96zM706 54q185 0 308.5 85.5t185.5 235.5t62 345t-62 345.5t-185.5 235.5t-308.5 85t-307.5 -85t-184.5 -235.5t-64 -345.5t60 -345t186.5 -235.5t309.5 -85.5z" />
    <glyph glyph-name="uni1ED5" unicode="&#x1ed5;" horiz-adv-x="1148" 
d="M327 1260l200 240h92l200 -240h-100l-146 170l-146 -170h-100zM837 1451l-38 49q30 36 73 53.5t87.5 9t79.5 -54.5q25 -33 29.5 -70.5t-8 -74t-39 -67t-62.5 -50.5l-52 48q64 35 82 82t-6 84q-17 27 -42.5 32t-52.5 -6t-51 -35zM574 -30q-160 0 -270 73t-167 202t-57 297
q0 170 58 298t168.5 199t267.5 71q161 0 271 -72.5t166.5 -200.5t56.5 -295q0 -171 -57 -299.5t-167.5 -200.5t-269.5 -72zM574 54q204 0 304 135.5t100 352.5q0 221 -100.5 352.5t-303.5 131.5q-137 0 -226.5 -62t-133.5 -171t-44 -251q0 -220 102.5 -354t301.5 -134z" />
    <glyph glyph-name="uni1ED6" unicode="&#x1ed6;" horiz-adv-x="1412" 
d="M455 1620l200 240h92l200 -240h-100l-146 170l-146 -170h-100zM845 1910q-39 0 -76.5 14.5t-73.5 33.5t-69 33.5t-63 14.5q-43 0 -53.5 -29.5t-0.5 -56.5h-72q-18 69 20.5 117.5t107.5 48.5q40 0 78 -14.5t74 -33.5t69 -33.5t63 -14.5q38 0 52 28t2 62h72
q18 -67 -20 -118.5t-110 -51.5zM706 -30q-215 0 -358.5 96t-215.5 265t-72 389t72 389t215.5 265t358.5 96t358.5 -96t215.5 -265t72 -389t-72 -389t-215.5 -265t-358.5 -96zM706 54q185 0 308.5 85.5t185.5 235.5t62 345t-62 345.5t-185.5 235.5t-308.5 85t-307.5 -85
t-184.5 -235.5t-64 -345.5t60 -345t186.5 -235.5t309.5 -85.5z" />
    <glyph glyph-name="uni1ED7" unicode="&#x1ed7;" horiz-adv-x="1148" 
d="M330 1260l200 240h92l200 -240h-100l-146 170l-146 -170h-100zM720 1550q-39 0 -76.5 14.5t-73.5 33.5t-69 33.5t-63 14.5q-43 0 -53.5 -29.5t-0.5 -56.5h-72q-18 69 20.5 117.5t107.5 48.5q40 0 78 -14.5t74 -33.5t69 -33.5t63 -14.5q38 0 52 28t2 62h72
q18 -67 -20 -118.5t-110 -51.5zM574 -30q-160 0 -270 73t-167 202t-57 297q0 170 58 298t168.5 199t267.5 71q161 0 271 -72.5t166.5 -200.5t56.5 -295q0 -171 -57 -299.5t-167.5 -200.5t-269.5 -72zM574 54q204 0 304 135.5t100 352.5q0 221 -100.5 352.5t-303.5 131.5
q-137 0 -226.5 -62t-133.5 -171t-44 -251q0 -220 102.5 -354t301.5 -134z" />
    <glyph glyph-name="uni1ED8" unicode="&#x1ed8;" horiz-adv-x="1412" 
d="M460 1620l200 240h92l200 -240h-100l-146 170l-146 -170h-100zM646 -380v128h120v-128h-120zM706 -30q-215 0 -358.5 96t-215.5 265t-72 389t72 389t215.5 265t358.5 96t358.5 -96t215.5 -265t72 -389t-72 -389t-215.5 -265t-358.5 -96zM706 54q185 0 308.5 85.5
t185.5 235.5t62 345t-62 345.5t-185.5 235.5t-308.5 85t-307.5 -85t-184.5 -235.5t-64 -345.5t60 -345t186.5 -235.5t309.5 -85.5z" />
    <glyph glyph-name="uni1ED9" unicode="&#x1ed9;" horiz-adv-x="1148" 
d="M514 -380v128h120v-128h-120zM328 1260l200 240h92l200 -240h-100l-146 170l-146 -170h-100zM574 -30q-160 0 -270 73t-167 202t-57 297q0 170 58 298t168.5 199t267.5 71q161 0 271 -72.5t166.5 -200.5t56.5 -295q0 -171 -57 -299.5t-167.5 -200.5t-269.5 -72zM574 54
q204 0 304 135.5t100 352.5q0 221 -100.5 352.5t-303.5 131.5q-137 0 -226.5 -62t-133.5 -171t-44 -251q0 -220 102.5 -354t301.5 -134z" />
    <glyph glyph-name="uni1EDA" unicode="&#x1eda;" horiz-adv-x="1412" 
d="M1117 1626h84q11 -64 1.5 -123t-62.5 -100q-37 -28 -106 -39.5t-142 34.5v50q53 -16 88.5 -15.5t66.5 16.5q56 28 66.5 75t3.5 102zM772 1620h-88l96 270h88zM706 -30q-215 0 -358.5 96t-215.5 265t-72 389t72 389t215.5 265t358.5 96t358.5 -96t215.5 -265t72 -389
t-72 -389t-215.5 -265t-358.5 -96zM706 54q185 0 308.5 85.5t185.5 235.5t62 345t-62 345.5t-185.5 235.5t-308.5 85t-307.5 -85t-184.5 -235.5t-64 -345.5t60 -345t186.5 -235.5t309.5 -85.5z" />
    <glyph glyph-name="uni1EDB" unicode="&#x1edb;" horiz-adv-x="1200" 
d="M977 1260h84q11 -64 1.5 -123t-62.5 -100q-37 -28 -106 -39.5t-142 34.5v50q53 -16 88.5 -15.5t66.5 16.5q56 28 66.5 75t3.5 102zM615 1260h-88l96 270h88zM574 -30q-160 0 -270 73t-167 202t-57 297q0 170 58 298t168.5 199t267.5 71q161 0 271 -72.5t166.5 -200.5
t56.5 -295q0 -171 -57 -299.5t-167.5 -200.5t-269.5 -72zM574 54q204 0 304 135.5t100 352.5q0 221 -100.5 352.5t-303.5 131.5q-137 0 -226.5 -62t-133.5 -171t-44 -251q0 -220 102.5 -354t301.5 -134z" />
    <glyph glyph-name="uni1EDC" unicode="&#x1edc;" horiz-adv-x="1412" 
d="M1117 1626h84q11 -64 1.5 -123t-62.5 -100q-37 -28 -106 -39.5t-142 34.5v50q53 -16 88.5 -15.5t66.5 16.5q56 28 66.5 75t3.5 102zM670 1620l-96 270h88l96 -270h-88zM706 -30q-215 0 -358.5 96t-215.5 265t-72 389t72 389t215.5 265t358.5 96t358.5 -96t215.5 -265
t72 -389t-72 -389t-215.5 -265t-358.5 -96zM706 54q185 0 308.5 85.5t185.5 235.5t62 345t-62 345.5t-185.5 235.5t-308.5 85t-307.5 -85t-184.5 -235.5t-64 -345.5t60 -345t186.5 -235.5t309.5 -85.5z" />
    <glyph glyph-name="uni1EDD" unicode="&#x1edd;" horiz-adv-x="1200" 
d="M977 1260h84q11 -64 1.5 -123t-62.5 -100q-37 -28 -106 -39.5t-142 34.5v50q53 -16 88.5 -15.5t66.5 16.5q56 28 66.5 75t3.5 102zM523 1260l-96 270h88l96 -270h-88zM574 -30q-160 0 -270 73t-167 202t-57 297q0 170 58 298t168.5 199t267.5 71q161 0 271 -72.5
t166.5 -200.5t56.5 -295q0 -171 -57 -299.5t-167.5 -200.5t-269.5 -72zM574 54q204 0 304 135.5t100 352.5q0 221 -100.5 352.5t-303.5 131.5q-137 0 -226.5 -62t-133.5 -171t-44 -251q0 -220 102.5 -354t301.5 -134z" />
    <glyph glyph-name="uni1EDE" unicode="&#x1ede;" horiz-adv-x="1412" 
d="M1117 1626h84q11 -64 1.5 -123t-62.5 -100q-37 -28 -106 -39.5t-142 34.5v50q53 -16 88.5 -15.5t66.5 16.5q56 28 66.5 75t3.5 102zM633 1811l-38 49q30 36 73 53.5t87.5 9t79.5 -54.5q25 -33 29.5 -70.5t-8 -74t-39 -67t-62.5 -50.5l-52 48q64 35 82 82t-6 84
q-17 27 -42.5 32t-52.5 -6t-51 -35zM706 -30q-215 0 -358.5 96t-215.5 265t-72 389t72 389t215.5 265t358.5 96t358.5 -96t215.5 -265t72 -389t-72 -389t-215.5 -265t-358.5 -96zM706 54q185 0 308.5 85.5t185.5 235.5t62 345t-62 345.5t-185.5 235.5t-308.5 85t-307.5 -85
t-184.5 -235.5t-64 -345.5t60 -345t186.5 -235.5t309.5 -85.5z" />
    <glyph glyph-name="uni1EDF" unicode="&#x1edf;" horiz-adv-x="1148" 
d="M483 1451l-38 49q30 36 73 53.5t87.5 9t79.5 -54.5q25 -33 29.5 -70.5t-8 -74t-39 -67t-62.5 -50.5l-52 48q64 35 82 82t-6 84q-17 27 -42.5 32t-52.5 -6t-51 -35zM977 1260h84q11 -64 1.5 -123t-62.5 -100q-37 -28 -106 -39.5t-142 34.5v50q53 -16 88.5 -15.5t66.5 16.5
q56 28 66.5 75t3.5 102zM574 -30q-160 0 -270 73t-167 202t-57 297q0 170 58 298t168.5 199t267.5 71q161 0 271 -72.5t166.5 -200.5t56.5 -295q0 -171 -57 -299.5t-167.5 -200.5t-269.5 -72zM574 54q204 0 304 135.5t100 352.5q0 221 -100.5 352.5t-303.5 131.5
q-137 0 -226.5 -62t-133.5 -171t-44 -251q0 -220 102.5 -354t301.5 -134z" />
    <glyph glyph-name="uni1EE0" unicode="&#x1ee0;" horiz-adv-x="1412" 
d="M1117 1626h84q11 -64 1.5 -123t-62.5 -100q-37 -28 -106 -39.5t-142 34.5v50q53 -16 88.5 -15.5t66.5 16.5q56 28 66.5 75t3.5 102zM706 -30q-215 0 -358.5 96t-215.5 265t-72 389t72 389t215.5 265t358.5 96t358.5 -96t215.5 -265t72 -389t-72 -389t-215.5 -265
t-358.5 -96zM706 54q185 0 308.5 85.5t185.5 235.5t62 345t-62 345.5t-185.5 235.5t-308.5 85t-307.5 -85t-184.5 -235.5t-64 -345.5t60 -345t186.5 -235.5t309.5 -85.5zM845 1620q-39 0 -76.5 14.5t-73.5 33.5t-69 33.5t-63 14.5q-43 0 -53.5 -29.5t-0.5 -56.5h-72
q-18 69 20.5 117.5t107.5 48.5q40 0 78 -14.5t74 -33.5t69 -33.5t63 -14.5q38 0 52 28t2 62h72q18 -67 -20 -118.5t-110 -51.5z" />
    <glyph glyph-name="uni1EE1" unicode="&#x1ee1;" horiz-adv-x="1148" 
d="M712 1260q-39 0 -76.5 14.5t-73.5 33.5t-69 33.5t-63 14.5q-43 0 -53.5 -29.5t-0.5 -56.5h-72q-18 69 20.5 117.5t107.5 48.5q40 0 78 -14.5t74 -33.5t69 -33.5t63 -14.5q38 0 52 28t2 62h72q18 -67 -20 -118.5t-110 -51.5zM977 1260h84q11 -64 1.5 -123t-62.5 -100
q-37 -28 -106 -39.5t-142 34.5v50q53 -16 88.5 -15.5t66.5 16.5q56 28 66.5 75t3.5 102zM574 -30q-160 0 -270 73t-167 202t-57 297q0 170 58 298t168.5 199t267.5 71q161 0 271 -72.5t166.5 -200.5t56.5 -295q0 -171 -57 -299.5t-167.5 -200.5t-269.5 -72zM574 54
q204 0 304 135.5t100 352.5q0 221 -100.5 352.5t-303.5 131.5q-137 0 -226.5 -62t-133.5 -171t-44 -251q0 -220 102.5 -354t301.5 -134z" />
    <glyph glyph-name="uni1EE2" unicode="&#x1ee2;" horiz-adv-x="1412" 
d="M646 -380v128h120v-128h-120zM1117 1626h84q11 -64 1.5 -123t-62.5 -100q-37 -28 -106 -39.5t-142 34.5v50q53 -16 88.5 -15.5t66.5 16.5q56 28 66.5 75t3.5 102zM706 -30q-215 0 -358.5 96t-215.5 265t-72 389t72 389t215.5 265t358.5 96t358.5 -96t215.5 -265t72 -389
t-72 -389t-215.5 -265t-358.5 -96zM706 54q185 0 308.5 85.5t185.5 235.5t62 345t-62 345.5t-185.5 235.5t-308.5 85t-307.5 -85t-184.5 -235.5t-64 -345.5t60 -345t186.5 -235.5t309.5 -85.5z" />
    <glyph glyph-name="uni1EE3" unicode="&#x1ee3;" horiz-adv-x="1148" 
d="M513 -380v128h120v-128h-120zM977 1260h84q11 -64 1.5 -123t-62.5 -100q-37 -28 -106 -39.5t-142 34.5v50q53 -16 88.5 -15.5t66.5 16.5q56 28 66.5 75t3.5 102zM574 -30q-160 0 -270 73t-167 202t-57 297q0 170 58 298t168.5 199t267.5 71q161 0 271 -72.5t166.5 -200.5
t56.5 -295q0 -171 -57 -299.5t-167.5 -200.5t-269.5 -72zM574 54q204 0 304 135.5t100 352.5q0 221 -100.5 352.5t-303.5 131.5q-137 0 -226.5 -62t-133.5 -171t-44 -251q0 -220 102.5 -354t301.5 -134z" />
    <glyph glyph-name="uni1EE4" unicode="&#x1ee4;" horiz-adv-x="1380" 
d="M630 -380v128h120v-128h-120zM690 -30q-160 0 -284 67t-195 188.5t-71 284.5v930h84v-902q0 -133 45 -226.5t116 -151t152 -84t153 -26.5t153 26.5t152 84t116 151t45 226.5v902h84v-930q0 -162 -71 -283.5t-195 -189t-284 -67.5z" />
    <glyph glyph-name="uni1EE5" unicode="&#x1ee5;" 
d="M503 -380v128h120v-128h-120zM558 -24q-82 0 -150.5 23t-122 66.5t-90.5 106.5t-56 143.5t-19 176.5v588h84v-572q0 -115 23.5 -200t69.5 -140.5t111.5 -82.5t149.5 -27q99 0 168.5 34.5t112.5 94.5t63 138t20 165l78 2q0 -185 -61 -298.5t-161.5 -165.5t-219.5 -52z
M928 0v220h-6v860h84v-1080h-78z" />
    <glyph glyph-name="uni1EE6" unicode="&#x1ee6;" horiz-adv-x="1380" 
d="M600 1811l-38 49q30 36 73 53.5t87.5 9t79.5 -54.5q25 -33 29.5 -70.5t-8 -74t-39 -67t-62.5 -50.5l-52 48q64 35 82 82t-6 84q-17 27 -42.5 32t-52.5 -6t-51 -35zM690 -30q-160 0 -284 67t-195 188.5t-71 284.5v930h84v-902q0 -133 45 -226.5t116 -151t152 -84
t153 -26.5t153 26.5t152 84t116 151t45 226.5v902h84v-930q0 -162 -71 -283.5t-195 -189t-284 -67.5z" />
    <glyph glyph-name="uni1EE7" unicode="&#x1ee7;" 
d="M483 1451l-38 49q30 36 73 53.5t87.5 9t79.5 -54.5q25 -33 29.5 -70.5t-8 -74t-39 -67t-62.5 -50.5l-52 48q64 35 82 82t-6 84q-17 27 -42.5 32t-52.5 -6t-51 -35zM558 -24q-82 0 -150.5 23t-122 66.5t-90.5 106.5t-56 143.5t-19 176.5v588h84v-572q0 -115 23.5 -200
t69.5 -140.5t111.5 -82.5t149.5 -27q99 0 168.5 34.5t112.5 94.5t63 138t20 165l78 2q0 -185 -61 -298.5t-161.5 -165.5t-219.5 -52zM928 0v220h-6v860h84v-1080h-78z" />
    <glyph glyph-name="uni1EE8" unicode="&#x1ee8;" horiz-adv-x="1380" 
d="M1321 1620h84q11 -64 2 -124t-62 -100q-37 -28 -84 -31.5t-105 5.5v70q22 1 46.5 1t49.5 6q62 15 69 66.5t0 106.5zM711 1620h-88l96 270h88zM690 -30q-160 0 -284 67t-195 188.5t-71 284.5v930h84v-902q0 -133 45 -226.5t116 -151t152 -84t153 -26.5t153 26.5t152 84
t116 151t45 226.5v902h84v-930q0 -162 -71 -283.5t-195 -189t-284 -67.5z" />
    <glyph glyph-name="uni1EE9" unicode="&#x1ee9;" 
d="M1087 1260h84q11 -64 2 -124t-62 -100q-37 -28 -84 -31.5t-105 5.5v70q22 1 46.5 1t49.5 6q62 15 69 66.5t0 106.5zM604 1260h-88l96 270h88zM558 -24q-82 0 -150.5 23t-122 66.5t-90.5 106.5t-56 143.5t-19 176.5v588h84v-572q0 -115 23.5 -200t69.5 -140.5t111.5 -82.5
t149.5 -27q99 0 168.5 34.5t112.5 94.5t63 138t20 165l78 2q0 -185 -61 -298.5t-161.5 -165.5t-219.5 -52zM928 0v220h-6v860h84v-1080h-78z" />
    <glyph glyph-name="uni1EEA" unicode="&#x1eea;" horiz-adv-x="1380" 
d="M1321 1620h84q11 -64 2 -124t-62 -100q-37 -28 -84 -31.5t-105 5.5v70q22 1 46.5 1t49.5 6q62 15 69 66.5t0 106.5zM669 1620l-96 270h88l96 -270h-88zM690 -30q-160 0 -284 67t-195 188.5t-71 284.5v930h84v-902q0 -133 45 -226.5t116 -151t152 -84t153 -26.5t153 26.5
t152 84t116 151t45 226.5v902h84v-930q0 -162 -71 -283.5t-195 -189t-284 -67.5z" />
    <glyph glyph-name="uni1EEB" unicode="&#x1eeb;" 
d="M1087 1260h84q11 -64 2 -124t-62 -100q-37 -28 -84 -31.5t-105 5.5v70q22 1 46.5 1t49.5 6q62 15 69 66.5t0 106.5zM547 1260l-96 270h88l96 -270h-88zM558 -24q-82 0 -150.5 23t-122 66.5t-90.5 106.5t-56 143.5t-19 176.5v588h84v-572q0 -115 23.5 -200t69.5 -140.5
t111.5 -82.5t149.5 -27q99 0 168.5 34.5t112.5 94.5t63 138t20 165l78 2q0 -185 -61 -298.5t-161.5 -165.5t-219.5 -52zM928 0v220h-6v860h84v-1080h-78z" />
    <glyph glyph-name="uni1EEC" unicode="&#x1eec;" horiz-adv-x="1380" 
d="M1321 1620h84q11 -64 2 -124t-62 -100q-37 -28 -84 -31.5t-105 5.5v70q22 1 46.5 1t49.5 6q62 15 69 66.5t0 106.5zM600 1811l-38 49q30 36 73 53.5t87.5 9t79.5 -54.5q25 -33 29.5 -70.5t-8 -74t-39 -67t-62.5 -50.5l-52 48q64 35 82 82t-6 84q-17 27 -42.5 32t-52.5 -6
t-51 -35zM690 -30q-160 0 -284 67t-195 188.5t-71 284.5v930h84v-902q0 -133 45 -226.5t116 -151t152 -84t153 -26.5t153 26.5t152 84t116 151t45 226.5v902h84v-930q0 -162 -71 -283.5t-195 -189t-284 -67.5z" />
    <glyph glyph-name="uni1EED" unicode="&#x1eed;" 
d="M1087 1260h84q11 -64 2 -124t-62 -100q-37 -28 -84 -31.5t-105 5.5v70q22 1 46.5 1t49.5 6q62 15 69 66.5t0 106.5zM483 1451l-38 49q30 36 73 53.5t87.5 9t79.5 -54.5q25 -33 29.5 -70.5t-8 -74t-39 -67t-62.5 -50.5l-52 48q64 35 82 82t-6 84q-17 27 -42.5 32t-52.5 -6
t-51 -35zM558 -24q-82 0 -150.5 23t-122 66.5t-90.5 106.5t-56 143.5t-19 176.5v588h84v-572q0 -115 23.5 -200t69.5 -140.5t111.5 -82.5t149.5 -27q99 0 168.5 34.5t112.5 94.5t63 138t20 165l78 2q0 -185 -61 -298.5t-161.5 -165.5t-219.5 -52zM928 0v220h-6v860h84v-1080
h-78z" />
    </font>
</defs>
</svg>
