<?xml version="1.0" standalone="no"?>
<!DOCTYPE svg PUBLIC "-//W3C//DTD SVG 1.1//EN" "http://www.w3.org/Graphics/SVG/1.1/DTD/svg11.dtd" >
<svg xmlns="http://www.w3.org/2000/svg" xmlns:xlink="http://www.w3.org/1999/xlink" version="1.1">
<metadata>
Created by FontForge 20190801 at Thu Jul 22 16:47:27 2021
 By www-data
Copyright 2019 The Manrope Project Authors (https://github.com/sharanda/manrope)
</metadata>
<defs>
<font id="ManropeExtraBold" horiz-adv-x="1272" >
  <font-face 
    font-family="ManropeExtraBold"
    font-weight="800"
    font-stretch="normal"
    units-per-em="2000"
    panose-1="0 0 0 0 0 0 0 0 0 0"
    ascent="1600"
    descent="-400"
    x-height="1080"
    cap-height="1440"
    bbox="-286 -630 2500 2449.38"
    underline-thickness="50"
    underline-position="-125"
    unicode-range="U+000D-FB02"
  />
<missing-glyph horiz-adv-x="1480" 
d="M200 0v114h1080v-114h-1080zM200 144v80h1080v-80h-1080zM200 260v74h1080v-74h-1080zM200 374v70h1080v-70h-1080zM200 490v66h1080v-66h-1080zM200 606v60h1080v-60h-1080zM200 720v56h1080v-56h-1080zM200 838v48h1080v-48h-1080zM200 952v44h1080v-44h-1080z
M200 1066v42h1080v-42h-1080zM200 1184v36h1080v-36h-1080zM200 1298v32h1080v-32h-1080zM200 1414v26h1080v-26h-1080z" />
    <glyph glyph-name="parenleft_c_parenright.liga" unicode="&#x28;c&#x29;" horiz-adv-x="2028" 
d="M1014 -140q-177 0 -332 66.5t-272 183.5t-183.5 272t-66.5 332t66.5 332t183.5 272t272 183.5t332 66.5t332 -66.5t272 -183.5t183.5 -272t66.5 -332t-66.5 -332t-183.5 -272t-272 -183.5t-332 -66.5zM1032 286q-103 0 -175 32t-129 102q-52 66 -76 139t-24 155
q0 86 25.5 159t74.5 133q56 68 130.5 102t183.5 34q57 0 104 -11t98 -43q57 -34 97.5 -88t56.5 -128l-204 -54q-7 27 -21.5 51t-38.5 45q-22 20 -48.5 29t-55.5 9q-45 0 -79.5 -18t-60.5 -50q-27 -34 -36.5 -78.5t-9.5 -91.5q0 -46 10.5 -89t35.5 -79q24 -33 59.5 -50.5
t84.5 -17.5q70 0 104 34q21 21 32 41t20 45l208 -42q-16 -58 -49 -110t-83 -90q-45 -34 -99.5 -52t-134.5 -18zM1014 114q125 0 233.5 46.5t191 129t129 191.5t46.5 233q0 125 -46.5 233.5t-129 191t-191 129t-233.5 46.5q-124 0 -233 -46.5t-191.5 -129t-129 -191
t-46.5 -233.5q0 -124 46.5 -233t129 -191.5t191.5 -129t233 -46.5z" />
    <glyph glyph-name="space_less_three_space.liga" unicode="&#x20;&#x3c;&#x33;&#x20;" horiz-adv-x="2318" 
d="M1158 -30q-87 0 -150 66l-332 350q-76 82 -101.5 179.5t-8 193.5t71.5 175.5t138 127.5t190 48q101 0 192 -50q56 30 105.5 40t88.5 10q107 0 191 -48.5t138 -128.5t71 -176t-8.5 -193t-101.5 -178l-330 -350q-63 -66 -154 -66zM1158 182l332 348q49 51 57.5 114.5
t-14.5 121.5t-70.5 96t-110.5 38q-46 0 -95 -26t-99 -80q-97 106 -192 106q-65 0 -112 -39t-69 -98t-12.5 -122t57.5 -111z" />
    <glyph glyph-name="prnleft_grtr_prnright.liga" unicode="&#x28;&#x3e;&#x29;" horiz-adv-x="2300" 
d="M1006 1080l432 -360l-432 -360v720zM1150 -16q-153 0 -286.5 57t-234.5 158t-158 234.5t-57 286.5t57 286.5t158 234.5t234.5 158t286.5 57t286.5 -57t234.5 -158t158 -234.5t57 -286.5t-57 -286.5t-158 -234.5t-234.5 -158t-286.5 -57zM1150 -270q206 0 385.5 77
t315.5 213t212.5 315.5t76.5 384.5q0 206 -76.5 385.5t-212.5 315.5t-315.5 212.5t-385.5 76.5q-205 0 -384.5 -76.5t-315.5 -212.5t-213 -315.5t-77 -385.5q0 -205 77 -384.5t213 -315.5t315.5 -213t384.5 -77z" />
    <glyph glyph-name="f_f" unicode="ff" horiz-adv-x="1464" 
d="M230 0v1076q0 41 2 93t16.5 105t53.5 96q50 56 108.5 76.5t113.5 22t94 1.5h134v-220h-124q-64 0 -95 -32.5t-31 -77.5v-1140h-272zM60 870v210h692v-210h-692zM922 0v1076q0 41 2 93t16.5 105t53.5 96q50 56 108.5 76.5t113.5 22t94 1.5h134v-220h-124q-64 0 -95 -32.5
t-31 -77.5v-1140h-272zM752 870v210h692v-210h-692z" />
    <glyph glyph-name="f_f_l" unicode="ffl" horiz-adv-x="2114" 
d="M1432 870v210h260v-210h-260zM922 0v1076q0 41 2 93t16.5 105t53.5 96q50 56 108.5 76.5t113.5 22t94 1.5h134v-220h-124q-64 0 -95 -32.5t-31 -77.5v-1140h-272zM752 870v210h692v-210h-692zM1682 0v1470h272v-1470h-272zM230 0v1076q0 41 2 93t16.5 105t53.5 96
q50 56 108.5 76.5t113.5 22t94 1.5h134v-220h-124q-64 0 -95 -32.5t-31 -77.5v-1140h-272zM60 870v210h692v-210h-692z" />
    <glyph glyph-name="t_t.liga" unicode="tt" horiz-adv-x="1656" 
d="M788 0q-112 -21 -219.5 -18.5t-192 38t-128.5 114.5q-40 74 -42 150.5t-2 173.5v922h272v-906q0 -63 1.5 -113.5t20.5 -80.5q36 -57 115 -62t175 8v-226zM20 870v210h768v-210h-768zM1556 0q-112 -21 -219.5 -18.5t-192 38t-128.5 114.5q-40 74 -42 150.5t-2 173.5v922
h272v-906q0 -63 1.5 -113.5t20.5 -80.5q36 -57 115 -62t175 8v-226zM788 870v210h768v-210h-768z" />
    <glyph glyph-name="fi" unicode="fi" horiz-adv-x="1394" 
d="M230 0v1076q0 41 2 93t16.5 105t53.5 96q50 56 108.5 76.5t113.5 22t94 1.5h134v-220h-124q-64 0 -95 -32.5t-31 -77.5v-1140h-272zM60 870v210h692v-210h-692zM962 1230v240h272v-240h-272zM962 0v1080h272v-1080h-272z" />
    <glyph glyph-name="fl" unicode="fl" horiz-adv-x="1422" 
d="M740 870v210h260v-210h-260zM230 0v1076q0 41 2 93t16.5 105t53.5 96q50 56 108.5 76.5t113.5 22t94 1.5h134v-220h-124q-64 0 -95 -32.5t-31 -77.5v-1140h-272zM60 870v210h692v-210h-692zM990 0v1470h272v-1470h-272z" />
    <glyph glyph-name="hyphen_hyphen.liga" unicode="&#x2d;&#x2d;" horiz-adv-x="1080" 
d="M120 526v210h840v-210h-840z" />
    <glyph glyph-name="hyphen_greater.liga" unicode="&#x2d;&#x3e;" horiz-adv-x="2030" 
d="M280 526v210h1110l-250 250l126 128l484 -484l-484 -484l-126 128l252 252h-1112z" />
    <glyph glyph-name="less_hyphen.liga" unicode="&#x3c;&#x2d;" horiz-adv-x="2030" 
d="M1750 526h-1112l252 -252l-126 -128l-484 484l484 484l126 -128l-250 -250h1110v-210z" />
    <glyph glyph-name=".notdef" horiz-adv-x="1480" 
d="M200 0v114h1080v-114h-1080zM200 144v80h1080v-80h-1080zM200 260v74h1080v-74h-1080zM200 374v70h1080v-70h-1080zM200 490v66h1080v-66h-1080zM200 606v60h1080v-60h-1080zM200 720v56h1080v-56h-1080zM200 838v48h1080v-48h-1080zM200 952v44h1080v-44h-1080z
M200 1066v42h1080v-42h-1080zM200 1184v36h1080v-36h-1080zM200 1298v32h1080v-32h-1080zM200 1414v26h1080v-26h-1080z" />
    <glyph glyph-name=".null" horiz-adv-x="0" 
 />
    <glyph glyph-name="nonmarkingreturn" horiz-adv-x="666" 
 />
    <glyph glyph-name="CR" unicode="&#xd;" horiz-adv-x="1200" 
 />
    <glyph glyph-name="space" unicode=" " horiz-adv-x="400" 
 />
    <glyph glyph-name="exclam" unicode="!" horiz-adv-x="752" 
d="M240 0v240h272v-240h-272zM240 360v1080h272v-1080h-272z" />
    <glyph glyph-name="quotedbl" unicode="&#x22;" horiz-adv-x="984" 
d="M120 1080v360h272v-360h-272zM512 1080v360h272v-360h-272z" />
    <glyph glyph-name="numbersign" unicode="#" horiz-adv-x="1870" 
d="M366 2l102 376h-348l68 256h348l54 206h-348l70 254h346l94 346h264l-94 -346h216l94 346h264l-94 -346h348l-68 -254h-348l-56 -206h348l-68 -256h-348l-100 -376h-264l100 376h-216l-100 -376h-264zM800 634h214l56 206h-216z" />
    <glyph glyph-name="dollar" unicode="$" horiz-adv-x="1282" 
d="M516 -200v240h272v-240h-272zM516 1398v240h272v-240h-272zM654 -30q-155 0 -277 57.5t-199 163t-98 249.5l270 42q27 -118 113.5 -188t206.5 -70q113 0 187.5 53t74.5 131q0 53 -32.5 87.5t-101.5 56.5l-356 110q-308 95 -308 376q0 132 62.5 229t177 149.5t270.5 51.5
q143 -2 254 -51.5t185.5 -143t108.5 -227.5l-280 -50q-14 64 -52 112.5t-94.5 76t-125.5 29.5q-66 2 -119.5 -19t-85 -58.5t-31.5 -84.5q0 -52 44 -89.5t140 -64.5l254 -72q191 -55 275.5 -149t84.5 -249q0 -136 -69 -239t-192.5 -161t-286.5 -58z" />
    <glyph glyph-name="percent" unicode="%" horiz-adv-x="1800" 
d="M360 0l-180 180l1260 1260l180 -182zM1320 -30q-99 0 -180.5 48.5t-130.5 130t-49 181.5q0 98 50 180t132 131t178 49q99 0 181 -48.5t130.5 -130t48.5 -181.5t-48.5 -181.5t-130.5 -130t-181 -48.5zM1320 200q35 0 64.5 18t47.5 47.5t18 64.5t-18 64.5t-47.5 47.5
t-64.5 18t-64.5 -18t-47.5 -47.5t-18 -64.5t18 -64.5t47.5 -47.5t64.5 -18zM480 750q-99 0 -181 48.5t-130.5 130t-48.5 181.5q0 98 50 180t132 131t178 49q99 0 180.5 -48.5t130.5 -130t49 -181.5t-49 -181.5t-130.5 -130t-180.5 -48.5zM480 980q35 0 64.5 18t47.5 47.5
t18 64.5t-18 64.5t-47.5 47.5t-64.5 18t-64.5 -18t-47.5 -47.5t-18 -64.5t18 -64.5t47.5 -47.5t64.5 -18z" />
    <glyph glyph-name="ampersand" unicode="&#x26;" horiz-adv-x="1348" 
d="M622 -30q-120 0 -228 36t-180 114q-58 65 -84.5 140t-29.5 162q0 86 25 164.5t77 139.5q17 20 36 36.5t38 31.5q-54 62 -81 122.5t-27 139.5q0 131 71.5 234t194.5 146q51 18 103 24t101 6q99 0 189 -30.5t153 -99.5q39 -40 64.5 -89t37.5 -99l-270 -54q-12 42 -42 72
q-28 29 -66 37.5t-74 8.5q-57 0 -100 -20q-45 -21 -66.5 -55t-21.5 -85q0 -46 18 -73t42 -53q17 -18 42.5 -42t53.5 -50l330 -306v40v42v164h236v-274q0 -46 -2 -96.5t-10 -83.5l176 -162l-174 -186l-132 126q-57 -49 -121.5 -78t-130.5 -40q-42 -6 -77 -8t-71 -2zM634 228
q23 0 44 2t42 6q32 6 58.5 17.5t47.5 26.5l-352 324q-21 -9 -37.5 -22t-28.5 -28q-16 -22 -25 -51t-9 -65q0 -43 13.5 -74.5t32.5 -57.5q33 -42 96 -60t118 -18z" />
    <glyph glyph-name="quotesingle" unicode="'" horiz-adv-x="552" 
d="M120 1080v360h272v-360h-272z" />
    <glyph glyph-name="parenleft" unicode="(" horiz-adv-x="924" 
d="M642 -388q-116 136 -198.5 309t-125 362.5t-38.5 376.5q-4 187 38.5 377t125 362.5t198.5 308.5l202 -148q-122 -147 -191 -293.5t-97.5 -297t-29.5 -309.5q1 -159 29.5 -309.5t97.5 -297t191 -293.5z" />
    <glyph glyph-name="parenright" unicode=")" horiz-adv-x="924" 
d="M282 -388l-202 148q122 147 191 293.5t97.5 297t29.5 309.5q-1 159 -29.5 309.5t-97.5 297t-191 293.5l202 148q116 -136 198.5 -308.5t125 -362.5t38.5 -377q4 -187 -38.5 -376.5t-125 -362.5t-198.5 -309z" />
    <glyph glyph-name="asterisk" unicode="*" horiz-adv-x="948" 
d="M326 710l-194 140l148 168l-220 56l74 228l208 -90l-18 228h240l-18 -228l208 90l74 -228l-220 -56l148 -168l-194 -140l-118 190z" />
    <glyph glyph-name="plus" unicode="+" horiz-adv-x="1140" 
d="M466 270v346h-346v210h346v344h210v-344h344v-210h-344v-346h-210z" />
    <glyph glyph-name="comma" unicode="," horiz-adv-x="632" 
d="M120 -270l16 114q48 -4 78 15.5t41.5 56t4.5 84.5h-140v272h272v-272q0 -144 -67 -218t-205 -52z" />
    <glyph glyph-name="hyphen" unicode="-" horiz-adv-x="840" 
d="M120 526v210h600v-210h-600z" />
    <glyph glyph-name="period" unicode="." horiz-adv-x="640" 
d="M184 0v272h272v-272h-272z" />
    <glyph glyph-name="slash" unicode="/" horiz-adv-x="896" 
d="M504 1440h272l-384 -1440h-272z" />
    <glyph glyph-name="zero" unicode="0" horiz-adv-x="1348" 
d="M674 -30q-160 0 -280 67t-187 187t-67 280v432q0 160 67 280t187 187t280 67t280 -67t187 -187t67 -280v-432q0 -160 -67 -280t-187 -187t-280 -67zM674 228q72 0 130 34t92 92t34 130v474q0 72 -34 130t-92 92t-130 34t-130 -34t-92 -92t-34 -130v-474q0 -72 34 -130
t92 -92t130 -34z" />
    <glyph glyph-name="one" unicode="1" horiz-adv-x="908" 
d="M390 0v1144l-270 -166v300l270 162h278v-1440h-278z" />
    <glyph glyph-name="two" unicode="2" horiz-adv-x="1208" 
d="M100 2v236l604 536q68 60 96 113t28 99q0 66 -27 117.5t-76 81t-115 29.5q-69 0 -121.5 -31.5t-81.5 -83t-27 -111.5h-280q0 148 65 256t181 167t270 59q141 0 252.5 -61.5t175.5 -171.5t64 -255q0 -107 -30 -177.5t-89 -130t-145 -134.5l-390 -342l-22 60h676v-256
h-1008z" />
    <glyph glyph-name="three" unicode="3" horiz-adv-x="1182" 
d="M560 -26q-108 0 -206 43.5t-170.5 122.5t-103.5 186l264 70q21 -79 82.5 -122.5t133.5 -43.5q62 0 113.5 30t82 81t30.5 113q0 93 -63.5 159.5t-162.5 66.5q-30 0 -58 -8.5t-54 -23.5l-122 214l458 380l20 -58h-668v256h900v-256l-356 -344l-2 76q124 -19 209.5 -86.5
t130 -166t44.5 -209.5q0 -136 -69 -244.5t-183 -172t-250 -63.5z" />
    <glyph glyph-name="four" unicode="4" horiz-adv-x="1230" 
d="M726 0v224h-626v254l454 962h312l-454 -962h314v360h276v-360h128v-254h-128v-224h-276z" />
    <glyph glyph-name="five" unicode="5" horiz-adv-x="1178" 
d="M568 -30q-109 0 -204.5 45t-164.5 125t-99 186l262 70q13 -51 46.5 -88t78 -57.5t91.5 -20.5q62 0 113.5 30t82 81t30.5 113t-30.5 113t-82 81t-113.5 30q-76 0 -124 -25.5t-72 -48.5l-230 70l44 766h786v-254h-636l96 90l-30 -494l-46 56q54 44 123 64t129 20
q136 0 239.5 -60.5t162 -166t58.5 -241.5t-71 -245.5t-187 -174t-252 -64.5z" />
    <glyph glyph-name="six" unicode="6" horiz-adv-x="1244" 
d="M642 -30q-143 0 -256.5 67t-179.5 186.5t-66 276.5v418q0 170 66 293.5t186 190t282 66.5q105 0 200 -31t174 -105l-194 -194q-36 36 -83 56t-97 20q-78 0 -135.5 -36.5t-89 -95t-31.5 -124.5v-214l-46 50q62 63 143.5 96.5t168.5 33.5q136 0 239.5 -61t162 -167
t58.5 -242t-69 -245.5t-183 -174t-250 -64.5zM642 230q62 0 113.5 30t82 81t30.5 113t-30 113.5t-81 82t-113 30.5t-113.5 -30.5t-82 -82t-30.5 -113.5q0 -60 30 -111t81 -82t113 -31z" />
    <glyph glyph-name="seven" unicode="7" horiz-adv-x="1088" 
d="M212 0l484 1184h-616v256h908v-256l-482 -1184h-294z" />
    <glyph glyph-name="eight" unicode="8" horiz-adv-x="1246" 
d="M622 -30q-146 0 -259.5 59.5t-178 164t-64.5 238.5q0 114 51.5 215t148.5 165l-6 -84q-73 71 -114.5 150t-41.5 178q0 125 59.5 218t164 144.5t240.5 51.5t240.5 -51.5t164 -144.5t59.5 -218q0 -99 -39 -177.5t-119 -152.5v84q95 -60 146.5 -162t51.5 -216
q0 -134 -65 -238.5t-179 -164t-260 -59.5zM622 226q96 0 156 52t60 154q0 101 -60 154.5t-156 53.5t-155 -53.5t-59 -154.5q0 -102 59 -154t155 -52zM622 898q78 0 127 38.5t49 119.5t-49 120.5t-127 39.5t-127 -39.5t-49 -120.5t49 -119.5t127 -38.5z" />
    <glyph glyph-name="nine" unicode="9" horiz-adv-x="1244" 
d="M602 1468q143 0 256.5 -67t179.5 -186.5t66 -276.5v-418q0 -170 -66 -293.5t-186 -190t-282 -66.5q-105 0 -199.5 31.5t-174.5 104.5l194 194q36 -36 83.5 -56t96.5 -20q78 0 135.5 36.5t89 95t31.5 124.5v214l46 -50q-61 -63 -143 -96.5t-169 -33.5q-136 0 -239.5 61
t-162 167t-58.5 242t69 245.5t183 174t250 64.5zM602 1208q-62 0 -113.5 -30t-82 -81t-30.5 -113t30 -113.5t81 -82t113 -30.5t113.5 30.5t82 82t30.5 113.5q0 60 -30 111t-81 82t-113 31z" />
    <glyph glyph-name="colon" unicode=":" horiz-adv-x="714" 
d="M220 120v272h272v-272h-272zM222 688v272h272v-272h-272z" />
    <glyph glyph-name="semicolon" unicode=";" horiz-adv-x="712" 
d="M220 -270l16 114q48 -4 78 15.5t41.5 56t4.5 84.5h-140v272h272v-272q0 -144 -67 -218t-205 -52zM220 808v272h272v-272h-272z" />
    <glyph glyph-name="less" unicode="&#x3c;" horiz-adv-x="1290" 
d="M764 146l-484 484l484 484l168 -168l-328 -316l328 -316z" />
    <glyph glyph-name="equal" unicode="=" horiz-adv-x="1500" 
d="M240 810v210h1020v-210h-1020zM240 420v210h1020v-210h-1020z" />
    <glyph glyph-name="greater" unicode="&#x3e;" horiz-adv-x="1290" 
d="M526 146l-168 168l328 316l-328 316l168 168l484 -484z" />
    <glyph glyph-name="question" unicode="?" horiz-adv-x="1126" 
d="M394 390q0 66 15.5 132t46.5 120q25 51 54.5 80.5t68 60.5t91.5 87q41 45 54.5 88.5t13.5 95.5q0 27 -5.5 52t-20.5 44q-24 33 -63.5 47.5t-84.5 14.5q-34 0 -66.5 -8t-55.5 -26q-28 -21 -41.5 -53t-12.5 -71h-288q12 107 61 196t127 140q57 38 126 58t138 20
q114 0 215 -35.5t167 -116.5q44 -51 68 -118.5t24 -135.5q0 -109 -49 -198t-121 -166q-31 -33 -55.5 -57.5t-44 -46t-34.5 -44.5q-28 -46 -34 -75t-6 -85h-288zM396 0v288h286v-288h-286z" />
    <glyph glyph-name="at" unicode="@" horiz-adv-x="1834" 
d="M912 -210q-168 0 -306 53t-238 149.5t-154 227.5t-54 286q0 203 60 351t164.5 244t237.5 142.5t278 46.5q191 0 336 -57t242.5 -156.5t146.5 -228.5t49 -274q0 -199 -72.5 -310.5t-251.5 -111.5q-78 0 -153 36t-105 108h68q-46 -82 -118.5 -113t-147.5 -31
q-111 0 -196.5 48.5t-134.5 136t-49 203.5q0 119 51.5 206t138.5 134.5t194 47.5q65 0 136.5 -26.5t111.5 -65.5l-42 -58v122h162l-4 -394q0 -78 24.5 -110t63.5 -32q51 0 71 28.5t23.5 76t3.5 105.5q0 158 -53.5 257t-136.5 153.5t-173.5 75t-164.5 20.5
q-130 0 -231.5 -38.5t-171 -112t-103.5 -178t-30 -237.5q5 -126 44 -222t109.5 -161t167.5 -98t217 -33q54 0 107.5 9t102.5 25l68 -200q-67 -22 -140 -33t-148 -11zM910 364q65 0 111.5 37t46.5 139q0 86 -37.5 131t-112.5 45q-91 0 -134.5 -48t-43.5 -128q0 -81 44 -128.5
t126 -47.5z" />
    <glyph glyph-name="A" unicode="A" horiz-adv-x="1366" 
d="M40 0l440 1440h406l440 -1440h-280l-392 1270h52l-386 -1270h-280zM304 300v254h760v-254h-760z" />
    <glyph glyph-name="B" unicode="B" horiz-adv-x="1274" 
d="M140 0v1440h576q154 0 249 -61.5t139 -154.5t44 -188q0 -121 -54.5 -201t-149.5 -107v50q135 -28 202.5 -125t67.5 -217q0 -129 -47.5 -227t-144.5 -153.5t-244 -55.5h-638zM416 256h334q55 0 98 23.5t67.5 66t24.5 100.5q0 51 -21 91t-63.5 63.5t-105.5 23.5h-334v-368z
M416 878h296q46 0 82 16t57 49.5t21 86.5q0 66 -41 111t-119 45h-296v-308z" />
    <glyph glyph-name="C" unicode="C" horiz-adv-x="1492" 
d="M758 -30q-216 0 -372.5 94t-241 263t-84.5 393t84.5 393t241 263t372.5 94q248 0 416.5 -123t237.5 -333l-274 -76q-40 131 -135 203.5t-245 72.5q-137 0 -228.5 -61t-137.5 -172t-46 -261t46 -261t137.5 -172t228.5 -61q150 0 245 73t135 203l274 -76
q-69 -210 -237.5 -333t-416.5 -123z" />
    <glyph glyph-name="D" unicode="D" horiz-adv-x="1420" 
d="M140 0v1440h466q17 0 70 -1t102 -7q174 -21 295 -121t184 -254t63 -337t-63 -337t-184 -254t-295 -121q-49 -6 -102 -7t-70 -1h-466zM416 256h190q27 0 73 1.5t83 8.5q94 19 153.5 88t88 166t28.5 200q0 108 -29.5 205t-89.5 164t-151 85q-37 8 -83 9t-73 1h-190v-928z
" />
    <glyph glyph-name="E" unicode="E" horiz-adv-x="1180" 
d="M140 0v1440h940v-254h-668v-308h548v-254h-548v-370h668v-254h-940z" />
    <glyph glyph-name="F" unicode="F" horiz-adv-x="1060" 
d="M140 0v1440h880v-272h-608v-312h488v-272h-488v-584h-272z" />
    <glyph glyph-name="G" unicode="G" horiz-adv-x="1482" 
d="M740 -30q-136 0 -259 48.5t-217.5 143.5t-149 235t-54.5 323q0 239 91.5 406.5t246 255.5t342.5 88q278 0 437 -129t213 -365l-278 -40q-39 126 -127.5 201.5t-226.5 76.5q-137 2 -228 -59t-136.5 -173t-45.5 -262t45.5 -260t136.5 -171t228 -63q93 -2 168.5 32
t127.5 107t74 187h-228v210h518q2 -13 3 -46t1 -38q0 -207 -84 -367t-237 -250.5t-361 -90.5z" />
    <glyph glyph-name="H" unicode="H" horiz-adv-x="1468" 
d="M140 0v1440h272v-592h644v592h272v-1440h-272v594h-644v-594h-272z" />
    <glyph glyph-name="I" unicode="I" horiz-adv-x="592" 
d="M160 0v1440h272v-1440h-272z" />
    <glyph glyph-name="J" unicode="J" horiz-adv-x="1026" 
d="M442 -30q-172 0 -283.5 88t-158.5 238l268 64q9 -55 58 -95.5t104 -40.5q38 0 81.5 21t62.5 67q12 29 14 71t2 97v960h276v-960q0 -69 -0.5 -120t-10 -95.5t-37.5 -92.5q-61 -106 -159 -154t-217 -48z" />
    <glyph glyph-name="K" unicode="K" horiz-adv-x="1330" 
d="M140 0v1440h272v-664l548 664h332l-602 -710l640 -730h-344l-574 656v-656h-272z" />
    <glyph glyph-name="L" unicode="L" horiz-adv-x="1082" 
d="M160 0v1440h272v-1186h620v-254h-892z" />
    <glyph glyph-name="M" unicode="M" horiz-adv-x="1720" 
d="M140 0v1440h244l476 -956l476 956h244v-1440h-254v860l-418 -860h-96l-418 860v-860h-254z" />
    <glyph glyph-name="N" unicode="N" horiz-adv-x="1458" 
d="M140 0v1440h276l626 -960v960h276v-1440h-276l-626 960v-960h-276z" />
    <glyph glyph-name="O" unicode="O" horiz-adv-x="1516" 
d="M758 -30q-216 0 -372.5 94t-241 263t-84.5 393t84.5 393t241 263t372.5 94t372.5 -94t241 -263t84.5 -393t-84.5 -393t-241 -263t-372.5 -94zM758 226q137 -2 228 59t136.5 173t45.5 262t-45.5 260t-136.5 171t-228 63t-228 -59t-136.5 -173t-45.5 -262t45.5 -260
t136.5 -171t228 -63z" />
    <glyph glyph-name="P" unicode="P" horiz-adv-x="1300" 
d="M140 0v1440h608q21 0 56.5 -1.5t63.5 -6.5q129 -20 211.5 -85t121.5 -163.5t39 -219.5t-39.5 -219.5t-122 -163.5t-210.5 -85q-28 -4 -64 -6t-56 -2h-336v-488h-272zM412 742h324q21 0 46 2t46 8q55 15 85 50.5t41.5 79t11.5 82.5t-11.5 82.5t-41.5 79t-85 50.5
q-21 6 -46 8t-46 2h-324v-444z" />
    <glyph glyph-name="Q" unicode="Q" horiz-adv-x="1516" 
d="M1266 -30l-420 418l168 168l418 -418zM758 -30q-216 0 -372.5 94t-241 263t-84.5 393t84.5 393t241 263t372.5 94t372.5 -94t241 -263t84.5 -393t-84.5 -393t-241 -263t-372.5 -94zM758 226q137 -2 228 59t136.5 173t45.5 262t-45.5 260t-136.5 171t-228 63t-228 -59
t-136.5 -173t-45.5 -262t45.5 -260t136.5 -171t228 -63z" />
    <glyph glyph-name="R" unicode="R" horiz-adv-x="1340" 
d="M140 0v1440h608q21 0 56.5 -1.5t63.5 -6.5q129 -20 211.5 -85t121.5 -163.5t39 -219.5q0 -181 -90 -309.5t-282 -158.5l-120 -8h-336v-488h-272zM952 0l-284 586l280 54l312 -640h-308zM412 742h324q21 0 46 2t46 8q55 15 85 50.5t41.5 79t11.5 82.5t-11.5 82.5t-41.5 79
t-85 50.5q-21 6 -46 8t-46 2h-324v-444z" />
    <glyph glyph-name="S" unicode="S" horiz-adv-x="1342" 
d="M684 -30q-160 0 -288.5 56.5t-211 162t-104.5 251.5l284 42q30 -124 124 -191t214 -67q67 0 130 21t103.5 62t40.5 101q0 22 -6.5 42.5t-21.5 38.5t-42.5 34t-69.5 29l-374 110q-42 12 -97.5 34t-107.5 63t-86.5 108.5t-34.5 170.5q0 145 73 241t195 143t270 46
q149 -2 266 -51t196 -142.5t114 -228.5l-294 -50q-16 70 -59 118t-102.5 73t-124.5 27q-64 2 -120.5 -17.5t-92 -56.5t-35.5 -88q0 -47 29 -76.5t73 -47.5t90 -30l250 -68q56 -15 124 -39.5t130.5 -68t103 -114.5t40.5 -180q0 -116 -48.5 -202.5t-130.5 -143t-185.5 -84.5
t-213.5 -28z" />
    <glyph glyph-name="T" unicode="T" horiz-adv-x="1220" 
d="M474 0v1186h-454v254h1180v-254h-454v-1186h-272z" />
    <glyph glyph-name="U" unicode="U" horiz-adv-x="1452" 
d="M726 -30q-174 0 -306 70.5t-206 198.5t-74 301v898l276 2v-898q0 -71 24 -129t66.5 -100t99 -64.5t120.5 -22.5q66 0 122.5 23t98.5 65t65.5 100t23.5 128v898h276v-900q0 -173 -74 -301t-206 -198.5t-306 -70.5z" />
    <glyph glyph-name="V" unicode="V" horiz-adv-x="1306" 
d="M450 0l-440 1440h280l360 -1184l366 1184h280l-440 -1440h-406z" />
    <glyph glyph-name="W" unicode="W" horiz-adv-x="1978" 
d="M442 0l-422 1440h286l270 -990l270 988l286 2l270 -990l270 990h286l-422 -1440h-268l-279 972l-279 -972h-268z" />
    <glyph glyph-name="X" unicode="X" horiz-adv-x="1344" 
d="M20 0l484 728l-470 712h334l306 -480l302 480h336l-470 -712l482 -728h-334l-316 496l-318 -496h-336z" />
    <glyph glyph-name="Y" unicode="Y" horiz-adv-x="1260" 
d="M492 0v586l-492 854h318l312 -542l312 542h318l-492 -854v-586h-276z" />
    <glyph glyph-name="Z" unicode="Z" horiz-adv-x="1360" 
d="M100 0v34l684 1152h-624v254h1100v-34l-680 -1150h660v-256h-1140z" />
    <glyph glyph-name="bracketleft" unicode="[" horiz-adv-x="858" 
d="M280 -420v2220h458v-240h-218v-1740h218v-240h-458z" />
    <glyph glyph-name="backslash" unicode="\" horiz-adv-x="896" 
d="M392 1440l384 -1440h-272l-384 1440h272z" />
    <glyph glyph-name="bracketright" unicode="]" horiz-adv-x="858" 
d="M578 -420h-458v240h218v1740h-218v240h458v-2220z" />
    <glyph glyph-name="asciicircum" unicode="^" horiz-adv-x="1368" 
d="M211 986l483 485l485 -484l-168 -168l-317 328l-315 -329z" />
    <glyph glyph-name="underscore" unicode="_" horiz-adv-x="1320" 
d="M0 -254v210h1320v-210h-1320z" />
    <glyph glyph-name="grave" unicode="`" horiz-adv-x="1110" 
d="M486 1590l-166 390h202l166 -390h-202z" />
    <glyph glyph-name="a" unicode="a" horiz-adv-x="1166" 
d="M440 -30q-116 0 -196.5 44.5t-122 119t-41.5 164.5q0 75 23 137t74.5 109.5t138.5 79.5q60 22 143 39t188 32.5t231 34.5l-98 -54q0 96 -46 141t-154 45q-60 0 -125 -29t-91 -103l-246 78q41 134 154 218t308 84q143 0 254 -44t168 -152q32 -60 38 -120t6 -134v-660h-238
v222l34 -46q-79 -109 -170.5 -157.5t-231.5 -48.5zM498 184q75 0 126.5 26.5t82 60.5t41.5 57q21 44 24.5 102.5t3.5 97.5l80 -20q-121 -20 -196 -33.5t-121 -24.5t-81 -24q-40 -16 -64.5 -34.5t-36 -40.5t-11.5 -49q0 -37 18.5 -63.5t52.5 -40.5t81 -14z" />
    <glyph glyph-name="b" unicode="b" horiz-adv-x="1248" 
d="M670 -30q-161 0 -269 75t-162.5 204t-54.5 291t54 291t159 204t259 75q155 0 270 -74t178.5 -202.5t63.5 -293.5q0 -162 -62.5 -291t-174.5 -204t-261 -75zM138 0v1440h274v-700h-34v-740h-240zM626 212q88 0 144 44t83 118.5t27 165.5q0 90 -28 164.5t-86.5 119
t-149.5 44.5q-85 0 -137.5 -41t-76.5 -115t-24 -172t24 -172t78.5 -115t145.5 -41z" />
    <glyph glyph-name="c" unicode="c" horiz-adv-x="1166" 
d="M616 -30q-168 0 -288 75t-184 204t-64 291q0 164 66.5 293t187.5 203t286 74q191 0 320.5 -96.5t165.5 -263.5l-272 -72q-24 84 -83.5 131t-134.5 47q-86 0 -141 -41.5t-81 -113t-26 -161.5q0 -141 62.5 -228.5t185.5 -87.5q92 0 140 42t72 120l278 -58
q-46 -172 -174 -265t-316 -93z" />
    <glyph glyph-name="d" unicode="d" horiz-adv-x="1250" 
d="M578 -30q-149 0 -261 75t-174.5 204t-62.5 291q0 165 63.5 293.5t178.5 202.5t270 74q154 0 259 -75t159 -204t54 -291t-54.5 -291t-162.5 -204t-269 -75zM622 212q91 0 145.5 41t78.5 115t24 172t-24 172t-76.5 115t-137.5 41q-91 0 -149.5 -44.5t-86.5 -119t-28 -164.5
q0 -91 27 -165.5t83 -118.5t144 -44zM870 0v740h-34v700h274v-1440h-240z" />
    <glyph glyph-name="e" unicode="e" horiz-adv-x="1216" 
d="M642 -30q-166 0 -292.5 71.5t-198 197t-71.5 287.5q0 177 70 308t193 203.5t283 72.5q170 0 289 -80t176 -225t40 -341h-269v100q0 165 -52.5 237.5t-171.5 72.5q-139 0 -204.5 -84.5t-65.5 -249.5q0 -151 65.5 -233.5t192.5 -82.5q80 0 137 35t87 101l272 -78
q-61 -148 -192.5 -230t-287.5 -82zM284 464v202h716v-202h-716z" />
    <glyph glyph-name="f" unicode="f" horiz-adv-x="772" 
d="M230 0v1076q0 41 2 93t16.5 105t53.5 96q50 56 108.5 76.5t113.5 22t94 1.5h134v-220h-124q-64 0 -95 -32.5t-31 -77.5v-1140h-272zM60 870v210h692v-210h-692z" />
    <glyph glyph-name="g" unicode="g" horiz-adv-x="1248" 
d="M602 -510q-92 0 -175 29.5t-148.5 82t-106.5 122.5l252 122q26 -48 74.5 -73t105.5 -25q61 0 115 20.5t86.5 61t30.5 100.5v314h34v836h238v-1154q0 -40 -3.5 -75.5t-12.5 -70.5q-26 -99 -96.5 -163t-172.5 -95.5t-221 -31.5zM578 -30q-149 0 -261 75t-174.5 204
t-62.5 291q0 165 63.5 293.5t178.5 202.5t270 74q154 0 259 -75t159 -204t54 -291t-54.5 -291t-162.5 -204t-269 -75zM622 212q91 0 145.5 41t78.5 115t24 172t-24 172t-76.5 115t-137.5 41q-91 0 -149.5 -44.5t-86.5 -119t-28 -164.5q0 -91 27 -165.5t83 -118.5t144 -44z
" />
    <glyph glyph-name="h" unicode="h" 
d="M876 0v510q0 37 -4 94.5t-25 115.5t-68.5 97t-134.5 39q-35 0 -75 -11t-75 -42.5t-57.5 -92.5t-22.5 -162l-156 74q0 128 52 240t156.5 181t263.5 69q127 0 207 -43t124.5 -109t63.5 -137.5t23 -130.5t4 -86v-606h-276zM138 0v1440h242v-740h34v-700h-276z" />
    <glyph glyph-name="i" unicode="i" horiz-adv-x="592" 
d="M160 1230v240h272v-240h-272zM160 0v1080h272v-1080h-272z" />
    <glyph glyph-name="j" unicode="j" horiz-adv-x="602" 
d="M-20 -480v254h48q93 0 127.5 42t34.5 120v1144h272v-1276q0 -129 -80.5 -206.5t-217.5 -77.5h-184zM190 1230v240h272v-240h-272z" />
    <glyph glyph-name="k" unicode="k" horiz-adv-x="1104" 
d="M138 0l2 1440h276v-880l366 520h336l-390 -540l416 -540h-354l-374 520v-520h-278z" />
    <glyph glyph-name="l" unicode="l" horiz-adv-x="592" 
d="M160 0v1470h272v-1470h-272z" />
    <glyph glyph-name="m" unicode="m" horiz-adv-x="1832" 
d="M1440 0v638q0 107 -50.5 166.5t-139.5 59.5q-57 0 -99 -26.5t-65.5 -74t-23.5 -109.5l-114 76q0 111 52.5 196t141 132.5t196.5 47.5q185 0 279.5 -109.5t94.5 -286.5v-710h-272zM138 0v1080h240v-358h34v-722h-274zM790 0v638q0 107 -50.5 166.5t-139.5 59.5
q-85 0 -136.5 -58.5t-51.5 -151.5l-114 80q0 106 53 190t142.5 133t200.5 49q127 0 208.5 -54t120.5 -144t39 -198v-710h-272z" />
    <glyph glyph-name="n" unicode="n" 
d="M876 0v510q0 37 -4 94.5t-25 115.5t-68.5 97t-134.5 39q-35 0 -75 -11t-75 -42.5t-57.5 -92.5t-22.5 -162l-156 74q0 128 52 240t156.5 181t263.5 69q127 0 207 -43t124.5 -109t63.5 -137.5t23 -130.5t4 -86v-606h-276zM138 0v1080h242v-358h34v-722h-276z" />
    <glyph glyph-name="o" unicode="o" horiz-adv-x="1254" 
d="M626 -30q-163 0 -286 73t-191.5 201.5t-68.5 295.5q0 169 70 297.5t193 200.5t283 72q163 0 286.5 -73t192.5 -201.5t69 -295.5q0 -168 -69.5 -296.5t-193 -201t-285.5 -72.5zM626 224q131 0 195.5 88.5t64.5 227.5q0 144 -65.5 230t-194.5 86q-89 0 -146 -40t-84.5 -111
t-27.5 -165q0 -145 65.5 -230.5t192.5 -85.5z" />
    <glyph glyph-name="p" unicode="p" horiz-adv-x="1248" 
d="M670 -30q-161 0 -269 75t-162.5 204t-54.5 291t54 291t159 204t259 75q155 0 270 -74t178.5 -202.5t63.5 -293.5q0 -162 -62.5 -291t-174.5 -204t-261 -75zM138 -480v1560h240v-740h34v-820h-274zM626 212q88 0 144 44t83 118.5t27 165.5q0 90 -28 164.5t-86.5 119
t-149.5 44.5q-85 0 -137.5 -41t-76.5 -115t-24 -172t24 -172t78.5 -115t145.5 -41z" />
    <glyph glyph-name="q" unicode="q" horiz-adv-x="1250" 
d="M578 -30q-149 0 -261 75t-174.5 204t-62.5 291q0 165 63.5 293.5t178.5 202.5t270 74q154 0 259 -75t159 -204t54 -291t-54.5 -291t-162.5 -204t-269 -75zM622 212q91 0 145.5 41t78.5 115t24 172t-24 172t-76.5 115t-137.5 41q-91 0 -149.5 -44.5t-86.5 -119t-28 -164.5
q0 -91 27 -165.5t83 -118.5t144 -44zM836 -480v820h34v740h240v-1560h-274z" />
    <glyph glyph-name="r" unicode="r" horiz-adv-x="824" 
d="M140 0v1080h240v-264l-26 34q21 56 56 102t86 76q39 24 85 37.5t95 17t98 -2.5v-254q-45 14 -104.5 9.5t-107.5 -27.5q-48 -22 -81 -58.5t-50 -86t-17 -111.5v-552h-274z" />
    <glyph glyph-name="s" unicode="s" horiz-adv-x="1094" 
d="M562 -30q-204 0 -329.5 92.5t-152.5 261.5l278 42q17 -76 75.5 -119t148.5 -43q74 0 114 28.5t40 79.5q0 32 -16 51.5t-71.5 38.5t-172.5 50q-132 34 -211 76t-114 100.5t-35 141.5q0 104 53 180.5t149.5 118t227.5 41.5q127 0 225 -39t158.5 -111t74.5 -170l-278 -50
q-7 60 -52 95t-122 41q-75 5 -120.5 -20t-45.5 -72q0 -28 19.5 -47t81 -39t187.5 -52q123 -32 197.5 -74.5t108.5 -102t34 -143.5q0 -166 -120 -261t-332 -95z" />
    <glyph glyph-name="t" unicode="t" horiz-adv-x="888" 
d="M788 0q-112 -21 -219.5 -18.5t-192 38t-128.5 114.5q-40 74 -42 150.5t-2 173.5v922h272v-906q0 -63 1.5 -113.5t20.5 -80.5q36 -57 115 -62t175 8v-226zM20 870v210h768v-210h-768z" />
    <glyph glyph-name="u" unicode="u" 
d="M542 -32q-127 0 -207 43t-124.5 109t-63.5 137.5t-23 130.5t-4 86v606h276v-510q0 -37 4 -94.5t25 -115.5t68.5 -97t134.5 -39q35 0 75 11t75 42.5t57.5 93t22.5 161.5l156 -74q0 -128 -52 -240t-156.5 -181t-263.5 -69zM892 0v358h-34v722h274v-1080h-240z" />
    <glyph glyph-name="v" unicode="v" horiz-adv-x="1136" 
d="M432 0l-392 1080h272l256 -748l256 748h272l-392 -1080h-272z" />
    <glyph glyph-name="w" unicode="w" horiz-adv-x="1628" 
d="M370 0l-330 1082l266 -2l196 -644l199 644h226l199 -644l196 644h266l-330 -1080h-208l-236 704l-236 -704h-208z" />
    <glyph glyph-name="x" unicode="x" horiz-adv-x="1126" 
d="M20 0l386 546l-378 534h320l216 -320l212 320h320l-378 -534l388 -546h-320l-222 332l-224 -332h-320z" />
    <glyph glyph-name="y" unicode="y" horiz-adv-x="1140" 
d="M278 -480l208 572l4 -168l-470 1156h282l316 -818h-64l314 818h272l-610 -1560h-252z" />
    <glyph glyph-name="z" unicode="z" horiz-adv-x="1070" 
d="M40 0v34l530 810h-470v236h890v-34l-528 -810h508v-236h-930z" />
    <glyph glyph-name="braceleft" unicode="{" horiz-adv-x="918" 
d="M696 -420q-138 0 -216 78t-78 216v584q0 19 -10 32l-90 128q-22 33 -22 72t22 72l90 128q10 17 10 32v584q0 137 78 215.5t216 78.5h142v-256h-122q-24 0 -41 -17t-17 -41v-564q0 -98 -58 -180l-38 -52l38 -52q58 -82 58 -180v-564q0 -25 17 -42.5t41 -17.5h122v-254
h-142z" />
    <glyph glyph-name="bar" unicode="|" horiz-adv-x="632" 
d="M180 0v1440h272v-1440h-272z" />
    <glyph glyph-name="braceright" unicode="}" horiz-adv-x="918" 
d="M222 -420h-142v254h122q24 0 41 17.5t17 42.5v564q0 98 58 180l38 52l-38 52q-58 82 -58 180v564q0 24 -17 41t-41 17h-122v256h142q138 0 216 -78.5t78 -215.5v-584q0 -15 10 -32l90 -128q23 -33 23 -72t-23 -72l-90 -128q-10 -13 -10 -32v-584q0 -138 -78 -216
t-216 -78z" />
    <glyph glyph-name="asciitilde" unicode="~" horiz-adv-x="1468" 
d="M976 390q-69 0 -132 31.5t-119.5 72.5t-106 73t-90.5 32q-42 0 -59 -47.5t3 -119.5h-237q-30 123 -12.5 222.5t84 158.5t184.5 59q69 0 132 -31.5t120 -73t106 -73t91 -31.5t58.5 47.5t-2.5 119.5h237q29 -123 12 -222.5t-83.5 -158.5t-185.5 -59z" />
    <glyph glyph-name="uni00A0" unicode="&#xa0;" horiz-adv-x="400" 
 />
    <glyph glyph-name="exclamdown" unicode="&#xa1;" horiz-adv-x="752" 
d="M240 1080h272v-240h-272v240zM240 720h272v-1080h-272v1080z" />
    <glyph glyph-name="cent" unicode="&#xa2;" horiz-adv-x="1166" 
d="M524 -58v184q-140 21 -239.5 99t-152 198t-52.5 267t54 266.5t153.5 197t236.5 98.5v188h210v-190q146 -27 244 -118t128 -232l-272 -72q-24 84 -83.5 131t-134.5 47q-86 0 -141 -41.5t-81 -113t-26 -161.5q0 -141 62.5 -228.5t185.5 -87.5q92 0 140 42t72 120l278 -58
q-39 -144 -135 -232.5t-237 -115.5v-188h-210z" />
    <glyph glyph-name="sterling" unicode="&#xa3;" horiz-adv-x="1142" 
d="M80 0v254h2q62 0 106 46t44 106v676q0 110 56 198t151 139t211 51q108 0 186.5 -48.5t133.5 -132t92 -187.5l-244 -80q-25 87 -63.5 139.5t-104.5 52.5q-63 0 -101.5 -41.5t-38.5 -104.5l-2 -814h446v-254h-874zM80 592v256h712v-256h-712z" />
    <glyph glyph-name="currency" unicode="&#xa4;" horiz-adv-x="1360" 
d="M680 196q-108 0 -203 41t-167 113.5t-113 167.5t-41 204q0 108 41 203t113 167t167 113t203 41q109 0 204 -41t167.5 -113t113.5 -167t41 -203q0 -109 -41 -204t-113.5 -167.5t-167.5 -113.5t-204 -41zM240 100l-180 180l254 254l182 -180zM314 904l-254 254l180 182
l254 -254zM1120 100l-254 254l180 180l254 -254zM680 424q82 0 149 40.5t107 108t40 147.5q0 82 -40.5 149t-108 107t-147.5 40q-82 0 -149 -40t-107 -107t-40 -149q0 -80 40 -147.5t107 -108t149 -40.5zM1048 906l-182 180l254 254l180 -182z" />
    <glyph glyph-name="yen" unicode="&#xa5;" horiz-adv-x="1260" 
d="M210 526v210h840v-210h-840zM210 188v210h840v-210h-840zM492 0v586l-492 854h318l312 -542l312 542h318l-492 -854v-586h-276z" />
    <glyph glyph-name="brokenbar" unicode="&#xa6;" horiz-adv-x="632" 
d="M180 600v840h272v-840h-272zM180 -440v840h272v-840h-272z" />
    <glyph glyph-name="section" unicode="&#xa7;" horiz-adv-x="1094" 
d="M560 -270q-118 0 -215 38t-161 116.5t-84 199.5l278 42q11 -53 40.5 -89t71 -54.5t88.5 -18.5q35 0 66.5 11t51.5 35t20 62q0 37 -23.5 58.5t-80.5 39t-156 42.5q-121 31 -201 71.5t-119.5 95.5t-39.5 131q0 100 59.5 161.5t149.5 90t181 28.5l26 -114
q-73 -25 -109.5 -53.5t-36.5 -72.5q0 -42 34 -64t98.5 -38.5t155.5 -41.5q115 -32 190.5 -71t112.5 -97t37 -148q0 -117 -56.5 -197t-154.5 -121.5t-223 -41.5zM610 274l-8 110q33 10 64 30.5t50.5 50t19.5 67.5q0 37 -23.5 58.5t-80.5 39t-156 42.5q-121 31 -201 70.5
t-119.5 98.5t-39.5 149q0 118 60 193t152.5 111t191.5 36q101 0 192.5 -36t154 -107t77.5 -177l-278 -50q-8 46 -26.5 76.5t-50 46t-77.5 15.5q-35 0 -63.5 -9.5t-45.5 -29t-17 -49.5q0 -43 36 -65.5t101 -38.5t151 -40q114 -32 189.5 -70.5t113 -95t37.5 -142.5
q0 -99 -48 -165.5t-138.5 -97t-217.5 -21.5z" />
    <glyph glyph-name="dieresis" unicode="&#xa8;" horiz-adv-x="1144" 
d="M664 1592v240h240v-240h-240zM240 1592v240h240v-240h-240z" />
    <glyph glyph-name="copyright" unicode="&#xa9;" horiz-adv-x="1828" 
d="M914 -140q-177 0 -332 66.5t-272 183.5t-183.5 272t-66.5 332t66.5 332t183.5 272t272 183.5t332 66.5t332 -66.5t272 -183.5t183.5 -272t66.5 -332t-66.5 -332t-183.5 -272t-272 -183.5t-332 -66.5zM932 286q-103 0 -175 32t-129 102q-52 66 -76 139t-24 155
q0 86 25.5 159t74.5 133q56 68 130.5 102t183.5 34q57 0 104 -11t98 -43q57 -34 97.5 -88t56.5 -128l-204 -54q-7 27 -21.5 51t-38.5 45q-22 20 -48.5 29t-55.5 9q-45 0 -79.5 -18t-60.5 -50q-27 -34 -36.5 -78.5t-9.5 -91.5q0 -46 10.5 -89t35.5 -79q24 -33 59.5 -50.5
t84.5 -17.5q70 0 104 34q21 21 32 41t20 45l208 -42q-16 -58 -49 -110t-83 -90q-45 -34 -99.5 -52t-134.5 -18zM914 114q125 0 233.5 46.5t191 129t129 191.5t46.5 233q0 125 -46.5 233.5t-129 191t-191 129t-233.5 46.5q-124 0 -233 -46.5t-191.5 -129t-129 -191
t-46.5 -233.5q0 -124 46.5 -233t129 -191.5t191.5 -129t233 -46.5z" />
    <glyph glyph-name="ordfeminine" unicode="&#xaa;" horiz-adv-x="643" 
d="M260 540q-87 0 -133.5 48.5t-46.5 115.5q0 56 26.5 97.5t91.5 65.5q45 17 116 28t165 25l-49 -27q0 48 -23 70.5t-77 22.5q-30 0 -62.5 -14.5t-45.5 -51.5l-123 39q20 67 77 109t154 42q71 0 127 -22t84 -76q16 -30 19 -60t3 -67v-330h-119v111l17 -23q-40 -55 -85.5 -79
t-115.5 -24zM289 647q56 0 86.5 27.5t38.5 44.5q11 22 12.5 51.5t1.5 48.5l40 -10q-91 -15 -132 -23t-67 -18q-30 -12 -43 -27t-13 -35q0 -28 20.5 -43.5t55.5 -15.5z" />
    <glyph glyph-name="guillemotleft" unicode="&#xab;" horiz-adv-x="1206" 
d="M944 94l-354 446l354 446l142 -112l-266 -334l266 -334zM514 94l-354 446l354 446l142 -112l-266 -334l266 -334z" />
    <glyph glyph-name="logicalnot" unicode="&#xac;" horiz-adv-x="1200" 
d="M870 366v230h-750v210h960v-440h-210z" />
    <glyph glyph-name="uni00AD" unicode="&#xad;" horiz-adv-x="840" 
d="M120 526v210h600v-210h-600z" />
    <glyph glyph-name="registered" unicode="&#xae;" horiz-adv-x="1330" 
d="M664 536q-108 0 -203 41t-167 113.5t-113 167.5t-41 204q0 108 41 203t113 167t167 113t203 41q109 0 204 -41t167.5 -113t113.5 -167t41 -203q0 -109 -41 -204t-113.5 -167.5t-167.5 -113.5t-204 -41zM666 712q95 0 174.5 48t127.5 127.5t48 174.5q0 97 -48 176.5
t-127.5 126.5t-174.5 47q-97 0 -176.5 -47t-126.5 -126.5t-47 -176.5q0 -95 47 -174.5t126.5 -127.5t176.5 -48zM498 824v476h200q77 0 119 -43t45 -115q0 -43 -20 -79.5t-62 -60.5l88 -178h-102l-78 162h-100v-162h-90zM588 1070h114q30 0 49 20.5t19 51.5q0 35 -16.5 53.5
t-51.5 18.5h-114v-144z" />
    <glyph glyph-name="macron" unicode="&#xaf;" horiz-adv-x="1024" 
d="M240 1680v208h544v-208h-544z" />
    <glyph glyph-name="degree" unicode="&#xb0;" horiz-adv-x="900" 
d="M420 750q-99 0 -181 48.5t-130.5 130t-48.5 181.5q0 98 50 180t132 131t178 49q99 0 180.5 -48.5t130.5 -130t49 -181.5t-49 -181.5t-130.5 -130t-180.5 -48.5zM420 980q35 0 64.5 18t47.5 47.5t18 64.5t-18 64.5t-47.5 47.5t-64.5 18t-64.5 -18t-47.5 -47.5t-18 -64.5
t18 -64.5t47.5 -47.5t64.5 -18z" />
    <glyph glyph-name="plusminus" unicode="&#xb1;" horiz-adv-x="1200" 
d="M496 440v216h-376v210h376v214h210v-214h374v-210h-374v-216h-210zM120 120v210h960v-210h-960z" />
    <glyph glyph-name="uni00B2" unicode="&#xb2;" horiz-adv-x="832" 
d="M100 540v148l378 336q42 38 60 71t18 61q0 63 -37 103.5t-99 40.5q-43 0 -76 -19.5t-51.5 -52t-16.5 -70.5h-176q0 93 40.5 160.5t113.5 104.5t170 37q88 0 157.5 -38.5t110 -107.5t40.5 -160q0 -67 -19 -111t-56 -81t-91 -84l-244 -216l-14 38h424v-160h-632z" />
    <glyph glyph-name="uni00B3" unicode="&#xb3;" horiz-adv-x="818" 
d="M382 518q-102 0 -187.5 60t-114.5 162l166 44q14 -51 52.5 -77.5t83.5 -26.5q59 0 100.5 41t41.5 99q0 59 -40 100.5t-102 41.5q-19 0 -37 -5.5t-33 -14.5l-78 134l288 240l14 -38h-420v162h566v-162l-224 -216l-2 48q78 -12 132 -54.5t82 -104t28 -131.5
q0 -86 -43.5 -154.5t-115.5 -108t-157 -39.5z" />
    <glyph glyph-name="acute" unicode="&#xb4;" horiz-adv-x="1110" 
d="M624 1590h-202l166 390h202z" />
    <glyph glyph-name="uni00B5" unicode="&#xb5;" horiz-adv-x="1290" 
d="M138 -480v1560h276v-510q0 -37 4 -94.5t25 -115.5t68.5 -97t134.5 -39q35 0 75 11t75 42.5t57.5 93t22.5 161.5v548h274v-1080h-240v112q-58 -66 -145.5 -105t-204.5 -39q-54 0 -99 8.5t-83 23.5v-480h-240z" />
    <glyph glyph-name="paragraph" unicode="&#xb6;" horiz-adv-x="1484" 
d="M668 -282v770h-96q-6 0 -42 1t-78 7q-126 18 -208.5 83t-123 164.5t-40.5 220.5q0 119 39.5 218.5t121.5 165.5t211 84q42 6 77.5 7t42.5 1h368v-1722h-272zM1132 -282v1722h272v-1722h-272z" />
    <glyph glyph-name="periodcentered" unicode="&#xb7;" horiz-adv-x="560" 
d="M284 470q-69 0 -116.5 45.5t-47.5 114.5t47.5 114.5t116.5 45.5q63 0 109.5 -45.5t46.5 -114.5t-46.5 -114.5t-109.5 -45.5z" />
    <glyph glyph-name="cedilla" unicode="&#xb8;" horiz-adv-x="838" 
d="M382 -484q-42 0 -77 11t-65 27l58 156q39 -12 60 -12q27 0 41.5 15t14.5 31q0 36 -38.5 53.5t-91.5 32.5l70 204l158 2l-36 -108q59 -30 90.5 -77.5t31.5 -112.5q0 -99 -64.5 -160.5t-151.5 -61.5z" />
    <glyph glyph-name="uni00B9" unicode="&#xb9;" horiz-adv-x="703" 
d="M289 540v715l-169 -104v188l169 101h174v-900h-174z" />
    <glyph glyph-name="ordmasculine" unicode="&#xba;" horiz-adv-x="707" 
d="M353 540q-122 0 -197.5 80t-75.5 205q0 127 76.5 206t196.5 79q122 0 198 -80t76 -205q0 -126 -76 -205.5t-198 -79.5zM353 667q65 0 97.5 44t32.5 114q0 72 -32.5 115t-97.5 43q-67 0 -98 -43.5t-31 -114.5q0 -73 32.5 -115.5t96.5 -42.5z" />
    <glyph glyph-name="guillemotright" unicode="&#xbb;" horiz-adv-x="1206" 
d="M262 94l-142 112l266 334l-266 334l142 112l354 -446zM692 94l-142 112l266 334l-266 334l142 112l354 -446z" />
    <glyph glyph-name="onequarter" unicode="&#xbc;" horiz-adv-x="2112" 
d="M289 540v715l-169 -104v188l169 101h174v-900h-174zM1620 0v140h-392v160l284 600h196l-284 -600h196v224h172v-224h80v-160h-80v-140h-172zM571 0l-154 114l964 1340l154 -116z" />
    <glyph glyph-name="onehalf" unicode="&#xbd;" horiz-adv-x="2081" 
d="M289 540v715l-169 -104v188l169 101h174v-900h-174zM1349 0v148l378 336q42 38 60 71t18 61q0 63 -37 103.5t-99 40.5q-43 0 -76 -19.5t-51.5 -52t-16.5 -70.5h-176q0 93 40.5 161t113.5 104.5t170 36.5q88 0 157.5 -38.5t110 -107.5t40.5 -160q0 -67 -19 -111t-56 -81
t-91 -84l-244 -216l-14 38h424v-160h-632zM571 0l-154 114l964 1340l154 -116z" />
    <glyph glyph-name="threequarters" unicode="&#xbe;" horiz-adv-x="2088" 
d="M382 518q-102 0 -187.5 60t-114.5 162l166 44q14 -51 52.5 -77.5t83.5 -26.5q59 0 100.5 41t41.5 99q0 59 -40 100.5t-102 41.5q-19 0 -37 -5.5t-33 -14.5l-78 134l288 240l14 -38h-420v162h566v-162l-224 -216l-2 48q78 -12 132 -54.5t82 -104t28 -131.5
q0 -86 -43.5 -154.5t-115.5 -108t-157 -39.5zM1716 0v140h-392v160l284 600h196l-284 -600h196v224h172v-224h80v-160h-80v-140h-172zM686 0l-154 114l964 1340l154 -116z" />
    <glyph glyph-name="questiondown" unicode="&#xbf;" horiz-adv-x="1126" 
d="M732 690q0 -66 -15 -132t-47 -120q-25 -51 -54.5 -80.5t-68 -60.5t-91.5 -87q-40 -45 -54 -88t-14 -96q0 -27 5.5 -51.5t20.5 -44.5q24 -33 63.5 -47.5t84.5 -14.5q35 0 67.5 8t54.5 26q29 21 42.5 53t11.5 71h288q-12 -106 -61 -195.5t-127 -140.5q-57 -37 -126 -57.5
t-138 -20.5q-114 0 -215 35.5t-167 116.5q-43 51 -67.5 119t-24.5 135q0 110 49 199t121 165q31 33 55.5 57.5t44 46t34.5 44.5q29 47 34.5 76t5.5 84h288zM730 1080v-288h-286v288h286z" />
    <glyph glyph-name="Agrave" unicode="&#xc0;" horiz-adv-x="1366" 
d="M554 1590l-166 390h202l166 -390h-202zM1326 0h-280l-386 1270h52l-392 -1270h-280l440 1440h406zM1062 300h-760v254h760v-254z" />
    <glyph glyph-name="Aacute" unicode="&#xc1;" horiz-adv-x="1366" 
d="M812 1590h-202l166 390h202zM40 0l440 1440h406l440 -1440h-280l-392 1270h52l-386 -1270h-280zM304 300v254h760v-254h-760z" />
    <glyph glyph-name="Acircumflex" unicode="&#xc2;" horiz-adv-x="1366" 
d="M280 1590l288 330h224l288 -330h-250l-150 180l-150 -180h-250zM40 0l440 1440h406l440 -1440h-280l-392 1270h52l-386 -1270h-280zM304 300v254h760v-254h-760z" />
    <glyph glyph-name="Atilde" unicode="&#xc3;" horiz-adv-x="1366" 
d="M856 1646q-49 0 -93.5 22.5t-85 51.5t-75.5 51.5t-64 22.5q-30 0 -41.5 -33.5t1.5 -84.5h-168q-31 131 12.5 221.5t169.5 90.5q49 0 93.5 -22.5t85 -51.5t75.5 -51.5t64 -22.5q30 0 42 33.5t-2 84.5h168q32 -130 -12 -221t-170 -91zM40 0l440 1440h406l440 -1440h-280
l-392 1270h52l-386 -1270h-280zM304 300v254h760v-254h-760z" />
    <glyph glyph-name="Adieresis" unicode="&#xc4;" horiz-adv-x="1366" 
d="M776 1592v240h240v-240h-240zM352 1592v240h240v-240h-240zM40 0l440 1440h406l440 -1440h-280l-392 1270h52l-386 -1270h-280zM304 300v254h760v-254h-760z" />
    <glyph glyph-name="Aring" unicode="&#xc5;" horiz-adv-x="1366" 
d="M684 1550q-74 0 -135.5 36.5t-98 98t-36.5 135.5q0 75 36.5 136t98 97.5t135.5 36.5q75 0 136 -36.5t97.5 -97.5t36.5 -136q0 -74 -36.5 -135.5t-97.5 -98t-136 -36.5zM684 1710q46 0 78 32.5t32 77.5q0 46 -32 78t-78 32q-45 0 -77.5 -32t-32.5 -78q0 -45 32.5 -77.5
t77.5 -32.5zM40 0l440 1440h406l440 -1440h-280l-392 1270h52l-386 -1270h-280zM304 300v254h760v-254h-760z" />
    <glyph glyph-name="AE" unicode="&#xc6;" horiz-adv-x="1890" 
d="M40 0l440 1440h460v-254h-350l116 86l-386 -1272h-280zM304 300v254h760v-254h-760zM850 0v1440h940v-254h-668v-308h548v-254h-548v-370h668v-254h-940z" />
    <glyph glyph-name="Ccedilla" unicode="&#xc7;" horiz-adv-x="1492" 
d="M734 -484q-42 0 -77 11t-65 27l58 156q39 -12 60 -12q27 0 41.5 15t14.5 31q0 36 -38.5 53.5t-91.5 32.5l70 204l158 2l-36 -108q59 -30 90.5 -77.5t31.5 -112.5q0 -99 -64.5 -160.5t-151.5 -61.5zM758 -30q-216 0 -372.5 94t-241 263t-84.5 393t84.5 393t241 263
t372.5 94q248 0 416.5 -123t237.5 -333l-274 -76q-40 131 -135 203.5t-245 72.5q-137 0 -228.5 -61t-137.5 -172t-46 -261t46 -261t137.5 -172t228.5 -61q150 0 245 73t135 203l274 -76q-69 -210 -237.5 -333t-416.5 -123z" />
    <glyph glyph-name="Egrave" unicode="&#xc8;" horiz-adv-x="1180" 
d="M526 1590l-166 390h202l166 -390h-202zM140 0v1440h940v-254h-668v-308h548v-254h-548v-370h668v-254h-940z" />
    <glyph glyph-name="Eacute" unicode="&#xc9;" horiz-adv-x="1180" 
d="M739 1590h-202l166 390h202zM140 0v1440h940v-254h-668v-308h548v-254h-548v-370h668v-254h-940z" />
    <glyph glyph-name="Ecircumflex" unicode="&#xca;" horiz-adv-x="1180" 
d="M196 1590l288 330h224l288 -330h-250l-150 180l-150 -180h-250zM140 0v1440h940v-254h-668v-308h548v-254h-548v-370h668v-254h-940z" />
    <glyph glyph-name="Edieresis" unicode="&#xcb;" horiz-adv-x="1180" 
d="M700 1592v240h240v-240h-240zM276 1592v240h240v-240h-240zM140 0v1440h940v-254h-668v-308h548v-254h-548v-370h668v-254h-940z" />
    <glyph glyph-name="Igrave" unicode="&#xcc;" horiz-adv-x="592" 
d="M191 1590l-166 390h202l166 -390h-202zM160 0v1440h272v-1440h-272z" />
    <glyph glyph-name="Iacute" unicode="&#xcd;" horiz-adv-x="592" 
d="M401 1590h-202l166 390h202zM160 0v1440h272v-1440h-272z" />
    <glyph glyph-name="Icircumflex" unicode="&#xce;" horiz-adv-x="592" 
d="M-108 1590l288 330h224l288 -330h-250l-150 180l-150 -180h-250zM160 0v1440h272v-1440h-272z" />
    <glyph glyph-name="Idieresis" unicode="&#xcf;" horiz-adv-x="592" 
d="M388 1592v240h240v-240h-240zM-36 1592v240h240v-240h-240zM160 0v1440h272v-1440h-272z" />
    <glyph glyph-name="Eth" unicode="&#xd0;" horiz-adv-x="1428" 
d="M20 616v210h690v-210h-690zM148 0v1440h466q17 0 70 -1t102 -7q174 -21 295 -121t184 -254t63 -337t-63 -337t-184 -254t-295 -121q-49 -6 -102 -7t-70 -1h-466zM424 256h190q27 0 73 1.5t83 8.5q94 19 153.5 88t88 166t28.5 200q0 108 -29.5 205t-89.5 164t-151 85
q-37 8 -83 9t-73 1h-190v-928z" />
    <glyph glyph-name="Ntilde" unicode="&#xd1;" horiz-adv-x="1458" 
d="M922 1596q-49 0 -93.5 22.5t-85 51.5t-75.5 51.5t-64 22.5q-30 0 -41.5 -33.5t1.5 -84.5h-168q-31 131 12.5 221.5t169.5 90.5q49 0 93.5 -22.5t85 -51.5t75.5 -51.5t64 -22.5q30 0 42 33.5t-2 84.5h168q32 -130 -12 -221t-170 -91zM140 0v1440h276l626 -960v960h276
v-1440h-276l-626 960v-960h-276z" />
    <glyph glyph-name="Ograve" unicode="&#xd2;" horiz-adv-x="1516" 
d="M629 1590l-166 390h202l166 -390h-202zM758 -30q-216 0 -372.5 94t-241 263t-84.5 393t84.5 393t241 263t372.5 94t372.5 -94t241 -263t84.5 -393t-84.5 -393t-241 -263t-372.5 -94zM758 226q137 -2 228 59t136.5 173t45.5 262t-45.5 260t-136.5 171t-228 63t-228 -59
t-136.5 -173t-45.5 -262t45.5 -260t136.5 -171t228 -63z" />
    <glyph glyph-name="Oacute" unicode="&#xd3;" horiz-adv-x="1516" 
d="M867 1590h-202l166 390h202zM758 -30q-216 0 -372.5 94t-241 263t-84.5 393t84.5 393t241 263t372.5 94t372.5 -94t241 -263t84.5 -393t-84.5 -393t-241 -263t-372.5 -94zM758 226q137 -2 228 59t136.5 173t45.5 262t-45.5 260t-136.5 171t-228 63t-228 -59t-136.5 -173
t-45.5 -262t45.5 -260t136.5 -171t228 -63z" />
    <glyph glyph-name="Ocircumflex" unicode="&#xd4;" horiz-adv-x="1516" 
d="M354 1590l288 330h224l288 -330h-250l-150 180l-150 -180h-250zM758 -30q-216 0 -372.5 94t-241 263t-84.5 393t84.5 393t241 263t372.5 94t372.5 -94t241 -263t84.5 -393t-84.5 -393t-241 -263t-372.5 -94zM758 226q137 -2 228 59t136.5 173t45.5 262t-45.5 260
t-136.5 171t-228 63t-228 -59t-136.5 -173t-45.5 -262t45.5 -260t136.5 -171t228 -63z" />
    <glyph glyph-name="Otilde" unicode="&#xd5;" horiz-adv-x="1516" 
d="M758 -30q-216 0 -372.5 94t-241 263t-84.5 393t84.5 393t241 263t372.5 94t372.5 -94t241 -263t84.5 -393t-84.5 -393t-241 -263t-372.5 -94zM758 226q137 -2 228 59t136.5 173t45.5 262t-45.5 260t-136.5 171t-228 63t-228 -59t-136.5 -173t-45.5 -262t45.5 -260
t136.5 -171t228 -63zM942 1596q-49 0 -93.5 22.5t-85 51.5t-75.5 51.5t-64 22.5q-30 0 -41.5 -33.5t1.5 -84.5h-168q-31 131 12.5 221.5t169.5 90.5q49 0 93.5 -22.5t85 -51.5t75.5 -51.5t64 -22.5q30 0 42 33.5t-2 84.5h168q32 -130 -12 -221t-170 -91z" />
    <glyph glyph-name="Odieresis" unicode="&#xd6;" horiz-adv-x="1516" 
d="M850 1592v240h240v-240h-240zM426 1592v240h240v-240h-240zM758 -30q-216 0 -372.5 94t-241 263t-84.5 393t84.5 393t241 263t372.5 94t372.5 -94t241 -263t84.5 -393t-84.5 -393t-241 -263t-372.5 -94zM758 226q137 -2 228 59t136.5 173t45.5 262t-45.5 260t-136.5 171
t-228 63t-228 -59t-136.5 -173t-45.5 -262t45.5 -260t136.5 -171t228 -63z" />
    <glyph glyph-name="multiply" unicode="&#xd7;" horiz-adv-x="1026" 
d="M758 328l-245 245l-245 -245l-148 149l244 245l-243 243l149 148l243 -243l243 243l149 -148l-244 -243l245 -245z" />
    <glyph glyph-name="Oslash" unicode="&#xd8;" horiz-adv-x="1516" 
d="M286 -26l-192 170l158 180l34 30l778 878l12 22l188 212l192 -172l-206 -232l-26 -18l-780 -882l-14 -24zM758 -30q-216 0 -372.5 94t-241 263t-84.5 393t84.5 393t241 263t372.5 94t372.5 -94t241 -263t84.5 -393t-84.5 -393t-241 -263t-372.5 -94zM758 226
q137 -2 228 59t136.5 173t45.5 262t-45.5 260t-136.5 171t-228 63t-228 -59t-136.5 -173t-45.5 -262t45.5 -260t136.5 -171t228 -63z" />
    <glyph glyph-name="Ugrave" unicode="&#xd9;" horiz-adv-x="1452" 
d="M642 1590l-166 390h202l166 -390h-202zM726 -30q-174 0 -306 70.5t-206 198.5t-74 301v898l276 2v-898q0 -71 24 -129t66.5 -100t99 -64.5t120.5 -22.5q66 0 122.5 23t98.5 65t65.5 100t23.5 128v898h276v-900q0 -173 -74 -301t-206 -198.5t-306 -70.5z" />
    <glyph glyph-name="Uacute" unicode="&#xda;" horiz-adv-x="1452" 
d="M825 1590h-202l166 390h202zM726 -30q-174 0 -306 70.5t-206 198.5t-74 301v898l276 2v-898q0 -71 24 -129t66.5 -100t99 -64.5t120.5 -22.5q66 0 122.5 23t98.5 65t65.5 100t23.5 128v898h276v-900q0 -173 -74 -301t-206 -198.5t-306 -70.5z" />
    <glyph glyph-name="Ucircumflex" unicode="&#xdb;" horiz-adv-x="1452" 
d="M322 1590l288 330h224l288 -330h-250l-150 180l-150 -180h-250zM726 -30q-174 0 -306 70.5t-206 198.5t-74 301v898l276 2v-898q0 -71 24 -129t66.5 -100t99 -64.5t120.5 -22.5q66 0 122.5 23t98.5 65t65.5 100t23.5 128v898h276v-900q0 -173 -74 -301t-206 -198.5
t-306 -70.5z" />
    <glyph glyph-name="Udieresis" unicode="&#xdc;" horiz-adv-x="1452" 
d="M818 1592v240h240v-240h-240zM394 1592v240h240v-240h-240zM726 -30q-174 0 -306 70.5t-206 198.5t-74 301v898l276 2v-898q0 -71 24 -129t66.5 -100t99 -64.5t120.5 -22.5q66 0 122.5 23t98.5 65t65.5 100t23.5 128v898h276v-900q0 -173 -74 -301t-206 -198.5
t-306 -70.5z" />
    <glyph glyph-name="Yacute" unicode="&#xdd;" horiz-adv-x="1260" 
d="M730 1590h-202l166 390h202zM492 0v586l-492 854h318l312 -542l312 542h318l-492 -854v-586h-276z" />
    <glyph glyph-name="Thorn" unicode="&#xde;" horiz-adv-x="1284" 
d="M140 0v1440h276v-244h326q74 0 146 -22t134.5 -66t105.5 -106q45 -60 70 -133.5t26 -148.5q2 -75 -24.5 -148.5t-71.5 -133.5q-63 -87 -165 -139.5t-221 -52.5h-326v-246h-276zM416 500h324q41 0 87 23t77 65q21 29 33.5 62.5t10.5 69.5q-1 39 -13.5 76.5t-38.5 65.5
q-28 33 -71 55.5t-85 22.5h-324v-440z" />
    <glyph glyph-name="germandbls" unicode="&#xdf;" horiz-adv-x="1292" 
d="M710 -30q-66 0 -108.5 7.5t-77.5 22.5v266q26 -10 63 -20t83 -10q105 0 167.5 48t62.5 148q0 114 -84 163t-218 49v236q61 4 102.5 25.5t62.5 58.5t21 88q0 78 -58 121t-130 43q-48 0 -89.5 -18t-68.5 -66q-13 -24 -19.5 -63t-6.5 -83v-986h-274v1060q0 38 3.5 68
t12.5 60q31 101 98.5 163t157 90.5t186.5 28.5q128 0 233 -54t167 -147.5t62 -210.5q0 -76 -25 -142.5t-79 -117.5q53 -22 93.5 -58.5t68 -85t42 -106t14.5 -120.5q0 -214 -119 -336t-343 -122z" />
    <glyph glyph-name="agrave" unicode="&#xe0;" horiz-adv-x="1166" 
d="M494 1230l-166 390h202l166 -390h-202zM440 -30q-116 0 -196.5 44.5t-122 119t-41.5 164.5q0 75 23 137t74.5 109.5t138.5 79.5q60 22 143 39t188 32.5t231 34.5l-98 -54q0 96 -46 141t-154 45q-60 0 -125 -29t-91 -103l-246 78q41 134 154 218t308 84q143 0 254 -44
t168 -152q32 -60 38 -120t6 -134v-660h-238v222l34 -46q-79 -109 -170.5 -157.5t-231.5 -48.5zM498 184q75 0 126.5 26.5t82 60.5t41.5 57q21 44 24.5 102.5t3.5 97.5l80 -20q-121 -20 -196 -33.5t-121 -24.5t-81 -24q-40 -16 -64.5 -34.5t-36 -40.5t-11.5 -49
q0 -37 18.5 -63.5t52.5 -40.5t81 -14z" />
    <glyph glyph-name="aacute" unicode="&#xe1;" horiz-adv-x="1166" 
d="M705 1230h-202l166 390h202zM440 -30q-116 0 -196.5 44.5t-122 119t-41.5 164.5q0 75 23 137t74.5 109.5t138.5 79.5q60 22 143 39t188 32.5t231 34.5l-98 -54q0 96 -46 141t-154 45q-60 0 -125 -29t-91 -103l-246 78q41 134 154 218t308 84q143 0 254 -44t168 -152
q32 -60 38 -120t6 -134v-660h-238v222l34 -46q-79 -109 -170.5 -157.5t-231.5 -48.5zM498 184q75 0 126.5 26.5t82 60.5t41.5 57q21 44 24.5 102.5t3.5 97.5l80 -20q-121 -20 -196 -33.5t-121 -24.5t-81 -24q-40 -16 -64.5 -34.5t-36 -40.5t-11.5 -49q0 -37 18.5 -63.5
t52.5 -40.5t81 -14z" />
    <glyph glyph-name="acircumflex" unicode="&#xe2;" horiz-adv-x="1166" 
d="M196 1230l288 330h224l288 -330h-250l-150 180l-150 -180h-250zM440 -30q-116 0 -196.5 44.5t-122 119t-41.5 164.5q0 75 23 137t74.5 109.5t138.5 79.5q60 22 143 39t188 32.5t231 34.5l-98 -54q0 96 -46 141t-154 45q-60 0 -125 -29t-91 -103l-246 78q41 134 154 218
t308 84q143 0 254 -44t168 -152q32 -60 38 -120t6 -134v-660h-238v222l34 -46q-79 -109 -170.5 -157.5t-231.5 -48.5zM498 184q75 0 126.5 26.5t82 60.5t41.5 57q21 44 24.5 102.5t3.5 97.5l80 -20q-121 -20 -196 -33.5t-121 -24.5t-81 -24q-40 -16 -64.5 -34.5t-36 -40.5
t-11.5 -49q0 -37 18.5 -63.5t52.5 -40.5t81 -14z" />
    <glyph glyph-name="atilde" unicode="&#xe3;" horiz-adv-x="1166" 
d="M790 1236q-49 0 -93.5 22.5t-85 51.5t-75.5 51.5t-64 22.5q-30 0 -41.5 -33.5t1.5 -84.5h-168q-31 131 12.5 221.5t169.5 90.5q49 0 93.5 -22.5t85 -51.5t75.5 -51.5t64 -22.5q30 0 42 33.5t-2 84.5h168q32 -130 -12 -221t-170 -91zM440 -30q-116 0 -196.5 44.5t-122 119
t-41.5 164.5q0 75 23 137t74.5 109.5t138.5 79.5q60 22 143 39t188 32.5t231 34.5l-98 -54q0 96 -46 141t-154 45q-60 0 -125 -29t-91 -103l-246 78q41 134 154 218t308 84q143 0 254 -44t168 -152q32 -60 38 -120t6 -134v-660h-238v222l34 -46q-79 -109 -170.5 -157.5
t-231.5 -48.5zM498 184q75 0 126.5 26.5t82 60.5t41.5 57q21 44 24.5 102.5t3.5 97.5l80 -20q-121 -20 -196 -33.5t-121 -24.5t-81 -24q-40 -16 -64.5 -34.5t-36 -40.5t-11.5 -49q0 -37 18.5 -63.5t52.5 -40.5t81 -14z" />
    <glyph glyph-name="adieresis" unicode="&#xe4;" horiz-adv-x="1166" 
d="M692 1232v240h240v-240h-240zM268 1232v240h240v-240h-240zM440 -30q-116 0 -196.5 44.5t-122 119t-41.5 164.5q0 75 23 137t74.5 109.5t138.5 79.5q60 22 143 39t188 32.5t231 34.5l-98 -54q0 96 -46 141t-154 45q-60 0 -125 -29t-91 -103l-246 78q41 134 154 218
t308 84q143 0 254 -44t168 -152q32 -60 38 -120t6 -134v-660h-238v222l34 -46q-79 -109 -170.5 -157.5t-231.5 -48.5zM498 184q75 0 126.5 26.5t82 60.5t41.5 57q21 44 24.5 102.5t3.5 97.5l80 -20q-121 -20 -196 -33.5t-121 -24.5t-81 -24q-40 -16 -64.5 -34.5t-36 -40.5
t-11.5 -49q0 -37 18.5 -63.5t52.5 -40.5t81 -14z" />
    <glyph glyph-name="aring" unicode="&#xe5;" horiz-adv-x="1166" 
d="M596 1190q-74 0 -135.5 36.5t-98 98t-36.5 135.5q0 75 36.5 136t98 97.5t135.5 36.5q75 0 136 -36.5t97.5 -97.5t36.5 -136q0 -74 -36.5 -135.5t-97.5 -98t-136 -36.5zM596 1350q46 0 78 32.5t32 77.5q0 46 -32 78t-78 32q-45 0 -77.5 -32t-32.5 -78q0 -45 32.5 -77.5
t77.5 -32.5zM440 -30q-116 0 -196.5 44.5t-122 119t-41.5 164.5q0 75 23 137t74.5 109.5t138.5 79.5q60 22 143 39t188 32.5t231 34.5l-98 -54q0 96 -46 141t-154 45q-60 0 -125 -29t-91 -103l-246 78q41 134 154 218t308 84q143 0 254 -44t168 -152q32 -60 38 -120t6 -134
v-660h-238v222l34 -46q-79 -109 -170.5 -157.5t-231.5 -48.5zM498 184q75 0 126.5 26.5t82 60.5t41.5 57q21 44 24.5 102.5t3.5 97.5l80 -20q-121 -20 -196 -33.5t-121 -24.5t-81 -24q-40 -16 -64.5 -34.5t-36 -40.5t-11.5 -49q0 -37 18.5 -63.5t52.5 -40.5t81 -14z" />
    <glyph glyph-name="ae" unicode="&#xe6;" horiz-adv-x="1868" 
d="M1321 -30q-160 0 -279.5 72t-185.5 197.5t-66 286.5q0 175 64.5 306.5t180.5 204.5t271 73q167 0 278.5 -83t162.5 -229t37 -334h-255v100q0 147 -43 228.5t-180 81.5q-92 0 -145.5 -43.5t-76 -119t-22.5 -171.5q0 -145 61.5 -230.5t182.5 -85.5q71 0 126.5 34.5
t84.5 101.5l257 -78q-37 -98 -107.5 -168t-160 -107t-185.5 -37zM498 182q83 0 148.5 41t93.5 89q16 28 25 61.5t12 73t1 85.5l98 -34l-228 -28q-39 -4 -90.5 -13.5t-99.5 -28t-80 -49.5t-32 -79q0 -51 40 -84.5t112 -33.5zM454 -30q-181 0 -277.5 91t-96.5 229
q0 86 34.5 146t91 98.5t124.5 61.5t136.5 35t125.5 19l246 32l-64 -52q11 88 -14.5 138.5t-74 72t-105.5 21.5q-70 0 -129.5 -32t-88.5 -100l-244 74q36 82 100.5 151.5t157 112t212.5 42.5q176 0 285.5 -72t148.5 -198q18 -58 21 -112.5t3 -83.5l-138 -432
q-53 -86 -121 -139.5t-151 -78t-182 -24.5zM982 464v210h677v-210h-677z" />
    <glyph glyph-name="ccedilla" unicode="&#xe7;" horiz-adv-x="1166" 
d="M586 -484q-42 0 -77 11t-65 27l58 156q39 -12 60 -12q27 0 41.5 15t14.5 31q0 36 -38.5 53.5t-91.5 32.5l70 204l158 2l-36 -108q59 -30 90.5 -77.5t31.5 -112.5q0 -99 -64.5 -160.5t-151.5 -61.5zM616 -30q-168 0 -288 75t-184 204t-64 291q0 164 66.5 293t187.5 203
t286 74q191 0 320.5 -96.5t165.5 -263.5l-272 -72q-24 84 -83.5 131t-134.5 47q-86 0 -141 -41.5t-81 -113t-26 -161.5q0 -141 62.5 -228.5t185.5 -87.5q92 0 140 42t72 120l278 -58q-46 -172 -174 -265t-316 -93z" />
    <glyph glyph-name="egrave" unicode="&#xe8;" horiz-adv-x="1216" 
d="M523 1230l-166 390h202l166 -390h-202zM642 -30q-166 0 -292.5 71.5t-198 197t-71.5 287.5q0 177 70 308t193 203.5t283 72.5q170 0 289 -80t176 -225t40 -341h-269v100q0 165 -52.5 237.5t-171.5 72.5q-139 0 -204.5 -84.5t-65.5 -249.5q0 -151 65.5 -233.5t192.5 -82.5
q80 0 137 35t87 101l272 -78q-61 -148 -192.5 -230t-287.5 -82zM284 464v202h716v-202h-716z" />
    <glyph glyph-name="eacute" unicode="&#xe9;" horiz-adv-x="1216" 
d="M749 1230h-202l166 390h202zM642 -30q-166 0 -292.5 71.5t-198 197t-71.5 287.5q0 177 70 308t193 203.5t283 72.5q170 0 289 -80t176 -225t40 -341h-269v100q0 165 -52.5 237.5t-171.5 72.5q-139 0 -204.5 -84.5t-65.5 -249.5q0 -151 65.5 -233.5t192.5 -82.5
q80 0 137 35t87 101l272 -78q-61 -148 -192.5 -230t-287.5 -82zM284 464v202h716v-202h-716z" />
    <glyph glyph-name="ecircumflex" unicode="&#xea;" horiz-adv-x="1216" 
d="M222 1230l288 330h224l288 -330h-250l-150 180l-150 -180h-250zM642 -30q-166 0 -292.5 71.5t-198 197t-71.5 287.5q0 177 70 308t193 203.5t283 72.5q170 0 289 -80t176 -225t40 -341h-269v100q0 165 -52.5 237.5t-171.5 72.5q-139 0 -204.5 -84.5t-65.5 -249.5
q0 -151 65.5 -233.5t192.5 -82.5q80 0 137 35t87 101l272 -78q-61 -148 -192.5 -230t-287.5 -82zM284 464v202h716v-202h-716z" />
    <glyph glyph-name="edieresis" unicode="&#xeb;" horiz-adv-x="1216" 
d="M718 1232v240h240v-240h-240zM294 1232v240h240v-240h-240zM642 -30q-166 0 -292.5 71.5t-198 197t-71.5 287.5q0 177 70 308t193 203.5t283 72.5q170 0 289 -80t176 -225t40 -341h-269v100q0 165 -52.5 237.5t-171.5 72.5q-139 0 -204.5 -84.5t-65.5 -249.5
q0 -151 65.5 -233.5t192.5 -82.5q80 0 137 35t87 101l272 -78q-61 -148 -192.5 -230t-287.5 -82zM284 464v202h716v-202h-716z" />
    <glyph glyph-name="igrave" unicode="&#xec;" horiz-adv-x="592" 
d="M191 1230l-166 390h202l166 -390h-202zM160 0v1080h272v-1080h-272z" />
    <glyph glyph-name="iacute" unicode="&#xed;" horiz-adv-x="592" 
d="M401 1230h-202l166 390h202zM160 0v1080h272v-1080h-272z" />
    <glyph glyph-name="icircumflex" unicode="&#xee;" horiz-adv-x="592" 
d="M-88 1230l288 330h224l288 -330h-250l-150 180l-150 -180h-250zM160 0v1080h272v-1080h-272z" />
    <glyph glyph-name="idieresis" unicode="&#xef;" horiz-adv-x="592" 
d="M388 1232v240h240v-240h-240zM-36 1232v240h240v-240h-240zM160 0v1080h272v-1080h-272z" />
    <glyph glyph-name="eth" unicode="&#xf0;" horiz-adv-x="1202" 
d="M602 -30q-154 0 -271.5 67.5t-184 187.5t-66.5 277q0 158 66.5 278.5t184 188t271.5 67.5q66 0 125.5 -15.5t138.5 -54.5q-13 85 -82 161.5t-170.5 127.5t-211.5 59l42 206q153 -4 273.5 -59t202.5 -157q72 -88 116.5 -198.5t65 -256t20.5 -339.5q0 -165 -63.5 -286.5
t-180.5 -187.5t-276 -66zM602 210q117 0 182.5 77.5t65.5 216.5q0 138 -65.5 215t-182.5 77q-121 0 -185.5 -75.5t-64.5 -216.5t65 -217.5t185 -76.5zM640 1058l-148 132l330 376l148 -132z" />
    <glyph glyph-name="ntilde" unicode="&#xf1;" 
d="M810 1236q-49 0 -93.5 22.5t-85 51.5t-75.5 51.5t-64 22.5q-30 0 -41.5 -33.5t1.5 -84.5h-168q-31 131 12.5 221.5t169.5 90.5q49 0 93.5 -22.5t85 -51.5t75.5 -51.5t64 -22.5q30 0 42 33.5t-2 84.5h168q32 -130 -12 -221t-170 -91zM876 0v510q0 37 -4 94.5t-25 115.5
t-68.5 97t-134.5 39q-35 0 -75 -11t-75 -42.5t-57.5 -92.5t-22.5 -162l-156 74q0 128 52 240t156.5 181t263.5 69q127 0 207 -43t124.5 -109t63.5 -137.5t23 -130.5t4 -86v-606h-276zM138 0v1080h242v-358h34v-722h-276z" />
    <glyph glyph-name="ograve" unicode="&#xf2;" horiz-adv-x="1254" 
d="M513 1230l-166 390h202l166 -390h-202zM626 -30q-163 0 -286 73t-191.5 201.5t-68.5 295.5q0 169 70 297.5t193 200.5t283 72q163 0 286.5 -73t192.5 -201.5t69 -295.5q0 -168 -69.5 -296.5t-193 -201t-285.5 -72.5zM626 224q131 0 195.5 88.5t64.5 227.5
q0 144 -65.5 230t-194.5 86q-89 0 -146 -40t-84.5 -111t-27.5 -165q0 -145 65.5 -230.5t192.5 -85.5z" />
    <glyph glyph-name="oacute" unicode="&#xf3;" horiz-adv-x="1254" 
d="M731 1230h-202l166 390h202zM626 -30q-163 0 -286 73t-191.5 201.5t-68.5 295.5q0 169 70 297.5t193 200.5t283 72q163 0 286.5 -73t192.5 -201.5t69 -295.5q0 -168 -69.5 -296.5t-193 -201t-285.5 -72.5zM626 224q131 0 195.5 88.5t64.5 227.5q0 144 -65.5 230
t-194.5 86q-89 0 -146 -40t-84.5 -111t-27.5 -165q0 -145 65.5 -230.5t192.5 -85.5z" />
    <glyph glyph-name="ocircumflex" unicode="&#xf4;" horiz-adv-x="1254" 
d="M224 1230l288 330h224l288 -330h-250l-150 180l-150 -180h-250zM626 -30q-163 0 -286 73t-191.5 201.5t-68.5 295.5q0 169 70 297.5t193 200.5t283 72q163 0 286.5 -73t192.5 -201.5t69 -295.5q0 -168 -69.5 -296.5t-193 -201t-285.5 -72.5zM626 224q131 0 195.5 88.5
t64.5 227.5q0 144 -65.5 230t-194.5 86q-89 0 -146 -40t-84.5 -111t-27.5 -165q0 -145 65.5 -230.5t192.5 -85.5z" />
    <glyph glyph-name="otilde" unicode="&#xf5;" horiz-adv-x="1254" 
d="M800 1236q-49 0 -93.5 22.5t-85 51.5t-75.5 51.5t-64 22.5q-30 0 -41.5 -33.5t1.5 -84.5h-168q-31 131 12.5 221.5t169.5 90.5q49 0 93.5 -22.5t85 -51.5t75.5 -51.5t64 -22.5q30 0 42 33.5t-2 84.5h168q32 -130 -12 -221t-170 -91zM626 -30q-163 0 -286 73t-191.5 201.5
t-68.5 295.5q0 169 70 297.5t193 200.5t283 72q163 0 286.5 -73t192.5 -201.5t69 -295.5q0 -168 -69.5 -296.5t-193 -201t-285.5 -72.5zM626 224q131 0 195.5 88.5t64.5 227.5q0 144 -65.5 230t-194.5 86q-89 0 -146 -40t-84.5 -111t-27.5 -165q0 -145 65.5 -230.5
t192.5 -85.5z" />
    <glyph glyph-name="odieresis" unicode="&#xf6;" horiz-adv-x="1254" 
d="M720 1232v240h240v-240h-240zM296 1232v240h240v-240h-240zM626 -30q-163 0 -286 73t-191.5 201.5t-68.5 295.5q0 169 70 297.5t193 200.5t283 72q163 0 286.5 -73t192.5 -201.5t69 -295.5q0 -168 -69.5 -296.5t-193 -201t-285.5 -72.5zM626 224q131 0 195.5 88.5
t64.5 227.5q0 144 -65.5 230t-194.5 86q-89 0 -146 -40t-84.5 -111t-27.5 -165q0 -145 65.5 -230.5t192.5 -85.5z" />
    <glyph glyph-name="divide" unicode="&#xf7;" horiz-adv-x="1080" 
d="M120 616v210h840v-210h-840zM504 902v272h272v-272h-272zM504 418v272h272v-272h-272z" />
    <glyph glyph-name="oslash" unicode="&#xf8;" horiz-adv-x="1254" 
d="M236 -30l-180 180l182 182l82 40l512 510l20 62l166 166l180 -182l-174 -172l-66 -26l-502 -502l-50 -88zM626 -30q-163 0 -286 73t-191.5 201.5t-68.5 295.5q0 169 70 297.5t193 200.5t283 72q163 0 286.5 -73t192.5 -201.5t69 -295.5q0 -168 -69.5 -296.5t-193 -201
t-285.5 -72.5zM626 224q131 0 195.5 88.5t64.5 227.5q0 144 -65.5 230t-194.5 86q-89 0 -146 -40t-84.5 -111t-27.5 -165q0 -145 65.5 -230.5t192.5 -85.5z" />
    <glyph glyph-name="ugrave" unicode="&#xf9;" 
d="M522 1230l-166 390h202l166 -390h-202zM542 -32q-127 0 -207 43t-124.5 109t-63.5 137.5t-23 130.5t-4 86v606h276v-510q0 -37 4 -94.5t25 -115.5t68.5 -97t134.5 -39q35 0 75 11t75 42.5t57.5 93t22.5 161.5l156 -74q0 -128 -52 -240t-156.5 -181t-263.5 -69zM892 0v358
h-34v722h274v-1080h-240z" />
    <glyph glyph-name="uacute" unicode="&#xfa;" 
d="M715 1230h-202l166 390h202zM542 -32q-127 0 -207 43t-124.5 109t-63.5 137.5t-23 130.5t-4 86v606h276v-510q0 -37 4 -94.5t25 -115.5t68.5 -97t134.5 -39q35 0 75 11t75 42.5t57.5 93t22.5 161.5l156 -74q0 -128 -52 -240t-156.5 -181t-263.5 -69zM892 0v358h-34v722
h274v-1080h-240z" />
    <glyph glyph-name="ucircumflex" unicode="&#xfb;" 
d="M222 1230l288 330h224l288 -330h-250l-150 180l-150 -180h-250zM542 -32q-127 0 -207 43t-124.5 109t-63.5 137.5t-23 130.5t-4 86v606h276v-510q0 -37 4 -94.5t25 -115.5t68.5 -97t134.5 -39q35 0 75 11t75 42.5t57.5 93t22.5 161.5l156 -74q0 -128 -52 -240
t-156.5 -181t-263.5 -69zM892 0v358h-34v722h274v-1080h-240z" />
    <glyph glyph-name="udieresis" unicode="&#xfc;" 
d="M718 1232v240h240v-240h-240zM294 1232v240h240v-240h-240zM542 -32q-127 0 -207 43t-124.5 109t-63.5 137.5t-23 130.5t-4 86v606h276v-510q0 -37 4 -94.5t25 -115.5t68.5 -97t134.5 -39q35 0 75 11t75 42.5t57.5 93t22.5 161.5l156 -74q0 -128 -52 -240t-156.5 -181
t-263.5 -69zM892 0v358h-34v722h274v-1080h-240z" />
    <glyph glyph-name="yacute" unicode="&#xfd;" horiz-adv-x="1140" 
d="M688 1230h-202l166 390h202zM278 -480l208 572l4 -168l-470 1156h282l316 -818h-64l314 818h272l-610 -1560h-252z" />
    <glyph glyph-name="thorn" unicode="&#xfe;" horiz-adv-x="1248" 
d="M140 864v576h274v-576h-274zM670 -30q-161 0 -269 75t-162.5 204t-54.5 291t54 291t159 204t259 75q155 0 270 -74t178.5 -202.5t63.5 -293.5q0 -162 -62.5 -291t-174.5 -204t-261 -75zM138 -480v1560h240v-740h34v-820h-274zM626 212q88 0 144 44t83 118.5t27 165.5
q0 90 -28 164.5t-86.5 119t-149.5 44.5q-85 0 -137.5 -41t-76.5 -115t-24 -172t24 -172t78.5 -115t145.5 -41z" />
    <glyph glyph-name="ydieresis" unicode="&#xff;" horiz-adv-x="1140" 
d="M676 1232v240h240v-240h-240zM252 1232v240h240v-240h-240zM278 -480l208 572l4 -168l-470 1156h282l316 -818h-64l314 818h272l-610 -1560h-252z" />
    <glyph glyph-name="Amacron" unicode="&#x100;" horiz-adv-x="1366" 
d="M412 1680v208h544v-208h-544zM40 0l440 1440h406l440 -1440h-280l-392 1270h52l-386 -1270h-280zM304 300v254h760v-254h-760z" />
    <glyph glyph-name="amacron" unicode="&#x101;" horiz-adv-x="1166" 
d="M350 1320v208h544v-208h-544zM440 -30q-116 0 -196.5 44.5t-122 119t-41.5 164.5q0 75 23 137t74.5 109.5t138.5 79.5q60 22 143 39t188 32.5t231 34.5l-98 -54q0 96 -46 141t-154 45q-60 0 -125 -29t-91 -103l-246 78q41 134 154 218t308 84q143 0 254 -44t168 -152
q32 -60 38 -120t6 -134v-660h-238v222l34 -46q-79 -109 -170.5 -157.5t-231.5 -48.5zM498 184q75 0 126.5 26.5t82 60.5t41.5 57q21 44 24.5 102.5t3.5 97.5l80 -20q-121 -20 -196 -33.5t-121 -24.5t-81 -24q-40 -16 -64.5 -34.5t-36 -40.5t-11.5 -49q0 -37 18.5 -63.5
t52.5 -40.5t81 -14z" />
    <glyph glyph-name="Abreve" unicode="&#x102;" horiz-adv-x="1366" 
d="M684 1560q-88 0 -160 43t-115 115t-43 160h210q0 -45 31.5 -76.5t76.5 -31.5t76.5 31.5t31.5 76.5h210q0 -88 -43 -160t-115 -115t-160 -43zM40 0l440 1440h406l440 -1440h-280l-392 1270h52l-386 -1270h-280zM304 300v254h760v-254h-760z" />
    <glyph glyph-name="abreve" unicode="&#x103;" horiz-adv-x="1166" 
d="M592 1200q-88 0 -160 43t-115 115t-43 160h210q0 -45 31.5 -76.5t76.5 -31.5t76.5 31.5t31.5 76.5h210q0 -88 -43 -160t-115 -115t-160 -43zM440 -30q-116 0 -196.5 44.5t-122 119t-41.5 164.5q0 75 23 137t74.5 109.5t138.5 79.5q60 22 143 39t188 32.5t231 34.5
l-98 -54q0 96 -46 141t-154 45q-60 0 -125 -29t-91 -103l-246 78q41 134 154 218t308 84q143 0 254 -44t168 -152q32 -60 38 -120t6 -134v-660h-238v222l34 -46q-79 -109 -170.5 -157.5t-231.5 -48.5zM498 184q75 0 126.5 26.5t82 60.5t41.5 57q21 44 24.5 102.5t3.5 97.5
l80 -20q-121 -20 -196 -33.5t-121 -24.5t-81 -24q-40 -16 -64.5 -34.5t-36 -40.5t-11.5 -49q0 -37 18.5 -63.5t52.5 -40.5t81 -14z" />
    <glyph glyph-name="Aogonek" unicode="&#x104;" horiz-adv-x="1366" 
d="M1120 -478q-66 0 -116 32t-78 83.5t-28 110.5q0 74 41.5 148t112.5 136t160 100l114 -132q-61 -31 -111 -73t-79.5 -84t-29.5 -73q0 -21 15 -35.5t37 -14.5q15 0 32.5 7.5t35.5 22.5l94 -124q-36 -49 -89.5 -76.5t-110.5 -27.5zM40 0l440 1440h406l440 -1440h-280
l-392 1270h52l-386 -1270h-280zM304 300v254h760v-254h-760z" />
    <glyph glyph-name="aogonek" unicode="&#x105;" horiz-adv-x="1166" 
d="M840 -478q-66 0 -116 32t-78 83.5t-28 110.5q0 74 41.5 148t112.5 136t160 100l114 -132q-61 -31 -111 -73t-79.5 -84t-29.5 -73q0 -21 15 -35.5t37 -14.5q15 0 32.5 7.5t35.5 22.5l94 -124q-36 -49 -89.5 -76.5t-110.5 -27.5zM440 -30q-116 0 -196.5 44.5t-122 119
t-41.5 164.5q0 75 23 137t74.5 109.5t138.5 79.5q60 22 143 39t188 32.5t231 34.5l-98 -54q0 96 -46 141t-154 45q-60 0 -125 -29t-91 -103l-246 78q41 134 154 218t308 84q143 0 254 -44t168 -152q32 -60 38 -120t6 -134v-660h-238v222l34 -46q-79 -109 -170.5 -157.5
t-231.5 -48.5zM498 184q75 0 126.5 26.5t82 60.5t41.5 57q21 44 24.5 102.5t3.5 97.5l80 -20q-121 -20 -196 -33.5t-121 -24.5t-81 -24q-40 -16 -64.5 -34.5t-36 -40.5t-11.5 -49q0 -37 18.5 -63.5t52.5 -40.5t81 -14z" />
    <glyph glyph-name="Cacute" unicode="&#x106;" horiz-adv-x="1492" 
d="M885 1590h-202l166 390h202zM758 -30q-216 0 -372.5 94t-241 263t-84.5 393t84.5 393t241 263t372.5 94q248 0 416.5 -123t237.5 -333l-274 -76q-40 131 -135 203.5t-245 72.5q-137 0 -228.5 -61t-137.5 -172t-46 -261t46 -261t137.5 -172t228.5 -61q150 0 245 73
t135 203l274 -76q-69 -210 -237.5 -333t-416.5 -123z" />
    <glyph glyph-name="cacute" unicode="&#x107;" horiz-adv-x="1166" 
d="M718 1230h-202l166 390h202zM616 -30q-168 0 -288 75t-184 204t-64 291q0 164 66.5 293t187.5 203t286 74q191 0 320.5 -96.5t165.5 -263.5l-272 -72q-24 84 -83.5 131t-134.5 47q-86 0 -141 -41.5t-81 -113t-26 -161.5q0 -141 62.5 -228.5t185.5 -87.5q92 0 140 42
t72 120l278 -58q-46 -172 -174 -265t-316 -93z" />
    <glyph glyph-name="Ccircumflex" unicode="&#x108;" horiz-adv-x="1492" 
d="M354 1590l288 330h224l288 -330h-250l-150 180l-150 -180h-250zM758 -30q-216 0 -372.5 94t-241 263t-84.5 393t84.5 393t241 263t372.5 94q248 0 416.5 -123t237.5 -333l-274 -76q-40 131 -135 203.5t-245 72.5q-137 0 -228.5 -61t-137.5 -172t-46 -261t46 -261
t137.5 -172t228.5 -61q150 0 245 73t135 203l274 -76q-69 -210 -237.5 -333t-416.5 -123z" />
    <glyph glyph-name="ccircumflex" unicode="&#x109;" horiz-adv-x="1166" 
d="M224 1230l288 330h224l288 -330h-250l-150 180l-150 -180h-250zM616 -30q-168 0 -288 75t-184 204t-64 291q0 164 66.5 293t187.5 203t286 74q191 0 320.5 -96.5t165.5 -263.5l-272 -72q-24 84 -83.5 131t-134.5 47q-86 0 -141 -41.5t-81 -113t-26 -161.5
q0 -141 62.5 -228.5t185.5 -87.5q92 0 140 42t72 120l278 -58q-46 -172 -174 -265t-316 -93z" />
    <glyph glyph-name="Cdotaccent" unicode="&#x10a;" horiz-adv-x="1492" 
d="M630 1648v272h272v-272h-272zM758 -30q-216 0 -372.5 94t-241 263t-84.5 393t84.5 393t241 263t372.5 94q248 0 416.5 -123t237.5 -333l-274 -76q-40 131 -135 203.5t-245 72.5q-137 0 -228.5 -61t-137.5 -172t-46 -261t46 -261t137.5 -172t228.5 -61q150 0 245 73
t135 203l274 -76q-69 -210 -237.5 -333t-416.5 -123z" />
    <glyph glyph-name="cdotaccent" unicode="&#x10b;" horiz-adv-x="1166" 
d="M516 1288v272h272v-272h-272zM616 -30q-168 0 -288 75t-184 204t-64 291q0 164 66.5 293t187.5 203t286 74q191 0 320.5 -96.5t165.5 -263.5l-272 -72q-24 84 -83.5 131t-134.5 47q-86 0 -141 -41.5t-81 -113t-26 -161.5q0 -141 62.5 -228.5t185.5 -87.5q92 0 140 42
t72 120l278 -58q-46 -172 -174 -265t-316 -93z" />
    <glyph glyph-name="Ccaron" unicode="&#x10c;" horiz-adv-x="1492" 
d="M346 1920h250l150 -180l150 180h250l-288 -330h-224zM758 -30q-216 0 -372.5 94t-241 263t-84.5 393t84.5 393t241 263t372.5 94q248 0 416.5 -123t237.5 -333l-274 -76q-40 131 -135 203.5t-245 72.5q-137 0 -228.5 -61t-137.5 -172t-46 -261t46 -261t137.5 -172
t228.5 -61q150 0 245 73t135 203l274 -76q-69 -210 -237.5 -333t-416.5 -123z" />
    <glyph glyph-name="ccaron" unicode="&#x10d;" horiz-adv-x="1166" 
d="M216 1560h250l150 -180l150 180h250l-288 -330h-224zM616 -30q-168 0 -288 75t-184 204t-64 291q0 164 66.5 293t187.5 203t286 74q191 0 320.5 -96.5t165.5 -263.5l-272 -72q-24 84 -83.5 131t-134.5 47q-86 0 -141 -41.5t-81 -113t-26 -161.5q0 -141 62.5 -228.5
t185.5 -87.5q92 0 140 42t72 120l278 -58q-46 -172 -174 -265t-316 -93z" />
    <glyph glyph-name="Dcaron" unicode="&#x10e;" horiz-adv-x="1420" 
d="M232 1920h250l150 -180l150 180h250l-288 -330h-224zM140 0v1440h466q17 0 70 -1t102 -7q174 -21 295 -121t184 -254t63 -337t-63 -337t-184 -254t-295 -121q-49 -6 -102 -7t-70 -1h-466zM416 256h190q27 0 73 1.5t83 8.5q94 19 153.5 88t88 166t28.5 200
q0 108 -29.5 205t-89.5 164t-151 85q-37 8 -83 9t-73 1h-190v-928z" />
    <glyph glyph-name="dcaron" unicode="&#x10f;" horiz-adv-x="1616" 
d="M578 -30q-149 0 -261 75t-174.5 204t-62.5 291q0 165 63.5 293.5t178.5 202.5t270 74q154 0 259 -75t159 -204t54 -291t-54.5 -291t-162.5 -204t-269 -75zM622 212q91 0 145.5 41t78.5 115t24 172t-24 172t-76.5 115t-137.5 41q-91 0 -149.5 -44.5t-86.5 -119t-28 -164.5
q0 -91 27 -165.5t83 -118.5t144 -44zM870 0v740h-34v700h274v-1440h-240zM1260 898l16 114q48 -4 78 15.5t41.5 56t4.5 84.5h-140v272h272v-272q0 -144 -67 -218t-205 -52z" />
    <glyph glyph-name="Dcroat" unicode="&#x110;" horiz-adv-x="1428" 
d="M20 616v210h690v-210h-690zM148 0v1440h466q17 0 70 -1t102 -7q174 -21 295 -121t184 -254t63 -337t-63 -337t-184 -254t-295 -121q-49 -6 -102 -7t-70 -1h-466zM424 256h190q27 0 73 1.5t83 8.5q94 19 153.5 88t88 166t28.5 200q0 108 -29.5 205t-89.5 164t-151 85
q-37 8 -83 9t-73 1h-190v-928z" />
    <glyph glyph-name="dcroat" unicode="&#x111;" horiz-adv-x="1250" 
d="M690 1160v208h544v-208h-544zM578 -30q-149 0 -261 75t-174.5 204t-62.5 291q0 165 63.5 293.5t178.5 202.5t270 74q154 0 259 -75t159 -204t54 -291t-54.5 -291t-162.5 -204t-269 -75zM622 212q91 0 145.5 41t78.5 115t24 172t-24 172t-76.5 115t-137.5 41
q-91 0 -149.5 -44.5t-86.5 -119t-28 -164.5q0 -91 27 -165.5t83 -118.5t144 -44zM870 0v740h-34v700h274v-1440h-240z" />
    <glyph glyph-name="Emacron" unicode="&#x112;" horiz-adv-x="1180" 
d="M348 1680v208h544v-208h-544zM140 0v1440h940v-254h-668v-308h548v-254h-548v-370h668v-254h-940z" />
    <glyph glyph-name="emacron" unicode="&#x113;" horiz-adv-x="1216" 
d="M374 1320v208h544v-208h-544zM642 -30q-166 0 -292.5 71.5t-198 197t-71.5 287.5q0 177 70 308t193 203.5t283 72.5q170 0 289 -80t176 -225t40 -341h-269v100q0 165 -52.5 237.5t-171.5 72.5q-139 0 -204.5 -84.5t-65.5 -249.5q0 -151 65.5 -233.5t192.5 -82.5
q80 0 137 35t87 101l272 -78q-61 -148 -192.5 -230t-287.5 -82zM284 464v202h716v-202h-716z" />
    <glyph glyph-name="Edotaccent" unicode="&#x116;" horiz-adv-x="1180" 
d="M472 1648v272h272v-272h-272zM140 0v1440h940v-254h-668v-308h548v-254h-548v-370h668v-254h-940z" />
    <glyph glyph-name="edotaccent" unicode="&#x117;" horiz-adv-x="1216" 
d="M492 1288v272h272v-272h-272zM642 -30q-166 0 -292.5 71.5t-198 197t-71.5 287.5q0 177 70 308t193 203.5t283 72.5q170 0 289 -80t176 -225t40 -341h-269v100q0 165 -52.5 237.5t-171.5 72.5q-139 0 -204.5 -84.5t-65.5 -249.5q0 -151 65.5 -233.5t192.5 -82.5
q80 0 137 35t87 101l272 -78q-61 -148 -192.5 -230t-287.5 -82zM284 464v202h716v-202h-716z" />
    <glyph glyph-name="Eogonek" unicode="&#x118;" horiz-adv-x="1180" 
d="M874 -478q-66 0 -116 32t-78 83.5t-28 110.5q0 74 41.5 148t112.5 136t160 100l114 -132q-61 -31 -111 -73t-79.5 -84t-29.5 -73q0 -21 15 -35.5t37 -14.5q15 0 32.5 7.5t35.5 22.5l94 -124q-36 -49 -89.5 -76.5t-110.5 -27.5zM140 0v1440h940v-254h-668v-308h548v-254
h-548v-370h668v-254h-940z" />
    <glyph glyph-name="eogonek" unicode="&#x119;" horiz-adv-x="1216" 
d="M978 -460q-70 -31 -147.5 -10.5t-124.5 80.5q-39 50 -49.5 123.5t19.5 142.5q20 45 49.5 92t50.5 80q14 22 36 55t47.5 67.5t50.5 61.5l170 -28q-23 -37 -43.5 -70t-38.5 -63t-33 -56.5t-29 -50.5q-27 -48 -45 -88.5t-27 -69.5q-3 -9 -4 -31t12 -37q18 -21 51 -14t57 26
l94 -124q-15 -27 -39 -49t-57 -37zM642 -30q-166 0 -292.5 71.5t-198 197t-71.5 287.5q0 177 70 308t193 203.5t283 72.5q170 0 289 -80t176 -225t40 -341h-269v100q0 165 -52.5 237.5t-171.5 72.5q-139 0 -204.5 -84.5t-65.5 -249.5q0 -151 65.5 -233.5t192.5 -82.5
q80 0 137 35t87 101l272 -78q-61 -148 -192.5 -230t-287.5 -82zM284 464v202h716v-202h-716z" />
    <glyph glyph-name="Ecaron" unicode="&#x11a;" horiz-adv-x="1180" 
d="M216 1920h250l150 -180l150 180h250l-288 -330h-224zM140 0v1440h940v-254h-668v-308h548v-254h-548v-370h668v-254h-940z" />
    <glyph glyph-name="ecaron" unicode="&#x11b;" horiz-adv-x="1216" 
d="M222 1560h250l150 -180l150 180h250l-288 -330h-224zM642 -30q-166 0 -292.5 71.5t-198 197t-71.5 287.5q0 177 70 308t193 203.5t283 72.5q170 0 289 -80t176 -225t40 -341h-269v100q0 165 -52.5 237.5t-171.5 72.5q-139 0 -204.5 -84.5t-65.5 -249.5
q0 -151 65.5 -233.5t192.5 -82.5q80 0 137 35t87 101l272 -78q-61 -148 -192.5 -230t-287.5 -82zM284 464v202h716v-202h-716z" />
    <glyph glyph-name="Gcircumflex" unicode="&#x11c;" horiz-adv-x="1482" 
d="M332 1590l288 330h224l288 -330h-250l-150 180l-150 -180h-250zM740 -30q-136 0 -259 48.5t-217.5 143.5t-149 235t-54.5 323q0 239 91.5 406.5t246 255.5t342.5 88q278 0 437 -129t213 -365l-278 -40q-39 126 -127.5 201.5t-226.5 76.5q-137 2 -228 -59t-136.5 -173
t-45.5 -262t45.5 -260t136.5 -171t228 -63q93 -2 168.5 32t127.5 107t74 187h-228v210h518q2 -13 3 -46t1 -38q0 -207 -84 -367t-237 -250.5t-361 -90.5z" />
    <glyph glyph-name="gcircumflex" unicode="&#x11d;" horiz-adv-x="1248" 
d="M235 1230l288 330h224l288 -330h-250l-150 180l-150 -180h-250zM602 -510q-92 0 -175 29.5t-148.5 82t-106.5 122.5l252 122q26 -48 74.5 -73t105.5 -25q61 0 115 20.5t86.5 61t30.5 100.5v314h34v836h238v-1154q0 -40 -3.5 -75.5t-12.5 -70.5q-26 -99 -96.5 -163
t-172.5 -95.5t-221 -31.5zM578 -30q-149 0 -261 75t-174.5 204t-62.5 291q0 165 63.5 293.5t178.5 202.5t270 74q154 0 259 -75t159 -204t54 -291t-54.5 -291t-162.5 -204t-269 -75zM622 212q91 0 145.5 41t78.5 115t24 172t-24 172t-76.5 115t-137.5 41q-91 0 -149.5 -44.5
t-86.5 -119t-28 -164.5q0 -91 27 -165.5t83 -118.5t144 -44z" />
    <glyph glyph-name="Gbreve" unicode="&#x11e;" horiz-adv-x="1482" 
d="M746 1560q-88 0 -160 43t-115 115t-43 160h210q0 -45 31.5 -76.5t76.5 -31.5t76.5 31.5t31.5 76.5h210q0 -88 -43 -160t-115 -115t-160 -43zM740 -30q-136 0 -259 48.5t-217.5 143.5t-149 235t-54.5 323q0 239 91.5 406.5t246 255.5t342.5 88q278 0 437 -129t213 -365
l-278 -40q-39 126 -127.5 201.5t-226.5 76.5q-137 2 -228 -59t-136.5 -173t-45.5 -262t45.5 -260t136.5 -171t228 -63q93 -2 168.5 32t127.5 107t74 187h-228v210h518q2 -13 3 -46t1 -38q0 -207 -84 -367t-237 -250.5t-361 -90.5z" />
    <glyph glyph-name="gbreve" unicode="&#x11f;" horiz-adv-x="1248" 
d="M690 1200q-88 0 -160 43t-115 115t-43 160h210q0 -45 31.5 -76.5t76.5 -31.5t76.5 31.5t31.5 76.5h210q0 -88 -43 -160t-115 -115t-160 -43zM602 -510q-92 0 -175 29.5t-148.5 82t-106.5 122.5l252 122q26 -48 74.5 -73t105.5 -25q61 0 115 20.5t86.5 61t30.5 100.5v314
h34v836h238v-1154q0 -40 -3.5 -75.5t-12.5 -70.5q-26 -99 -96.5 -163t-172.5 -95.5t-221 -31.5zM578 -30q-149 0 -261 75t-174.5 204t-62.5 291q0 165 63.5 293.5t178.5 202.5t270 74q154 0 259 -75t159 -204t54 -291t-54.5 -291t-162.5 -204t-269 -75zM622 212
q91 0 145.5 41t78.5 115t24 172t-24 172t-76.5 115t-137.5 41q-91 0 -149.5 -44.5t-86.5 -119t-28 -164.5q0 -91 27 -165.5t83 -118.5t144 -44z" />
    <glyph glyph-name="Gdotaccent" unicode="&#x120;" horiz-adv-x="1482" 
d="M626 1648v272h272v-272h-272zM740 -30q-136 0 -259 48.5t-217.5 143.5t-149 235t-54.5 323q0 239 91.5 406.5t246 255.5t342.5 88q278 0 437 -129t213 -365l-278 -40q-39 126 -127.5 201.5t-226.5 76.5q-137 2 -228 -59t-136.5 -173t-45.5 -262t45.5 -260t136.5 -171
t228 -63q93 -2 168.5 32t127.5 107t74 187h-228v210h518q2 -13 3 -46t1 -38q0 -207 -84 -367t-237 -250.5t-361 -90.5z" />
    <glyph glyph-name="gdotaccent" unicode="&#x121;" horiz-adv-x="1248" 
d="M536 1288v272h272v-272h-272zM602 -510q-92 0 -175 29.5t-148.5 82t-106.5 122.5l252 122q26 -48 74.5 -73t105.5 -25q61 0 115 20.5t86.5 61t30.5 100.5v314h34v836h238v-1154q0 -40 -3.5 -75.5t-12.5 -70.5q-26 -99 -96.5 -163t-172.5 -95.5t-221 -31.5zM578 -30
q-149 0 -261 75t-174.5 204t-62.5 291q0 165 63.5 293.5t178.5 202.5t270 74q154 0 259 -75t159 -204t54 -291t-54.5 -291t-162.5 -204t-269 -75zM622 212q91 0 145.5 41t78.5 115t24 172t-24 172t-76.5 115t-137.5 41q-91 0 -149.5 -44.5t-86.5 -119t-28 -164.5
q0 -91 27 -165.5t83 -118.5t144 -44z" />
    <glyph glyph-name="uni0122" unicode="&#x122;" horiz-adv-x="1482" 
d="M652 -630v114q16 0 50 6.5t63 30t29 73.5h-142v256h256v-256q0 -99 -71 -161.5t-185 -62.5zM740 -30q-136 0 -259 48.5t-217.5 143.5t-149 235t-54.5 323q0 239 91.5 406.5t246 255.5t342.5 88q278 0 437 -129t213 -365l-278 -40q-39 126 -127.5 201.5t-226.5 76.5
q-137 2 -228 -59t-136.5 -173t-45.5 -262t45.5 -260t136.5 -171t228 -63q93 -2 168.5 32t127.5 107t74 187h-228v210h518q2 -13 3 -46t1 -38q0 -207 -84 -367t-237 -250.5t-361 -90.5z" />
    <glyph glyph-name="uni0123" unicode="&#x123;" horiz-adv-x="1248" 
d="M774 1768v-114q-16 0 -50 -6.5t-63 -30t-29 -73.5h142v-256h-256v256q0 99 71 161.5t185 62.5zM602 -510q-92 0 -175 29.5t-148.5 82t-106.5 122.5l252 122q26 -48 74.5 -73t105.5 -25q61 0 115 20.5t86.5 61t30.5 100.5v314h34v836h238v-1154q0 -40 -3.5 -75.5
t-12.5 -70.5q-26 -99 -96.5 -163t-172.5 -95.5t-221 -31.5zM578 -30q-149 0 -261 75t-174.5 204t-62.5 291q0 165 63.5 293.5t178.5 202.5t270 74q154 0 259 -75t159 -204t54 -291t-54.5 -291t-162.5 -204t-269 -75zM622 212q91 0 145.5 41t78.5 115t24 172t-24 172
t-76.5 115t-137.5 41q-91 0 -149.5 -44.5t-86.5 -119t-28 -164.5q0 -91 27 -165.5t83 -118.5t144 -44z" />
    <glyph glyph-name="Hcircumflex" unicode="&#x124;" horiz-adv-x="1468" 
d="M330 1590l288 330h224l288 -330h-250l-150 180l-150 -180h-250zM140 0v1440h272v-592h644v592h272v-1440h-272v594h-644v-594h-272z" />
    <glyph glyph-name="hcircumflex" unicode="&#x125;" 
d="M-145 1590l288 330h224l288 -330h-250l-150 180l-150 -180h-250zM876 0v510q0 37 -4 94.5t-25 115.5t-68.5 97t-134.5 39q-35 0 -75 -11t-75 -42.5t-57.5 -92.5t-22.5 -162l-156 74q0 128 52 240t156.5 181t263.5 69q127 0 207 -43t124.5 -109t63.5 -137.5t23 -130.5
t4 -86v-606h-276zM138 0v1440h242v-740h34v-700h-276z" />
    <glyph glyph-name="Hbar" unicode="&#x126;" horiz-adv-x="1508" 
d="M160 0v1440h272v-592h644v592h272v-1440h-272v594h-644v-594h-272zM20 988v254h1468v-254h-1468z" />
    <glyph glyph-name="hbar" unicode="&#x127;" 
d="M36 1160v208h544v-208h-544zM876 0v510q0 37 -4 94.5t-25 115.5t-68.5 97t-134.5 39q-35 0 -75 -11t-75 -42.5t-57.5 -92.5t-22.5 -162l-156 74q0 128 52 240t156.5 181t263.5 69q127 0 207 -43t124.5 -109t63.5 -137.5t23 -130.5t4 -86v-606h-276zM138 0v1440h242v-740
h34v-700h-276z" />
    <glyph glyph-name="Itilde" unicode="&#x128;" horiz-adv-x="592" 
d="M468 1596q-49 0 -93.5 22.5t-85 51.5t-75.5 51.5t-64 22.5q-30 0 -41.5 -33.5t1.5 -84.5h-168q-31 131 12.5 221.5t169.5 90.5q49 0 93.5 -22.5t85 -51.5t75.5 -51.5t64 -22.5q30 0 42 33.5t-2 84.5h168q32 -130 -12 -221t-170 -91zM160 0v1440h272v-1440h-272z" />
    <glyph glyph-name="itilde" unicode="&#x129;" horiz-adv-x="592" 
d="M468 1236q-49 0 -93.5 22.5t-85 51.5t-75.5 51.5t-64 22.5q-30 0 -41.5 -33.5t1.5 -84.5h-168q-31 131 12.5 221.5t169.5 90.5q49 0 93.5 -22.5t85 -51.5t75.5 -51.5t64 -22.5q30 0 42 33.5t-2 84.5h168q32 -130 -12 -221t-170 -91zM160 0v1080h272v-1080h-272z" />
    <glyph glyph-name="Imacron" unicode="&#x12a;" horiz-adv-x="592" 
d="M24 1680v208h544v-208h-544zM160 0v1440h272v-1440h-272z" />
    <glyph glyph-name="imacron" unicode="&#x12b;" horiz-adv-x="592" 
d="M24 1320v208h544v-208h-544zM160 0v1080h272v-1080h-272z" />
    <glyph glyph-name="Iogonek" unicode="&#x12e;" horiz-adv-x="592" 
d="M226 -478q-66 0 -116 32t-78 83.5t-28 110.5q0 74 41.5 148t112.5 136t160 100l114 -132q-61 -31 -111 -73t-79.5 -84t-29.5 -73q0 -21 15 -35.5t37 -14.5q15 0 32.5 7.5t35.5 22.5l94 -124q-36 -49 -89.5 -76.5t-110.5 -27.5zM160 0v1440h272v-1440h-272z" />
    <glyph glyph-name="iogonek" unicode="&#x12f;" horiz-adv-x="592" 
d="M226 -478q-66 0 -116 32t-78 83.5t-28 110.5q0 74 41.5 148t112.5 136t160 100l114 -132q-61 -31 -111 -73t-79.5 -84t-29.5 -73q0 -21 15 -35.5t37 -14.5q15 0 32.5 7.5t35.5 22.5l94 -124q-36 -49 -89.5 -76.5t-110.5 -27.5zM160 1230v240h272v-240h-272zM160 0v1080
h272v-1080h-272z" />
    <glyph glyph-name="Idotaccent" unicode="&#x130;" horiz-adv-x="592" 
d="M160 1648v272h272v-272h-272zM160 0v1440h272v-1440h-272z" />
    <glyph glyph-name="dotlessi" unicode="&#x131;" horiz-adv-x="592" 
d="M160 0v1080h272v-1080h-272z" />
    <glyph glyph-name="Jcircumflex" unicode="&#x134;" horiz-adv-x="1026" 
d="M324 1590l288 330h224l288 -330h-250l-150 180l-150 -180h-250zM442 -30q-172 0 -283.5 88t-158.5 238l268 64q9 -55 58 -95.5t104 -40.5q38 0 81.5 21t62.5 67q12 29 14 71t2 97v960h276v-960q0 -69 -0.5 -120t-10 -95.5t-37.5 -92.5q-61 -106 -159 -154t-217 -48z" />
    <glyph glyph-name="jcircumflex" unicode="&#x135;" horiz-adv-x="602" 
d="M-20 -480v254h48q93 0 127.5 42t34.5 120v1144h272v-1276q0 -129 -80.5 -206.5t-217.5 -77.5h-184zM-79 1230l288 330h224l288 -330h-250l-150 180l-150 -180h-250z" />
    <glyph glyph-name="uni0136" unicode="&#x136;" horiz-adv-x="1330" 
d="M586 -630v114q16 0 50 6.5t63 30t29 73.5h-142v256h256v-256q0 -99 -71 -161.5t-185 -62.5zM140 0v1440h272v-664l548 664h332l-602 -710l640 -730h-344l-574 656v-656h-272z" />
    <glyph glyph-name="uni0137" unicode="&#x137;" horiz-adv-x="1104" 
d="M488 -630v114q16 0 50 6.5t63 30t29 73.5h-142v256h256v-256q0 -99 -71 -161.5t-185 -62.5zM138 0l2 1440h276v-880l366 520h336l-390 -540l416 -540h-354l-374 520v-520h-278z" />
    <glyph glyph-name="Lacute" unicode="&#x139;" horiz-adv-x="1082" 
d="M401 1590h-202l166 390h202zM160 0v1440h272v-1186h620v-254h-892z" />
    <glyph glyph-name="lacute" unicode="&#x13a;" horiz-adv-x="592" 
d="M401 1590h-202l166 390h202zM160 0v1470h272v-1470h-272z" />
    <glyph glyph-name="uni013B" unicode="&#x13b;" horiz-adv-x="1082" 
d="M478 -630v114q16 0 50 6.5t63 30t29 73.5h-142v256h256v-256q0 -99 -71 -161.5t-185 -62.5zM160 0v1440h272v-1186h620v-254h-892z" />
    <glyph glyph-name="uni013C" unicode="&#x13c;" horiz-adv-x="592" 
d="M168 -630v114q16 0 50 6.5t63 30t29 73.5h-142v256h256v-256q0 -99 -71 -161.5t-185 -62.5zM160 0v1470h272v-1470h-272z" />
    <glyph glyph-name="Lcaron" unicode="&#x13d;" horiz-adv-x="1082" 
d="M160 0v1440h272v-1186h620v-254h-892zM656 898l16 114q48 -4 78 15.5t41.5 56t4.5 84.5h-140v272h272v-272q0 -144 -67 -218t-205 -52z" />
    <glyph glyph-name="lcaron" unicode="&#x13e;" horiz-adv-x="948" 
d="M160 0v1470h272v-1470h-272zM592 898l16 114q48 -4 78 15.5t41.5 56t4.5 84.5h-140v272h272v-272q0 -144 -67 -218t-205 -52z" />
    <glyph glyph-name="Lslash" unicode="&#x141;" horiz-adv-x="1122" 
d="M56 322v293l720 413v-294zM200 0v1440h272v-1186h620v-254h-892z" />
    <glyph glyph-name="lslash" unicode="&#x142;" horiz-adv-x="812" 
d="M46 382v293l720 413v-294zM270 0v1470h272v-1470h-272z" />
    <glyph glyph-name="Nacute" unicode="&#x143;" horiz-adv-x="1458" 
d="M843 1590h-202l166 390h202zM140 0v1440h276l626 -960v960h276v-1440h-276l-626 960v-960h-276z" />
    <glyph glyph-name="nacute" unicode="&#x144;" 
d="M744 1230h-202l166 390h202zM876 0v510q0 37 -4 94.5t-25 115.5t-68.5 97t-134.5 39q-35 0 -75 -11t-75 -42.5t-57.5 -92.5t-22.5 -162l-156 74q0 128 52 240t156.5 181t263.5 69q127 0 207 -43t124.5 -109t63.5 -137.5t23 -130.5t4 -86v-606h-276zM138 0v1080h242v-358
h34v-722h-276z" />
    <glyph glyph-name="uni0145" unicode="&#x145;" horiz-adv-x="1458" 
d="M622 -630v114q16 0 50 6.5t63 30t29 73.5h-142v256h256v-256q0 -99 -71 -161.5t-185 -62.5zM140 0v1440h276l626 -960v960h276v-1440h-276l-626 960v-960h-276z" />
    <glyph glyph-name="uni0146" unicode="&#x146;" 
d="M524 -630v114q16 0 50 6.5t63 30t29 73.5h-142v256h256v-256q0 -99 -71 -161.5t-185 -62.5zM876 0v510q0 37 -4 94.5t-25 115.5t-68.5 97t-134.5 39q-35 0 -75 -11t-75 -42.5t-57.5 -92.5t-22.5 -162l-156 74q0 128 52 240t156.5 181t263.5 69q127 0 207 -43t124.5 -109
t63.5 -137.5t23 -130.5t4 -86v-606h-276zM138 0v1080h242v-358h34v-722h-276z" />
    <glyph glyph-name="Ncaron" unicode="&#x147;" horiz-adv-x="1458" 
d="M346 1920h250l150 -180l150 180h250l-288 -330h-224zM140 0v1440h276l626 -960v960h276v-1440h-276l-626 960v-960h-276z" />
    <glyph glyph-name="ncaron" unicode="&#x148;" 
d="M232 1560h250l150 -180l150 180h250l-288 -330h-224zM876 0v510q0 37 -4 94.5t-25 115.5t-68.5 97t-134.5 39q-35 0 -75 -11t-75 -42.5t-57.5 -92.5t-22.5 -162l-156 74q0 128 52 240t156.5 181t263.5 69q127 0 207 -43t124.5 -109t63.5 -137.5t23 -130.5t4 -86v-606
h-276zM138 0v1080h242v-358h34v-722h-276z" />
    <glyph glyph-name="Eng" unicode="&#x14a;" horiz-adv-x="1458" 
d="M1042 1440h276v-1616q0 -151 -74 -226.5t-226 -75.5q-40 0 -81 5t-79 15v200q38 -3 53.5 -4.5t30.5 -1.5q75 0 113.5 27t38.5 79q0 44 -24.5 97.5t-93.5 162.5l-560 858v-960h-276v1440h276l626 -960v960z" />
    <glyph glyph-name="eng" unicode="&#x14b;" 
d="M942 -468q-73 -15 -134.5 -9t-115.5 19v190q23 -1 54.5 -2.5t61 8t49 39.5t19.5 91v136h276v-180q0 -118 -55.5 -195t-154.5 -97zM876 0v510q0 37 -4 94.5t-25 115.5t-68.5 97t-134.5 39q-35 0 -75 -11t-75 -42.5t-57.5 -92.5t-22.5 -162l-156 74q0 128 52 240t156.5 181
t263.5 69q127 0 207 -43t124.5 -109t63.5 -137.5t23 -130.5t4 -86v-606h-276zM138 0v1080h242v-358h34v-722h-276z" />
    <glyph glyph-name="Omacron" unicode="&#x14c;" horiz-adv-x="1516" 
d="M486 1680v208h544v-208h-544zM758 -30q-216 0 -372.5 94t-241 263t-84.5 393t84.5 393t241 263t372.5 94t372.5 -94t241 -263t84.5 -393t-84.5 -393t-241 -263t-372.5 -94zM758 226q137 -2 228 59t136.5 173t45.5 262t-45.5 260t-136.5 171t-228 63t-228 -59t-136.5 -173
t-45.5 -262t45.5 -260t136.5 -171t228 -63z" />
    <glyph glyph-name="omacron" unicode="&#x14d;" horiz-adv-x="1254" 
d="M356 1320v208h544v-208h-544zM626 -30q-163 0 -286 73t-191.5 201.5t-68.5 295.5q0 169 70 297.5t193 200.5t283 72q163 0 286.5 -73t192.5 -201.5t69 -295.5q0 -168 -69.5 -296.5t-193 -201t-285.5 -72.5zM626 224q131 0 195.5 88.5t64.5 227.5q0 144 -65.5 230
t-194.5 86q-89 0 -146 -40t-84.5 -111t-27.5 -165q0 -145 65.5 -230.5t192.5 -85.5z" />
    <glyph glyph-name="Ohungarumlaut" unicode="&#x150;" horiz-adv-x="1516" 
d="M1052 1590h-202l166 390h202zM628 1590h-202l166 390h202zM758 -30q-216 0 -372.5 94t-241 263t-84.5 393t84.5 393t241 263t372.5 94t372.5 -94t241 -263t84.5 -393t-84.5 -393t-241 -263t-372.5 -94zM758 226q137 -2 228 59t136.5 173t45.5 262t-45.5 260t-136.5 171
t-228 63t-228 -59t-136.5 -173t-45.5 -262t45.5 -260t136.5 -171t228 -63z" />
    <glyph glyph-name="ohungarumlaut" unicode="&#x151;" horiz-adv-x="1254" 
d="M916 1230h-202l166 390h202zM492 1230h-202l166 390h202zM626 -30q-163 0 -286 73t-191.5 201.5t-68.5 295.5q0 169 70 297.5t193 200.5t283 72q163 0 286.5 -73t192.5 -201.5t69 -295.5q0 -168 -69.5 -296.5t-193 -201t-285.5 -72.5zM626 224q131 0 195.5 88.5
t64.5 227.5q0 144 -65.5 230t-194.5 86q-89 0 -146 -40t-84.5 -111t-27.5 -165q0 -145 65.5 -230.5t192.5 -85.5z" />
    <glyph glyph-name="OE" unicode="&#x152;" horiz-adv-x="2222" 
d="M758 -30q-216 0 -372.5 94t-241 263t-84.5 393t84.5 393t241 263t372.5 94t372.5 -94t241 -263t84.5 -393t-84.5 -393t-241 -263t-372.5 -94zM758 226q137 -2 228 59t136.5 173t45.5 262t-45.5 260t-136.5 171t-228 63t-228 -59t-136.5 -173t-45.5 -262t45.5 -260
t136.5 -171t228 -63zM1182 0v1440h940v-254h-668v-308h548v-254h-548v-370h668v-254h-940z" />
    <glyph glyph-name="oe" unicode="&#x153;" horiz-adv-x="2022" 
d="M1448 -30q-166 0 -292.5 71.5t-198 197t-71.5 287.5q0 177 70 308t193 203.5t283 72.5q170 0 289 -80t176 -225t40 -341h-269v100q0 165 -52.5 237.5t-171.5 72.5q-139 0 -204.5 -84.5t-65.5 -249.5q0 -151 65.5 -233.5t192.5 -82.5q80 0 137 35t87 101l272 -78
q-61 -148 -192.5 -230t-287.5 -82zM1090 464v202h716v-202h-716zM626 -30q-163 0 -286 73t-191.5 201.5t-68.5 295.5q0 169 70 297.5t193 200.5t283 72q163 0 286.5 -73t192.5 -201.5t69 -295.5q0 -168 -69.5 -296.5t-193 -201t-285.5 -72.5zM626 224q131 0 195.5 88.5
t64.5 227.5q0 144 -65.5 230t-194.5 86q-89 0 -146 -40t-84.5 -111t-27.5 -165q0 -145 65.5 -230.5t192.5 -85.5z" />
    <glyph glyph-name="Racute" unicode="&#x154;" horiz-adv-x="1340" 
d="M747 1590h-202l166 390h202zM140 0v1440h608q21 0 56.5 -1.5t63.5 -6.5q129 -20 211.5 -85t121.5 -163.5t39 -219.5q0 -181 -90 -309.5t-282 -158.5l-120 -8h-336v-488h-272zM952 0l-284 586l280 54l312 -640h-308zM412 742h324q21 0 46 2t46 8q55 15 85 50.5t41.5 79
t11.5 82.5t-11.5 82.5t-41.5 79t-85 50.5q-21 6 -46 8t-46 2h-324v-444z" />
    <glyph glyph-name="racute" unicode="&#x155;" horiz-adv-x="824" 
d="M501 1230h-202l166 390h202zM140 0v1080h240v-264l-26 34q21 56 56 102t86 76q39 24 85 37.5t95 17t98 -2.5v-254q-45 14 -104.5 9.5t-107.5 -27.5q-48 -22 -81 -58.5t-50 -86t-17 -111.5v-552h-274z" />
    <glyph glyph-name="uni0156" unicode="&#x156;" horiz-adv-x="1340" 
d="M542 -630v114q16 0 50 6.5t63 30t29 73.5h-142v256h256v-256q0 -99 -71 -161.5t-185 -62.5zM140 0v1440h608q21 0 56.5 -1.5t63.5 -6.5q129 -20 211.5 -85t121.5 -163.5t39 -219.5q0 -181 -90 -309.5t-282 -158.5l-120 -8h-336v-488h-272zM952 0l-284 586l280 54
l312 -640h-308zM412 742h324q21 0 46 2t46 8q55 15 85 50.5t41.5 79t11.5 82.5t-11.5 82.5t-41.5 79t-85 50.5q-21 6 -46 8t-46 2h-324v-444z" />
    <glyph glyph-name="uni0157" unicode="&#x157;" horiz-adv-x="824" 
d="M150 -630v114q16 0 50 6.5t63 30t29 73.5h-142v256h256v-256q0 -99 -71 -161.5t-185 -62.5zM140 0v1080h240v-264l-26 34q21 56 56 102t86 76q39 24 85 37.5t95 17t98 -2.5v-254q-45 14 -104.5 9.5t-107.5 -27.5q-48 -22 -81 -58.5t-50 -86t-17 -111.5v-552h-274z" />
    <glyph glyph-name="Rcaron" unicode="&#x158;" horiz-adv-x="1340" 
d="M222 1920h250l150 -180l150 180h250l-288 -330h-224zM140 0v1440h608q21 0 56.5 -1.5t63.5 -6.5q129 -20 211.5 -85t121.5 -163.5t39 -219.5q0 -181 -90 -309.5t-282 -158.5l-120 -8h-336v-488h-272zM952 0l-284 586l280 54l312 -640h-308zM412 742h324q21 0 46 2t46 8
q55 15 85 50.5t41.5 79t11.5 82.5t-11.5 82.5t-41.5 79t-85 50.5q-21 6 -46 8t-46 2h-324v-444z" />
    <glyph glyph-name="rcaron" unicode="&#x159;" horiz-adv-x="824" 
d="M54 1560h250l150 -180l150 180h250l-288 -330h-224zM140 0v1080h240v-264l-26 34q21 56 56 102t86 76q39 24 85 37.5t95 17t98 -2.5v-254q-45 14 -104.5 9.5t-107.5 -27.5q-48 -22 -81 -58.5t-50 -86t-17 -111.5v-552h-274z" />
    <glyph glyph-name="Sacute" unicode="&#x15a;" horiz-adv-x="1342" 
d="M785 1590h-202l166 390h202zM684 -30q-160 0 -288.5 56.5t-211 162t-104.5 251.5l284 42q30 -124 124 -191t214 -67q67 0 130 21t103.5 62t40.5 101q0 22 -6.5 42.5t-21.5 38.5t-42.5 34t-69.5 29l-374 110q-42 12 -97.5 34t-107.5 63t-86.5 108.5t-34.5 170.5
q0 145 73 241t195 143t270 46q149 -2 266 -51t196 -142.5t114 -228.5l-294 -50q-16 70 -59 118t-102.5 73t-124.5 27q-64 2 -120.5 -17.5t-92 -56.5t-35.5 -88q0 -47 29 -76.5t73 -47.5t90 -30l250 -68q56 -15 124 -39.5t130.5 -68t103 -114.5t40.5 -180
q0 -116 -48.5 -202.5t-130.5 -143t-185.5 -84.5t-213.5 -28z" />
    <glyph glyph-name="sacute" unicode="&#x15b;" horiz-adv-x="1094" 
d="M646 1230h-202l166 390h202zM562 -30q-204 0 -329.5 92.5t-152.5 261.5l278 42q17 -76 75.5 -119t148.5 -43q74 0 114 28.5t40 79.5q0 32 -16 51.5t-71.5 38.5t-172.5 50q-132 34 -211 76t-114 100.5t-35 141.5q0 104 53 180.5t149.5 118t227.5 41.5q127 0 225 -39
t158.5 -111t74.5 -170l-278 -50q-7 60 -52 95t-122 41q-75 5 -120.5 -20t-45.5 -72q0 -28 19.5 -47t81 -39t187.5 -52q123 -32 197.5 -74.5t108.5 -102t34 -143.5q0 -166 -120 -261t-332 -95z" />
    <glyph glyph-name="Scircumflex" unicode="&#x15c;" horiz-adv-x="1342" 
d="M287 1590l288 330h224l288 -330h-250l-150 180l-150 -180h-250zM684 -30q-160 0 -288.5 56.5t-211 162t-104.5 251.5l284 42q30 -124 124 -191t214 -67q67 0 130 21t103.5 62t40.5 101q0 22 -6.5 42.5t-21.5 38.5t-42.5 34t-69.5 29l-374 110q-42 12 -97.5 34t-107.5 63
t-86.5 108.5t-34.5 170.5q0 145 73 241t195 143t270 46q149 -2 266 -51t196 -142.5t114 -228.5l-294 -50q-16 70 -59 118t-102.5 73t-124.5 27q-64 2 -120.5 -17.5t-92 -56.5t-35.5 -88q0 -47 29 -76.5t73 -47.5t90 -30l250 -68q56 -15 124 -39.5t130.5 -68t103 -114.5
t40.5 -180q0 -116 -48.5 -202.5t-130.5 -143t-185.5 -84.5t-213.5 -28z" />
    <glyph glyph-name="scircumflex" unicode="&#x15d;" horiz-adv-x="1094" 
d="M163 1230l288 330h224l288 -330h-250l-150 180l-150 -180h-250zM562 -30q-204 0 -329.5 92.5t-152.5 261.5l278 42q17 -76 75.5 -119t148.5 -43q74 0 114 28.5t40 79.5q0 32 -16 51.5t-71.5 38.5t-172.5 50q-132 34 -211 76t-114 100.5t-35 141.5q0 104 53 180.5
t149.5 118t227.5 41.5q127 0 225 -39t158.5 -111t74.5 -170l-278 -50q-7 60 -52 95t-122 41q-75 5 -120.5 -20t-45.5 -72q0 -28 19.5 -47t81 -39t187.5 -52q123 -32 197.5 -74.5t108.5 -102t34 -143.5q0 -166 -120 -261t-332 -95z" />
    <glyph glyph-name="Scedilla" unicode="&#x15e;" horiz-adv-x="1342" 
d="M694 -484q-42 0 -77 11t-65 27l58 156q39 -12 60 -12q27 0 41.5 15t14.5 31q0 36 -38.5 53.5t-91.5 32.5l70 204l158 2l-36 -108q59 -30 90.5 -77.5t31.5 -112.5q0 -99 -64.5 -160.5t-151.5 -61.5zM684 -30q-160 0 -288.5 56.5t-211 162t-104.5 251.5l284 42
q30 -124 124 -191t214 -67q67 0 130 21t103.5 62t40.5 101q0 22 -6.5 42.5t-21.5 38.5t-42.5 34t-69.5 29l-374 110q-42 12 -97.5 34t-107.5 63t-86.5 108.5t-34.5 170.5q0 145 73 241t195 143t270 46q149 -2 266 -51t196 -142.5t114 -228.5l-294 -50q-16 70 -59 118
t-102.5 73t-124.5 27q-64 2 -120.5 -17.5t-92 -56.5t-35.5 -88q0 -47 29 -76.5t73 -47.5t90 -30l250 -68q56 -15 124 -39.5t130.5 -68t103 -114.5t40.5 -180q0 -116 -48.5 -202.5t-130.5 -143t-185.5 -84.5t-213.5 -28z" />
    <glyph glyph-name="scedilla" unicode="&#x15f;" horiz-adv-x="1094" 
d="M532 -484q-42 0 -77 11t-65 27l58 156q39 -12 60 -12q27 0 41.5 15t14.5 31q0 36 -38.5 53.5t-91.5 32.5l70 204l158 2l-36 -108q59 -30 90.5 -77.5t31.5 -112.5q0 -99 -64.5 -160.5t-151.5 -61.5zM562 -30q-204 0 -329.5 92.5t-152.5 261.5l278 42q17 -76 75.5 -119
t148.5 -43q74 0 114 28.5t40 79.5q0 32 -16 51.5t-71.5 38.5t-172.5 50q-132 34 -211 76t-114 100.5t-35 141.5q0 104 53 180.5t149.5 118t227.5 41.5q127 0 225 -39t158.5 -111t74.5 -170l-278 -50q-7 60 -52 95t-122 41q-75 5 -120.5 -20t-45.5 -72q0 -28 19.5 -47t81 -39
t187.5 -52q123 -32 197.5 -74.5t108.5 -102t34 -143.5q0 -166 -120 -261t-332 -95z" />
    <glyph glyph-name="Scaron" unicode="&#x160;" horiz-adv-x="1342" 
d="M294 1920h250l150 -180l150 180h250l-288 -330h-224zM684 -30q-160 0 -288.5 56.5t-211 162t-104.5 251.5l284 42q30 -124 124 -191t214 -67q67 0 130 21t103.5 62t40.5 101q0 22 -6.5 42.5t-21.5 38.5t-42.5 34t-69.5 29l-374 110q-42 12 -97.5 34t-107.5 63
t-86.5 108.5t-34.5 170.5q0 145 73 241t195 143t270 46q149 -2 266 -51t196 -142.5t114 -228.5l-294 -50q-16 70 -59 118t-102.5 73t-124.5 27q-64 2 -120.5 -17.5t-92 -56.5t-35.5 -88q0 -47 29 -76.5t73 -47.5t90 -30l250 -68q56 -15 124 -39.5t130.5 -68t103 -114.5
t40.5 -180q0 -116 -48.5 -202.5t-130.5 -143t-185.5 -84.5t-213.5 -28z" />
    <glyph glyph-name="scaron" unicode="&#x161;" horiz-adv-x="1094" 
d="M158 1560h250l150 -180l150 180h250l-288 -330h-224zM562 -30q-204 0 -329.5 92.5t-152.5 261.5l278 42q17 -76 75.5 -119t148.5 -43q74 0 114 28.5t40 79.5q0 32 -16 51.5t-71.5 38.5t-172.5 50q-132 34 -211 76t-114 100.5t-35 141.5q0 104 53 180.5t149.5 118
t227.5 41.5q127 0 225 -39t158.5 -111t74.5 -170l-278 -50q-7 60 -52 95t-122 41q-75 5 -120.5 -20t-45.5 -72q0 -28 19.5 -47t81 -39t187.5 -52q123 -32 197.5 -74.5t108.5 -102t34 -143.5q0 -166 -120 -261t-332 -95z" />
    <glyph glyph-name="uni0162" unicode="&#x162;" horiz-adv-x="1220" 
d="M474 0v1186h-454v254h1180v-254h-454v-1186h-272zM566 -484q-42 0 -77 11t-65 27l58 156q39 -12 60 -12q27 0 41.5 15t14.5 31q0 36 -38.5 53.5t-91.5 32.5l70 204l158 2l-36 -108q59 -30 90.5 -77.5t31.5 -112.5q0 -99 -64.5 -160.5t-151.5 -61.5z" />
    <glyph glyph-name="uni0163" unicode="&#x163;" horiz-adv-x="888" 
d="M472 -484q-42 0 -77 11t-65 27l58 156q39 -12 60 -12q27 0 41.5 15t14.5 31q0 36 -38.5 53.5t-91.5 32.5l70 204l158 2l-36 -108q59 -30 90.5 -77.5t31.5 -112.5q0 -99 -64.5 -160.5t-151.5 -61.5zM788 0q-112 -21 -219.5 -18.5t-192 38t-128.5 114.5q-40 74 -42 150.5
t-2 173.5v922h272v-906q0 -63 1.5 -113.5t20.5 -80.5q36 -57 115 -62t175 8v-226zM20 870v210h768v-210h-768z" />
    <glyph glyph-name="Tcaron" unicode="&#x164;" horiz-adv-x="1220" 
d="M206 1920h250l150 -180l150 180h250l-288 -330h-224zM474 0v1186h-454v254h1180v-254h-454v-1186h-272z" />
    <glyph glyph-name="tcaron" unicode="&#x165;" horiz-adv-x="888" 
d="M788 0q-112 -21 -219.5 -18.5t-192 38t-128.5 114.5q-40 74 -42 150.5t-2 173.5v922h272v-906q0 -63 1.5 -113.5t20.5 -80.5q36 -57 115 -62t175 8v-226zM20 870v210h768v-210h-768zM700 1200l16 114q48 -4 78 15.5t41.5 56t4.5 84.5h-140v272h272v-272q0 -144 -67 -218
t-205 -52z" />
    <glyph glyph-name="Tbar" unicode="&#x166;" horiz-adv-x="1220" 
d="M130 584v272h960v-272h-960zM474 0v1186h-454v254h1180v-254h-454v-1186h-272z" />
    <glyph glyph-name="tbar" unicode="&#x167;" horiz-adv-x="928" 
d="M20 456v210h808v-210h-808zM788 0q-112 -21 -219.5 -18.5t-192 38t-128.5 114.5q-40 74 -42 150.5t-2 173.5v922h272v-906q0 -63 1.5 -113.5t20.5 -80.5q36 -57 115 -62t175 8v-226zM20 870v210h768v-210h-768z" />
    <glyph glyph-name="Utilde" unicode="&#x168;" horiz-adv-x="1452" 
d="M726 -30q-174 0 -306 70.5t-206 198.5t-74 301v898l276 2v-898q0 -71 24 -129t66.5 -100t99 -64.5t120.5 -22.5q66 0 122.5 23t98.5 65t65.5 100t23.5 128v898h276v-900q0 -173 -74 -301t-206 -198.5t-306 -70.5zM917 1596q-49 0 -93.5 22.5t-85 51.5t-75.5 51.5
t-64 22.5q-30 0 -41.5 -33.5t1.5 -84.5h-168q-31 131 12.5 221.5t169.5 90.5q49 0 93.5 -22.5t85 -51.5t75.5 -51.5t64 -22.5q30 0 42 33.5t-2 84.5h168q32 -130 -12 -221t-170 -91z" />
    <glyph glyph-name="utilde" unicode="&#x169;" 
d="M542 -32q-127 0 -207 43t-124.5 109t-63.5 137.5t-23 130.5t-4 86v606h276v-510q0 -37 4 -94.5t25 -115.5t68.5 -97t134.5 -39q35 0 75 11t75 42.5t57.5 93t22.5 161.5l156 -74q0 -128 -52 -240t-156.5 -181t-263.5 -69zM892 0v358h-34v722h274v-1080h-240zM818 1236
q-49 0 -93.5 22.5t-85 51.5t-75.5 51.5t-64 22.5q-30 0 -41.5 -33.5t1.5 -84.5h-168q-31 131 12.5 221.5t169.5 90.5q49 0 93.5 -22.5t85 -51.5t75.5 -51.5t64 -22.5q30 0 42 33.5t-2 84.5h168q32 -130 -12 -221t-170 -91z" />
    <glyph glyph-name="Umacron" unicode="&#x16a;" horiz-adv-x="1452" 
d="M454 1680v208h544v-208h-544zM726 -30q-174 0 -306 70.5t-206 198.5t-74 301v898l276 2v-898q0 -71 24 -129t66.5 -100t99 -64.5t120.5 -22.5q66 0 122.5 23t98.5 65t65.5 100t23.5 128v898h276v-900q0 -173 -74 -301t-206 -198.5t-306 -70.5z" />
    <glyph glyph-name="umacron" unicode="&#x16b;" 
d="M354 1320v208h544v-208h-544zM542 -32q-127 0 -207 43t-124.5 109t-63.5 137.5t-23 130.5t-4 86v606h276v-510q0 -37 4 -94.5t25 -115.5t68.5 -97t134.5 -39q35 0 75 11t75 42.5t57.5 93t22.5 161.5l156 -74q0 -128 -52 -240t-156.5 -181t-263.5 -69zM892 0v358h-34v722
h274v-1080h-240z" />
    <glyph glyph-name="Ubreve" unicode="&#x16c;" horiz-adv-x="1452" 
d="M726 1560q-88 0 -160 43t-115 115t-43 160h210q0 -45 31.5 -76.5t76.5 -31.5t76.5 31.5t31.5 76.5h210q0 -88 -43 -160t-115 -115t-160 -43zM726 -30q-174 0 -306 70.5t-206 198.5t-74 301v898l276 2v-898q0 -71 24 -129t66.5 -100t99 -64.5t120.5 -22.5q66 0 122.5 23
t98.5 65t65.5 100t23.5 128v898h276v-900q0 -173 -74 -301t-206 -198.5t-306 -70.5z" />
    <glyph glyph-name="ubreve" unicode="&#x16d;" 
d="M626 1200q-88 0 -160 43t-115 115t-43 160h210q0 -45 31.5 -76.5t76.5 -31.5t76.5 31.5t31.5 76.5h210q0 -88 -43 -160t-115 -115t-160 -43zM542 -32q-127 0 -207 43t-124.5 109t-63.5 137.5t-23 130.5t-4 86v606h276v-510q0 -37 4 -94.5t25 -115.5t68.5 -97t134.5 -39
q35 0 75 11t75 42.5t57.5 93t22.5 161.5l156 -74q0 -128 -52 -240t-156.5 -181t-263.5 -69zM892 0v358h-34v722h274v-1080h-240z" />
    <glyph glyph-name="Uring" unicode="&#x16e;" horiz-adv-x="1452" 
d="M734 1550q-74 0 -135.5 36.5t-98 98t-36.5 135.5q0 75 36.5 136t98 97.5t135.5 36.5q75 0 136 -36.5t97.5 -97.5t36.5 -136q0 -74 -36.5 -135.5t-97.5 -98t-136 -36.5zM734 1710q46 0 78 32.5t32 77.5q0 46 -32 78t-78 32q-45 0 -77.5 -32t-32.5 -78q0 -45 32.5 -77.5
t77.5 -32.5zM726 -30q-174 0 -306 70.5t-206 198.5t-74 301v898l276 2v-898q0 -71 24 -129t66.5 -100t99 -64.5t120.5 -22.5q66 0 122.5 23t98.5 65t65.5 100t23.5 128v898h276v-900q0 -173 -74 -301t-206 -198.5t-306 -70.5z" />
    <glyph glyph-name="uring" unicode="&#x16f;" 
d="M626 1190q-74 0 -135.5 36.5t-98 98t-36.5 135.5q0 75 36.5 136t98 97.5t135.5 36.5q75 0 136 -36.5t97.5 -97.5t36.5 -136q0 -74 -36.5 -135.5t-97.5 -98t-136 -36.5zM626 1350q46 0 78 32.5t32 77.5q0 46 -32 78t-78 32q-45 0 -77.5 -32t-32.5 -78q0 -45 32.5 -77.5
t77.5 -32.5zM542 -32q-127 0 -207 43t-124.5 109t-63.5 137.5t-23 130.5t-4 86v606h276v-510q0 -37 4 -94.5t25 -115.5t68.5 -97t134.5 -39q35 0 75 11t75 42.5t57.5 93t22.5 161.5l156 -74q0 -128 -52 -240t-156.5 -181t-263.5 -69zM892 0v358h-34v722h274v-1080h-240z" />
    <glyph glyph-name="Uhungarumlaut" unicode="&#x170;" horiz-adv-x="1452" 
d="M1015 1590h-202l166 390h202zM591 1590h-202l166 390h202zM726 -30q-174 0 -306 70.5t-206 198.5t-74 301v898l276 2v-898q0 -71 24 -129t66.5 -100t99 -64.5t120.5 -22.5q66 0 122.5 23t98.5 65t65.5 100t23.5 128v898h276v-900q0 -173 -74 -301t-206 -198.5t-306 -70.5
z" />
    <glyph glyph-name="uhungarumlaut" unicode="&#x171;" 
d="M925 1230h-202l166 390h202zM501 1230h-202l166 390h202zM542 -32q-127 0 -207 43t-124.5 109t-63.5 137.5t-23 130.5t-4 86v606h276v-510q0 -37 4 -94.5t25 -115.5t68.5 -97t134.5 -39q35 0 75 11t75 42.5t57.5 93t22.5 161.5l156 -74q0 -128 -52 -240t-156.5 -181
t-263.5 -69zM892 0v358h-34v722h274v-1080h-240z" />
    <glyph glyph-name="Uogonek" unicode="&#x172;" horiz-adv-x="1452" 
d="M726 -30q-174 0 -306 70.5t-206 198.5t-74 301v898l276 2v-898q0 -71 24 -129t66.5 -100t99 -64.5t120.5 -22.5q66 0 122.5 23t98.5 65t65.5 100t23.5 128v898h276v-900q0 -173 -74 -301t-206 -198.5t-306 -70.5zM860 -416q-66 0 -116 32t-78 83.5t-28 110.5
q0 74 41.5 148t112.5 136t160 100l114 -132q-61 -31 -111 -73t-79.5 -84t-29.5 -73q0 -21 15 -35.5t37 -14.5q15 0 32.5 7.5t35.5 22.5l94 -124q-36 -49 -89.5 -76.5t-110.5 -27.5z" />
    <glyph glyph-name="uogonek" unicode="&#x173;" 
d="M926 -478q-66 0 -116 32t-78 83.5t-28 110.5q0 74 41.5 148t112.5 136t160 100l114 -132q-61 -31 -111 -73t-79.5 -84t-29.5 -73q0 -21 15 -35.5t37 -14.5q15 0 32.5 7.5t35.5 22.5l94 -124q-36 -49 -89.5 -76.5t-110.5 -27.5zM542 -32q-127 0 -207 43t-124.5 109
t-63.5 137.5t-23 130.5t-4 86v606h276v-510q0 -37 4 -94.5t25 -115.5t68.5 -97t134.5 -39q35 0 75 11t75 42.5t57.5 93t22.5 161.5l156 -74q0 -128 -52 -240t-156.5 -181t-263.5 -69zM892 0v358h-34v722h274v-1080h-240z" />
    <glyph glyph-name="Wcircumflex" unicode="&#x174;" horiz-adv-x="1978" 
d="M586 1590l288 330h224l288 -330h-250l-150 180l-150 -180h-250zM442 0l-422 1440h286l270 -990l270 988l286 2l270 -990l270 990h286l-422 -1440h-268l-279 972l-279 -972h-268z" />
    <glyph glyph-name="wcircumflex" unicode="&#x175;" horiz-adv-x="1628" 
d="M410 1230l288 330h224l288 -330h-250l-150 180l-150 -180h-250zM370 0l-330 1082l266 -2l196 -644l199 644h226l199 -644l196 644h266l-330 -1080h-208l-236 704l-236 -704h-208z" />
    <glyph glyph-name="Ycircumflex" unicode="&#x176;" horiz-adv-x="1260" 
d="M226 1590l288 330h224l288 -330h-250l-150 180l-150 -180h-250zM492 0v586l-492 854h318l312 -542l312 542h318l-492 -854v-586h-276z" />
    <glyph glyph-name="ycircumflex" unicode="&#x177;" horiz-adv-x="1140" 
d="M182 1230l288 330h224l288 -330h-250l-150 180l-150 -180h-250zM278 -480l208 572l4 -168l-470 1156h282l316 -818h-64l314 818h272l-610 -1560h-252z" />
    <glyph glyph-name="Ydieresis" unicode="&#x178;" horiz-adv-x="1260" 
d="M722 1592v240h240v-240h-240zM298 1592v240h240v-240h-240zM492 0v586l-492 854h318l312 -542l312 542h318l-492 -854v-586h-276z" />
    <glyph glyph-name="Zacute" unicode="&#x179;" horiz-adv-x="1360" 
d="M794 1590h-202l166 390h202zM100 0v34l684 1152h-624v254h1100v-34l-680 -1150h660v-256h-1140z" />
    <glyph glyph-name="zacute" unicode="&#x17a;" horiz-adv-x="1070" 
d="M646 1230h-202l166 390h202zM40 0v34l530 810h-470v236h890v-34l-528 -810h508v-236h-930z" />
    <glyph glyph-name="Zdotaccent" unicode="&#x17b;" horiz-adv-x="1360" 
d="M574 1648v272h272v-272h-272zM100 0v34l684 1152h-624v254h1100v-34l-680 -1150h660v-256h-1140z" />
    <glyph glyph-name="zdotaccent" unicode="&#x17c;" horiz-adv-x="1070" 
d="M424 1288v272h272v-272h-272zM40 0v34l530 810h-470v236h890v-34l-528 -810h508v-236h-930z" />
    <glyph glyph-name="Zcaron" unicode="&#x17d;" horiz-adv-x="1360" 
d="M286 1920h250l150 -180l150 180h250l-288 -330h-224zM100 0v34l684 1152h-624v254h1100v-34l-680 -1150h660v-256h-1140z" />
    <glyph glyph-name="zcaron" unicode="&#x17e;" horiz-adv-x="1070" 
d="M150 1560h250l150 -180l150 180h250l-288 -330h-224zM40 0v34l530 810h-470v236h890v-34l-528 -810h508v-236h-930z" />
    <glyph glyph-name="florin" unicode="&#x192;" horiz-adv-x="1412" 
d="M354 -30q-46 0 -93.5 8t-93.5 22t-87 32l114 228q18 -10 42 -17.5t48.5 -12t45.5 -4.5q46 0 76.5 20.5t50 54t30 72t15.5 73.5l90 562q6 38 19 95.5t41 121t77.5 119.5t127.5 91t191 35q51 0 100 -7.5t95 -22t89 -34.5l-124 -224q3 0 -15 8t-48.5 16t-66.5 8
q-34 0 -65.5 -9t-57.5 -27t-43.5 -44.5t-23.5 -61.5l-110 -664q-16 -99 -50.5 -179.5t-87 -138.5t-124 -89t-162.5 -31zM262 616v210h926v-210h-926z" />
    <glyph glyph-name="Ohorn" unicode="&#x1a0;" horiz-adv-x="1516" 
d="M1135 1616l202 1q15 -118 -12.5 -192.5t-96.5 -106.5q-67 -31 -151 -23t-140 41v115q44 -10 75.5 -14t58.5 8q50 23 57 71t7 100zM758 -30q-216 0 -372.5 94t-241 263t-84.5 393t84.5 393t241 263t372.5 94t372.5 -94t241 -263t84.5 -393t-84.5 -393t-241 -263
t-372.5 -94zM758 226q137 -2 228 59t136.5 173t45.5 262t-45.5 260t-136.5 171t-228 63t-228 -59t-136.5 -173t-45.5 -262t45.5 -260t136.5 -171t228 -63z" />
    <glyph glyph-name="ohorn" unicode="&#x1a1;" horiz-adv-x="1254" 
d="M967 1259l202 1q15 -118 -12.5 -192.5t-96.5 -106.5q-67 -31 -151 -23t-140 41v115q44 -10 75.5 -14t58.5 8q50 23 57 71t7 100zM626 -30q-163 0 -286 73t-191.5 201.5t-68.5 295.5q0 169 70 297.5t193 200.5t283 72q163 0 286.5 -73t192.5 -201.5t69 -295.5
q0 -168 -69.5 -296.5t-193 -201t-285.5 -72.5zM626 224q131 0 195.5 88.5t64.5 227.5q0 144 -65.5 230t-194.5 86q-89 0 -146 -40t-84.5 -111t-27.5 -165q0 -145 65.5 -230.5t192.5 -85.5z" />
    <glyph glyph-name="Uhorn" unicode="&#x1af;" horiz-adv-x="1452" 
d="M1368 1619l202 1q15 -118 -14.5 -188.5t-93.5 -105.5q-65 -36 -146.5 -36.5t-145.5 6.5v144q22 0 41.5 0.5t38.5 3.5q79 13 98.5 64.5t19.5 110.5zM726 -30q-174 0 -306 70.5t-206 198.5t-74 301v898l276 2v-898q0 -71 24 -129t66.5 -100t99 -64.5t120.5 -22.5
q66 0 122.5 23t98.5 65t65.5 100t23.5 128v898h276v-900q0 -173 -74 -301t-206 -198.5t-306 -70.5z" />
    <glyph glyph-name="uhorn" unicode="&#x1b0;" 
d="M1128 1259l202 1q15 -118 -14.5 -188.5t-93.5 -105.5q-65 -36 -146.5 -36.5t-145.5 6.5v144q22 0 41.5 0.5t38.5 3.5q79 13 98.5 64.5t19.5 110.5zM542 -32q-127 0 -207 43t-124.5 109t-63.5 137.5t-23 130.5t-4 86v606h276v-510q0 -37 4 -94.5t25 -115.5t68.5 -97
t134.5 -39q35 0 75 11t75 42.5t57.5 93t22.5 161.5l156 -74q0 -128 -52 -240t-156.5 -181t-263.5 -69zM892 0v358h-34v722h274v-1080h-240z" />
    <glyph glyph-name="uni0218" unicode="&#x218;" horiz-adv-x="1342" 
d="M586 -630v114q16 0 50 6.5t63 30t29 73.5h-142v256h256v-256q0 -99 -71 -161.5t-185 -62.5zM684 -30q-160 0 -288.5 56.5t-211 162t-104.5 251.5l284 42q30 -124 124 -191t214 -67q67 0 130 21t103.5 62t40.5 101q0 22 -6.5 42.5t-21.5 38.5t-42.5 34t-69.5 29l-374 110
q-42 12 -97.5 34t-107.5 63t-86.5 108.5t-34.5 170.5q0 145 73 241t195 143t270 46q149 -2 266 -51t196 -142.5t114 -228.5l-294 -50q-16 70 -59 118t-102.5 73t-124.5 27q-64 2 -120.5 -17.5t-92 -56.5t-35.5 -88q0 -47 29 -76.5t73 -47.5t90 -30l250 -68q56 -15 124 -39.5
t130.5 -68t103 -114.5t40.5 -180q0 -116 -48.5 -202.5t-130.5 -143t-185.5 -84.5t-213.5 -28z" />
    <glyph glyph-name="uni0219" unicode="&#x219;" horiz-adv-x="1094" 
d="M434 -630v114q16 0 50 6.5t63 30t29 73.5h-142v256h256v-256q0 -99 -71 -161.5t-185 -62.5zM562 -30q-204 0 -329.5 92.5t-152.5 261.5l278 42q17 -76 75.5 -119t148.5 -43q74 0 114 28.5t40 79.5q0 32 -16 51.5t-71.5 38.5t-172.5 50q-132 34 -211 76t-114 100.5
t-35 141.5q0 104 53 180.5t149.5 118t227.5 41.5q127 0 225 -39t158.5 -111t74.5 -170l-278 -50q-7 60 -52 95t-122 41q-75 5 -120.5 -20t-45.5 -72q0 -28 19.5 -47t81 -39t187.5 -52q123 -32 197.5 -74.5t108.5 -102t34 -143.5q0 -166 -120 -261t-332 -95z" />
    <glyph glyph-name="uni021A" unicode="&#x21a;" horiz-adv-x="1220" 
d="M482 -630v114q16 0 50 6.5t63 30t29 73.5h-142v256h256v-256q0 -99 -71 -161.5t-185 -62.5zM474 0v1186h-454v254h1180v-254h-454v-1186h-272z" />
    <glyph glyph-name="uni021B" unicode="&#x21b;" horiz-adv-x="888" 
d="M372 -630v114q16 0 50 6.5t63 30t29 73.5h-142v256h256v-256q0 -99 -71 -161.5t-185 -62.5zM788 0q-112 -21 -219.5 -18.5t-192 38t-128.5 114.5q-40 74 -42 150.5t-2 173.5v922h272v-906q0 -63 1.5 -113.5t20.5 -80.5q36 -57 115 -62t175 8v-226zM20 870v210h768v-210
h-768z" />
    <glyph glyph-name="uni0259" unicode="&#x259;" horiz-adv-x="1216" 
d="M574 1110q166 0 292.5 -71.5t198 -197t71.5 -287.5q0 -177 -70 -308t-193 -203.5t-283 -72.5q-170 0 -289 80t-175.5 225t-40.5 341h269v-100q0 -165 53 -237.5t171 -72.5q140 0 205 84.5t65 249.5q0 152 -65 234t-193 82q-79 0 -136.5 -35t-87.5 -101l-272 78
q62 149 193 230.5t287 81.5zM932 616v-202h-716v202h716z" />
    <glyph glyph-name="circumflex" unicode="&#x2c6;" horiz-adv-x="1200" 
d="M196 1590l288 330h224l288 -330h-250l-150 180l-150 -180h-250z" />
    <glyph glyph-name="caron" unicode="&#x2c7;" horiz-adv-x="1200" 
d="M196 1920h250l150 -180l150 180h250l-288 -330h-224z" />
    <glyph glyph-name="breve" unicode="&#x2d8;" horiz-adv-x="1116" 
d="M558 1560q-88 0 -160 43t-115 115t-43 160h210q0 -45 31.5 -76.5t76.5 -31.5t76.5 31.5t31.5 76.5h210q0 -88 -43 -160t-115 -115t-160 -43z" />
    <glyph glyph-name="dotaccent" unicode="&#x2d9;" horiz-adv-x="752" 
d="M240 1648v272h272v-272h-272z" />
    <glyph glyph-name="ring" unicode="&#x2da;" horiz-adv-x="1140" 
d="M570 1550q-74 0 -135.5 36.5t-98 98t-36.5 135.5q0 75 36.5 136t98 97.5t135.5 36.5q75 0 136 -36.5t97.5 -97.5t36.5 -136q0 -74 -36.5 -135.5t-97.5 -98t-136 -36.5zM570 1710q46 0 78 32.5t32 77.5q0 46 -32 78t-78 32q-45 0 -77.5 -32t-32.5 -78q0 -45 32.5 -77.5
t77.5 -32.5z" />
    <glyph glyph-name="ogonek" unicode="&#x2db;" horiz-adv-x="902" 
d="M460 -478q-66 0 -116 32t-78 83.5t-28 110.5q0 74 41.5 148t112.5 136t160 100l114 -132q-61 -31 -111 -73t-79.5 -84t-29.5 -73q0 -21 15 -35.5t37 -14.5q15 0 32.5 7.5t35.5 22.5l94 -124q-36 -49 -89.5 -76.5t-110.5 -27.5z" />
    <glyph glyph-name="tilde" unicode="&#x2dc;" horiz-adv-x="1180" 
d="M762 1596q-49 0 -93.5 22.5t-85 51.5t-75.5 51.5t-64 22.5q-30 0 -41.5 -33.5t1.5 -84.5h-168q-31 131 12.5 221.5t169.5 90.5q49 0 93.5 -22.5t85 -51.5t75.5 -51.5t64 -22.5q30 0 42 33.5t-2 84.5h168q32 -130 -12 -221t-170 -91z" />
    <glyph glyph-name="hungarumlaut" unicode="&#x2dd;" horiz-adv-x="1196" 
d="M826 1590h-202l166 390h202zM402 1590h-202l166 390h202z" />
    <glyph glyph-name="uni0374" unicode="&#x374;" horiz-adv-x="648" 
d="M322 1050h-202l166 390h202z" />
    <glyph glyph-name="uni0375" unicode="&#x375;" horiz-adv-x="648" 
d="M322 -522h-202l166 390h202z" />
    <glyph glyph-name="uni037E" unicode="&#x37e;" horiz-adv-x="712" 
d="M220 -270l16 114q48 -4 78 15.5t41.5 56t4.5 84.5h-140v272h272v-272q0 -144 -67 -218t-205 -52zM220 808v272h272v-272h-272z" />
    <glyph glyph-name="tonos" unicode="&#x384;" horiz-adv-x="1200" 
d="M606 1050h-202l166 390h202z" />
    <glyph glyph-name="dieresistonos" unicode="&#x385;" horiz-adv-x="1200" 
d="M832 1230v240h210v-240h-210zM158 1230v240h210v-240h-210zM652 1230h-202l166 390h202z" />
    <glyph glyph-name="Alphatonos" unicode="&#x386;" horiz-adv-x="1400" 
d="M74 0l440 1440h406l440 -1440h-280l-392 1270h52l-386 -1270h-280zM338 300v254h760v-254h-760zM242 1050h-202l166 390h202z" />
    <glyph glyph-name="anoteleia" unicode="&#x387;" horiz-adv-x="1200" 
d="M284 470q-69 0 -116.5 45.5t-47.5 114.5t47.5 114.5t116.5 45.5q63 0 109.5 -45.5t46.5 -114.5t-46.5 -114.5t-109.5 -45.5z" />
    <glyph glyph-name="Epsilontonos" unicode="&#x388;" horiz-adv-x="1528" 
d="M488 0v1440h940v-254h-668v-308h548v-254h-548v-370h668v-254h-940zM234 1050h-202l166 390h202z" />
    <glyph glyph-name="Etatonos" unicode="&#x389;" horiz-adv-x="1788" 
d="M460 0v1440h272v-592h644v592h272v-1440h-272v594h-644v-594h-272zM212 1050h-202l166 390h202z" />
    <glyph glyph-name="Iotatonos" unicode="&#x38a;" horiz-adv-x="870" 
d="M458 0v1440h272v-1440h-272zM212 1050h-202l166 390h202z" />
    <glyph glyph-name="Omicrontonos" unicode="&#x38c;" horiz-adv-x="1744" 
d="M986 -30q-216 0 -372.5 94t-241 263t-84.5 393t84.5 393t241 263t372.5 94t372.5 -94t241 -263t84.5 -393t-84.5 -393t-241 -263t-372.5 -94zM986 226q137 -2 228 59t136.5 173t45.5 262t-45.5 260t-136.5 171t-228 63t-228 -59t-136.5 -173t-45.5 -262t45.5 -260
t136.5 -171t228 -63zM216 1050h-202l166 390h202z" />
    <glyph glyph-name="Upsilontonos" unicode="&#x38e;" horiz-adv-x="1728" 
d="M960 0v586l-492 854h318l312 -542l312 542h318l-492 -854v-586h-276zM234 1050h-202l166 390h202z" />
    <glyph glyph-name="Omegatonos" unicode="&#x38f;" horiz-adv-x="1766" 
d="M330 0v254h186q-97 90 -151.5 222t-54.5 288q0 149 50 277.5t142.5 224.5t220.5 150t285 54t285 -54t220.5 -150t142.5 -224.5t50 -277.5q0 -156 -54 -288t-152 -222h186v-254h-512v254q61 31 117 96.5t91.5 160.5t35.5 215q0 102 -28 190.5t-81.5 155.5t-129.5 104.5
t-171 37.5t-171 -37.5t-129.5 -104t-81.5 -155t-28 -189.5q0 -94 22 -171t59 -136.5t81.5 -101.5t89.5 -65v-254h-520zM234 1050h-202l166 390h202z" />
    <glyph glyph-name="iotadieresistonos" unicode="&#x390;" horiz-adv-x="1042" 
d="M627 -8q-57 11 -115 37.5t-105 98.5q-45 71 -46.5 146t-1.5 184v622h272v-606q0 -66 1.5 -114t20.5 -80q20 -31 51.5 -45t62.5 -17q39 -3 86 -0.5t90 8.5v-226q-42 -12 -101 -16t-117 -1.5t-98 9.5zM756 1230v240h210v-240h-210zM82 1230v240h210v-240h-210zM576 1230
h-202l166 390h202z" />
    <glyph glyph-name="Alpha" unicode="&#x391;" horiz-adv-x="1366" 
d="M40 0l440 1440h406l440 -1440h-280l-392 1270h52l-386 -1270h-280zM304 300v254h760v-254h-760z" />
    <glyph glyph-name="Beta" unicode="&#x392;" horiz-adv-x="1274" 
d="M140 0v1440h576q154 0 249 -61.5t139 -154.5t44 -188q0 -121 -54.5 -201t-149.5 -107v50q135 -28 202.5 -125t67.5 -217q0 -129 -47.5 -227t-144.5 -153.5t-244 -55.5h-638zM416 256h334q55 0 98 23.5t67.5 66t24.5 100.5q0 51 -21 91t-63.5 63.5t-105.5 23.5h-334v-368z
M416 878h296q46 0 82 16t57 49.5t21 86.5q0 66 -41 111t-119 45h-296v-308z" />
    <glyph glyph-name="Gamma" unicode="&#x393;" horiz-adv-x="1100" 
d="M140 0v1440h940v-254h-668v-1186h-272z" />
    <glyph glyph-name="uni0394" unicode="&#x394;" horiz-adv-x="1366" 
d="M230 0v254h910v-254h-910zM480 1440h406l440 -1440h-280l-366 1184l-360 -1184h-280z" />
    <glyph glyph-name="Epsilon" unicode="&#x395;" horiz-adv-x="1180" 
d="M140 0v1440h940v-254h-668v-308h548v-254h-548v-370h668v-254h-940z" />
    <glyph glyph-name="Zeta" unicode="&#x396;" horiz-adv-x="1360" 
d="M100 0v34l684 1152h-624v254h1100v-34l-680 -1150h660v-256h-1140z" />
    <glyph glyph-name="Eta" unicode="&#x397;" horiz-adv-x="1468" 
d="M140 0v1440h272v-592h644v592h272v-1440h-272v594h-644v-594h-272z" />
    <glyph glyph-name="Theta" unicode="&#x398;" horiz-adv-x="1516" 
d="M486 616v208h544v-208h-544zM758 -30q-216 0 -372.5 94t-241 263t-84.5 393t84.5 393t241 263t372.5 94t372.5 -94t241 -263t84.5 -393t-84.5 -393t-241 -263t-372.5 -94zM758 226q137 -2 228 59t136.5 173t45.5 262t-45.5 260t-136.5 171t-228 63t-228 -59t-136.5 -173
t-45.5 -262t45.5 -260t136.5 -171t228 -63z" />
    <glyph glyph-name="Iota" unicode="&#x399;" horiz-adv-x="592" 
d="M160 0v1440h272v-1440h-272z" />
    <glyph glyph-name="Kappa" unicode="&#x39a;" horiz-adv-x="1330" 
d="M140 0v1440h272v-664l548 664h332l-602 -710l640 -730h-344l-574 656v-656h-272z" />
    <glyph glyph-name="Lambda" unicode="&#x39b;" horiz-adv-x="1306" 
d="M450 1440h406l440 -1440h-280l-366 1184l-360 -1184h-280z" />
    <glyph glyph-name="Mu" unicode="&#x39c;" horiz-adv-x="1720" 
d="M140 0v1440h244l476 -956l476 956h244v-1440h-254v860l-418 -860h-96l-418 860v-860h-254z" />
    <glyph glyph-name="Nu" unicode="&#x39d;" horiz-adv-x="1458" 
d="M140 0v1440h276l626 -960v960h276v-1440h-276l-626 960v-960h-276z" />
    <glyph glyph-name="Xi" unicode="&#x39e;" horiz-adv-x="1468" 
d="M140 1186v254h1188v-254h-1188zM140 0v254h1188v-254h-1188zM240 594v254h988v-254h-988z" />
    <glyph glyph-name="Omicron" unicode="&#x39f;" horiz-adv-x="1516" 
d="M758 -30q-216 0 -372.5 94t-241 263t-84.5 393t84.5 393t241 263t372.5 94t372.5 -94t241 -263t84.5 -393t-84.5 -393t-241 -263t-372.5 -94zM758 226q137 -2 228 59t136.5 173t45.5 262t-45.5 260t-136.5 171t-228 63t-228 -59t-136.5 -173t-45.5 -262t45.5 -260
t136.5 -171t228 -63z" />
    <glyph glyph-name="Pi" unicode="&#x3a0;" horiz-adv-x="1468" 
d="M140 0v1440h1188v-1440h-272v1186h-644v-1186h-272z" />
    <glyph glyph-name="Rho" unicode="&#x3a1;" horiz-adv-x="1300" 
d="M140 0v1440h608q21 0 56.5 -1.5t63.5 -6.5q129 -20 211.5 -85t121.5 -163.5t39 -219.5t-39.5 -219.5t-122 -163.5t-210.5 -85q-28 -4 -64 -6t-56 -2h-336v-488h-272zM412 742h324q21 0 46 2t46 8q55 15 85 50.5t41.5 79t11.5 82.5t-11.5 82.5t-41.5 79t-85 50.5
q-21 6 -46 8t-46 2h-324v-444z" />
    <glyph glyph-name="Sigma" unicode="&#x3a3;" horiz-adv-x="1260" 
d="M140 0v244l468 476l-468 476v244h980v-254h-644l440 -448v-36l-440 -448h644v-254h-980z" />
    <glyph glyph-name="Tau" unicode="&#x3a4;" horiz-adv-x="1220" 
d="M474 0v1186h-454v254h1180v-254h-454v-1186h-272z" />
    <glyph glyph-name="Upsilon" unicode="&#x3a5;" horiz-adv-x="1260" 
d="M492 0v586l-492 854h318l312 -542l312 542h318l-492 -854v-586h-276z" />
    <glyph glyph-name="Phi" unicode="&#x3a6;" horiz-adv-x="1496" 
d="M612 0v210q-111 -19 -210.5 8.5t-176.5 98t-121 182t-44 261.5t44 263t121 185.5t176.5 101.5t210.5 10v120h270v-120q111 19 211 -10t177 -101.5t121.5 -185.5t44.5 -263t-44.5 -261.5t-121.5 -182t-177 -98t-211 -8.5v-210h-270zM612 458v618q-85 14 -139.5 -11
t-84 -73.5t-41 -110t-11.5 -121.5t11.5 -119t41 -105.5t84 -68.5t139.5 -9zM882 458q85 -13 139 9.5t84.5 68t42.5 103t12 113.5t-12 118t-42.5 113.5t-84.5 79t-139 13.5v-618z" />
    <glyph glyph-name="Chi" unicode="&#x3a7;" horiz-adv-x="1344" 
d="M20 0l484 728l-470 712h334l306 -480l302 480h336l-470 -712l482 -728h-334l-316 496l-318 -496h-336z" />
    <glyph glyph-name="Psi" unicode="&#x3a8;" horiz-adv-x="1532" 
d="M630 0v302q-113 5 -211.5 39t-168.5 107.5t-96 197.5q-7 35 -10.5 75.5t-3.5 68.5v650h254v-624q0 -15 1.5 -43t10.5 -63q26 -97 86 -125.5t138 -30.5v886h272v-886q83 3 146 39t82 133q6 30 7 55t1 35v624h254v-650q0 -36 -3 -70.5t-11 -69.5q-28 -125 -98 -199
t-168 -108.5t-210 -40.5v-302h-272z" />
    <glyph glyph-name="uni03A9" unicode="&#x3a9;" horiz-adv-x="1516" 
d="M80 0v254h186q-97 90 -151.5 222t-54.5 288q0 149 50 277.5t142.5 224.5t220.5 150t285 54t285 -54t220.5 -150t142.5 -224.5t50 -277.5q0 -156 -54 -288t-152 -222h186v-254h-512v254q61 31 117 96.5t91.5 160.5t35.5 215q0 102 -28 190.5t-81.5 155.5t-129.5 104.5
t-171 37.5t-171 -37.5t-129.5 -104t-81.5 -155t-28 -189.5q0 -94 22 -171t59 -136.5t81.5 -101.5t89.5 -65v-254h-520z" />
    <glyph glyph-name="Iotadieresis" unicode="&#x3aa;" horiz-adv-x="592" 
d="M388 1592v240h240v-240h-240zM-36 1592v240h240v-240h-240zM160 0v1440h272v-1440h-272z" />
    <glyph glyph-name="Upsilondieresis" unicode="&#x3ab;" horiz-adv-x="1260" 
d="M722 1592v240h240v-240h-240zM298 1592v240h240v-240h-240zM492 0v586l-492 854h318l312 -542l312 542h318l-492 -854v-586h-276z" />
    <glyph glyph-name="alphatonos" unicode="&#x3ac;" horiz-adv-x="1270" 
d="M731 1230h-202l166 390h202zM584 -30q-153 0 -266.5 75t-175.5 204t-62 291q0 165 63.5 293.5t178.5 202.5t270 74q108 0 193 -38.5t145 -107.5l-40 -50v166h240v-1080h-240v168l40 -50q-60 -69 -149 -108.5t-197 -39.5zM628 212q87 0 140.5 41t77.5 115t24 172t-24 172
t-76.5 115t-137.5 41q-82 0 -141 -39.5t-91 -113.5t-32 -177q0 -89 26.5 -163t84 -118.5t149.5 -44.5z" />
    <glyph glyph-name="epsilontonos" unicode="&#x3ad;" horiz-adv-x="1050" 
d="M588 1230h-202l166 390h202zM528 -30q-120 0 -222 40t-164 119t-62 195q0 63 19.5 116t56 93.5t86.5 66.5l-2 -86q-67 66 -95.5 133t-28.5 137q0 109 57.5 181.5t150 108.5t196.5 36q123 0 236 -46.5t204 -123.5l-150 -186q-60 42 -133 73t-145 31q-54 0 -95 -22t-41 -78
q0 -67 59 -81.5t143 -14.5h64v-212h-64q-56 0 -111.5 -1t-92 -21t-36.5 -76q0 -58 45.5 -93t126.5 -35q78 0 143.5 33t122.5 91l214 -144q-73 -109 -201.5 -171.5t-280.5 -62.5z" />
    <glyph glyph-name="etatonos" unicode="&#x3ae;" 
d="M744 1230h-202l166 390h202zM876 0v510q0 37 -4 94.5t-25 115.5t-68.5 97t-134.5 39q-35 0 -75 -11t-75 -42.5t-57.5 -92.5t-22.5 -162l-156 74q0 128 52 240t156.5 181t263.5 69q127 0 207 -43t124.5 -109t63.5 -137.5t23 -130.5t4 -86v-606h-276zM138 0v1080h242v-358
h34v-722h-276z" />
    <glyph glyph-name="iotatonos" unicode="&#x3af;" horiz-adv-x="845" 
d="M400 1230h-202l166 390h202zM429 -8q-57 11 -115 37.5t-105 98.5q-45 71 -46.5 146t-1.5 184v622h272v-606q0 -66 1.5 -114t20.5 -80q20 -31 51.5 -45t62.5 -17q39 -3 86 -0.5t90 8.5v-226q-42 -12 -101 -16t-117 -1.5t-98 9.5z" />
    <glyph glyph-name="upsilondieresistonos" unicode="&#x3b0;" horiz-adv-x="1256" 
d="M120 494v586h276v-510q0 -37 4 -94.5t25 -115.5t68.5 -97t134.5 -39t134.5 39t68.5 97t25 115.5t4 94.5v510h276v-586q0 -53 -5.5 -122t-29 -139.5t-77.5 -130.5t-149.5 -97t-246.5 -37t-246.5 37t-149.5 97t-77.5 130.5t-29 139.5t-5.5 122zM860 1230v240h210v-240h-210
zM186 1230v240h210v-240h-210zM680 1230h-202l166 390h202z" />
    <glyph glyph-name="alpha" unicode="&#x3b1;" horiz-adv-x="1270" 
d="M584 -30q-153 0 -266.5 75t-175.5 204t-62 291q0 165 63.5 293.5t178.5 202.5t270 74q108 0 193 -38.5t145 -107.5l-40 -50v166h240v-1080h-240v168l40 -50q-60 -69 -149 -108.5t-197 -39.5zM628 212q87 0 140.5 41t77.5 115t24 172t-24 172t-76.5 115t-137.5 41
q-82 0 -141 -39.5t-91 -113.5t-32 -177q0 -89 26.5 -163t84 -118.5t149.5 -44.5z" />
    <glyph glyph-name="beta" unicode="&#x3b2;" horiz-adv-x="1232" 
d="M138 -480v1560q0 23 3.5 49t12.5 59q29 99 97 161.5t156.5 91.5t180.5 29q135 0 241 -54.5t167.5 -149t61.5 -214.5q0 -72 -25 -137.5t-79 -116.5q53 -22 93.5 -58.5t68 -85t42 -107t14.5 -123.5q0 -145 -67 -246.5t-187 -154.5t-280 -53q-61 0 -118 8t-108 26v-484h-274
zM650 222q74 0 130.5 26t88 74t31.5 114q0 110 -84 159t-218 49v236q61 4 102.5 25.5t62.5 57.5t21 83q0 84 -58 127t-132 43q-40 0 -85 -17t-71 -67q-19 -39 -22.5 -82.5t-3.5 -63.5v-536q0 -15 2 -51t12 -65q23 -61 90.5 -86.5t133.5 -25.5z" />
    <glyph glyph-name="gamma" unicode="&#x3b3;" horiz-adv-x="1136" 
d="M432 -360v360l-392 1080h272l256 -748l256 748h272l-392 -1080v-360h-272z" />
    <glyph glyph-name="delta" unicode="&#x3b4;" horiz-adv-x="1254" 
d="M620 -30q-159 0 -281 61.5t-190.5 173t-68.5 261.5q0 143 65 254.5t187.5 164t293.5 17.5v102q163 0 286.5 -66t192.5 -182.5t69 -267.5q0 -152 -69.5 -269t-194 -183t-290.5 -66zM628 224q116 0 175 72t59 192q0 123 -60.5 193.5t-173.5 70.5q-115 0 -174.5 -70.5
t-59.5 -193.5q0 -127 61 -195.5t173 -68.5zM776 780q-84 22 -177 49.5t-175 70t-133 110t-51 168.5q0 55 21.5 117t78 110t160.5 61q24 3 50 3.5t80 0.5h312v-220h-250q-34 0 -60.5 -1t-49.5 -7q-30 -9 -50 -27.5t-20 -50.5q0 -40 33 -67.5t86.5 -49t117.5 -43t125 -48.5z
" />
    <glyph glyph-name="epsilon" unicode="&#x3b5;" horiz-adv-x="1050" 
d="M528 -30q-120 0 -222 40t-164 119t-62 195q0 63 19.5 116t56 93.5t86.5 66.5l-2 -86q-67 66 -95.5 133t-28.5 137q0 109 57.5 181.5t150 108.5t196.5 36q123 0 236 -46.5t204 -123.5l-150 -186q-60 42 -133 73t-145 31q-54 0 -95 -22t-41 -78q0 -67 59 -81.5t143 -14.5
h64v-212h-64q-56 0 -111.5 -1t-92 -21t-36.5 -76q0 -58 45.5 -93t126.5 -35q78 0 143.5 33t122.5 91l214 -144q-73 -109 -201.5 -171.5t-280.5 -62.5z" />
    <glyph glyph-name="zeta" unicode="&#x3b6;" horiz-adv-x="1066" 
d="M814 -240q0 92 -25 142t-66.5 70.5t-92.5 24t-104 3.5q-107 0 -190 24t-140 74t-86.5 126.5t-29.5 181.5q0 90 25.5 172t87.5 171t171 199q57 57 102.5 98.5t87.5 77.5t90 76h-504v240h926v-196q-26 -23 -42 -37.5t-37.5 -34t-61.5 -56t-112.5 -102.5t-192.5 -176
q-91 -83 -146.5 -152t-80.5 -131t-25 -123q0 -85 41 -122.5t110 -46.5t153 -9q36 0 72 -3t69 -9.5t61 -17.5q72 -28 118.5 -91.5t62 -158t-4.5 -214.5h-236z" />
    <glyph glyph-name="eta" unicode="&#x3b7;" 
d="M876 0v510q0 37 -4 94.5t-25 115.5t-68.5 97t-134.5 39q-35 0 -75 -11t-75 -42.5t-57.5 -92.5t-22.5 -162l-156 74q0 128 52 240t156.5 181t263.5 69q127 0 207 -43t124.5 -109t63.5 -137.5t23 -130.5t4 -86v-606h-276zM138 0v1080h242v-358h34v-722h-276z" />
    <glyph glyph-name="theta" unicode="&#x3b8;" horiz-adv-x="1392" 
d="M310 616v208h788v-208h-788zM696 -30q-143 0 -257 51t-194 148.5t-122.5 236.5t-42.5 314q0 176 42.5 314.5t122.5 236t194 148.5t257 51t257 -51t194 -148.5t122.5 -236t42.5 -314.5q0 -175 -42.5 -314t-122.5 -236.5t-194 -148.5t-257 -51zM696 226q84 0 146 35.5
t102 101t60 156.5t20 201t-20 201t-60 156.5t-102 101t-146 35.5t-146 -35.5t-102 -101t-60 -156.5t-20 -201t20 -201t60 -156.5t102 -101t146 -35.5z" />
    <glyph glyph-name="iota" unicode="&#x3b9;" horiz-adv-x="845" 
d="M429 -8q-57 11 -115 37.5t-105 98.5q-45 71 -46.5 146t-1.5 184v622h272v-606q0 -66 1.5 -114t20.5 -80q20 -31 51.5 -45t62.5 -17q39 -3 86 -0.5t90 8.5v-226q-42 -12 -101 -16t-117 -1.5t-98 9.5z" />
    <glyph glyph-name="kappa" unicode="&#x3ba;" horiz-adv-x="1104" 
d="M138 0l2 1080h276v-520l366 520h336l-390 -540l416 -540h-354l-374 520v-520h-278z" />
    <glyph glyph-name="lambda" unicode="&#x3bb;" horiz-adv-x="1176" 
d="M80 0l392 1080q-23 56 -52 89.5t-72.5 48t-109.5 14.5h-52v238h78q17 0 71 -2t105 -14q89 -21 144.5 -76.5t92 -133t67.5 -164.5l392 -1080h-272l-256 748l-256 -748h-272z" />
    <glyph glyph-name="uni03BC" unicode="&#x3bc;" horiz-adv-x="1290" 
d="M138 -480v1560h276v-510q0 -37 4 -94.5t25 -115.5t68.5 -97t134.5 -39q35 0 75 11t75 42.5t57.5 93t22.5 161.5v548h274v-1080h-240v112q-58 -66 -145.5 -105t-204.5 -39q-54 0 -99 8.5t-83 23.5v-480h-240z" />
    <glyph glyph-name="nu" unicode="&#x3bd;" horiz-adv-x="1136" 
d="M432 0l-392 1080h272l256 -748l256 748h272l-392 -1080h-272z" />
    <glyph glyph-name="xi" unicode="&#x3be;" horiz-adv-x="1160" 
d="M908 -240q9 114 -25 164.5t-102 63t-161 12.5q-185 0 -304.5 53.5t-177.5 150.5t-58 228q0 110 43 200t145 132q-58 59 -93 135.5t-35 172.5q0 108 43.5 184t116.5 123t163 69t183 22q159 0 283 -53.5t205 -136.5l-186 -200q-42 57 -118 96.5t-184 39.5q-94 0 -156 -36
t-62 -116q0 -85 70 -125t176 -45q17 -1 43.5 -1.5t52 -0.5h38.5v-256h-19.5t-41 -1t-99.5 -3q-88 -3 -150.5 -20t-96 -55.5t-33.5 -104.5q0 -79 46 -121t123.5 -58.5t172.5 -18.5q49 -1 90.5 -3t78 -8t71.5 -19q76 -28 130.5 -89.5t73.5 -155.5t-10 -219h-236z" />
    <glyph glyph-name="omicron" unicode="&#x3bf;" horiz-adv-x="1254" 
d="M626 -30q-163 0 -286 73t-191.5 201.5t-68.5 295.5q0 169 70 297.5t193 200.5t283 72q163 0 286.5 -73t192.5 -201.5t69 -295.5q0 -168 -69.5 -296.5t-193 -201t-285.5 -72.5zM626 224q131 0 195.5 88.5t64.5 227.5q0 144 -65.5 230t-194.5 86q-89 0 -146 -40t-84.5 -111
t-27.5 -165q0 -145 65.5 -230.5t192.5 -85.5z" />
    <glyph glyph-name="pi" unicode="&#x3c0;" horiz-adv-x="1364" 
d="M240 0v840h-160v240h1204v-240h-160v-840h-272v840h-340v-840h-272z" />
    <glyph glyph-name="rho" unicode="&#x3c1;" horiz-adv-x="1296" 
d="M138 -480v940q0 54 2 109.5t12 110.5q24 128 94 225t180.5 151t255.5 54q170 0 289.5 -73.5t182 -201.5t62.5 -291q0 -165 -62.5 -295t-175.5 -204.5t-266 -74.5q-90 0 -168 26.5t-132 71.5v-548h-274zM676 212q90 0 149.5 41.5t89 116t29.5 172.5q0 100 -30 173
t-89.5 113t-148.5 40q-92 0 -151 -41t-87 -115t-28 -172q0 -101 30 -174.5t89 -113.5t147 -40z" />
    <glyph glyph-name="uni03C2" unicode="&#x3c2;" horiz-adv-x="1166" 
d="M854 -240q0 117 -40.5 166t-110 60t-157.5 14q-74 2 -142.5 22t-127.5 59t-103 99.5t-68.5 145t-24.5 194.5q0 179 66.5 311.5t187.5 205.5t286 73q191 0 320.5 -96.5t165.5 -263.5l-272 -72q-25 84 -82.5 131t-143.5 47q-81 0 -129 -41.5t-69.5 -114.5t-21.5 -166
q0 -64 11.5 -115.5t40.5 -87.5t81.5 -55.5t134.5 -21.5q24 0 68.5 -1t95 -7t92.5 -22q76 -29 122 -94.5t60.5 -160t-4.5 -209.5h-236z" />
    <glyph glyph-name="sigma" unicode="&#x3c3;" horiz-adv-x="1294" 
d="M626 -30q-163 0 -286 74.5t-191.5 200.5t-68.5 281q0 132 49 242t138.5 186.5t210.5 107.5q56 14 131 16t177 2h448v-240h-260l58 72q60 -69 101 -169.5t41 -216.5q0 -156 -69.5 -282t-193 -200t-285.5 -74zM626 224q131 0 195.5 87.5t64.5 214.5q0 126 -65.5 213
t-194.5 87q-89 0 -146 -41.5t-84.5 -109.5t-27.5 -149q0 -133 65.5 -217.5t192.5 -84.5z" />
    <glyph glyph-name="tau" unicode="&#x3c4;" horiz-adv-x="1130" 
d="M672 -8q-57 11 -115 37.5t-105 98.5q-45 71 -46.5 146t-1.5 184v382h-354v240h980v-240h-354v-366q0 -66 1.5 -114t20.5 -80q20 -31 51.5 -45t62.5 -17q39 -3 86 -0.5t90 8.5v-226q-42 -12 -101 -16t-117 -1.5t-98 9.5z" />
    <glyph glyph-name="upsilon" unicode="&#x3c5;" horiz-adv-x="1256" 
d="M120 494v586h276v-510q0 -37 4 -94.5t25 -115.5t68.5 -97t134.5 -39t134.5 39t68.5 97t25 115.5t4 94.5v510h276v-586q0 -53 -5.5 -122t-29 -139.5t-77.5 -130.5t-149.5 -97t-246.5 -37t-246.5 37t-149.5 97t-77.5 130.5t-29 139.5t-5.5 122z" />
    <glyph glyph-name="phi" unicode="&#x3c6;" horiz-adv-x="1528" 
d="M644 -450v432q-158 -25 -286 33.5t-203 191.5t-75 333t75 333.5t203 191.5t286 33v322h240v-322q158 25 286 -33t203 -191.5t75 -333.5t-75 -333t-203 -191.5t-286 -33.5v-432h-240zM644 224v630q-81 14 -136.5 -4.5t-88.5 -62t-48 -107t-15 -140.5t16 -140.5
t50.5 -107.5t89.5 -62.5t132 -5.5zM884 224q77 -13 132 5t89.5 61t50.5 107t16 143q0 80 -15 143.5t-48 106.5t-88.5 60.5t-136.5 3.5v-630z" />
    <glyph glyph-name="chi" unicode="&#x3c7;" horiz-adv-x="1126" 
d="M20 0l386 546l-378 534h320l216 -320l212 320h320l-378 -534l388 -546h-320l-222 332l-224 -332h-320z" />
    <glyph glyph-name="psi" unicode="&#x3c8;" horiz-adv-x="1492" 
d="M616 -450v392q-115 5 -215 38.5t-170.5 107t-96.5 198.5q-7 35 -10.5 75.5t-3.5 68.5v650h254v-624q0 -15 1.5 -43t10.5 -63q17 -66 51 -99t80 -44.5t99 -12.5v886h260v-886q56 1 104.5 16.5t82.5 52.5t47 103q6 30 7 55t1 35v624h254v-650q0 -36 -3 -70.5t-11 -69.5
q-28 -126 -99 -200.5t-170.5 -108.5t-212.5 -39v-392h-260z" />
    <glyph glyph-name="omega" unicode="&#x3c9;" horiz-adv-x="1610" 
d="M512 -30q-140 0 -236.5 75.5t-146 200t-49.5 272.5q0 185 75.5 343.5t210.5 248.5l188 -214q-97 -84 -141.5 -166t-44.5 -202q0 -86 21.5 -154.5t62 -108t98.5 -39.5q66 0 93 50.5t32 136t5 191.5v80h250v-80q0 -109 5.5 -194.5t32.5 -134.5t92 -49q60 0 100.5 41
t61 109.5t20.5 151.5q0 125 -45.5 206t-140.5 162l188 214q138 -91 212 -251.5t74 -342.5q0 -150 -50.5 -274t-147 -198t-234.5 -74q-97 0 -184 48t-128 174h38q-40 -126 -127 -174t-185 -48z" />
    <glyph glyph-name="iotadieresis" unicode="&#x3ca;" horiz-adv-x="845" 
d="M388 1232v240h240v-240h-240zM-36 1232v240h240v-240h-240zM429 -8q-57 11 -115 37.5t-105 98.5q-45 71 -46.5 146t-1.5 184v622h272v-606q0 -66 1.5 -114t20.5 -80q20 -31 51.5 -45t62.5 -17q39 -3 86 -0.5t90 8.5v-226q-42 -12 -101 -16t-117 -1.5t-98 9.5z" />
    <glyph glyph-name="upsilondieresis" unicode="&#x3cb;" horiz-adv-x="1256" 
d="M720 1232v240h240v-240h-240zM296 1232v240h240v-240h-240zM120 494v586h276v-510q0 -37 4 -94.5t25 -115.5t68.5 -97t134.5 -39t134.5 39t68.5 97t25 115.5t4 94.5v510h276v-586q0 -53 -5.5 -122t-29 -139.5t-77.5 -130.5t-149.5 -97t-246.5 -37t-246.5 37t-149.5 97
t-77.5 130.5t-29 139.5t-5.5 122z" />
    <glyph glyph-name="omicrontonos" unicode="&#x3cc;" horiz-adv-x="1254" 
d="M731 1230h-202l166 390h202zM626 -30q-163 0 -286 73t-191.5 201.5t-68.5 295.5q0 169 70 297.5t193 200.5t283 72q163 0 286.5 -73t192.5 -201.5t69 -295.5q0 -168 -69.5 -296.5t-193 -201t-285.5 -72.5zM626 224q131 0 195.5 88.5t64.5 227.5q0 144 -65.5 230
t-194.5 86q-89 0 -146 -40t-84.5 -111t-27.5 -165q0 -145 65.5 -230.5t192.5 -85.5z" />
    <glyph glyph-name="upsilontonos" unicode="&#x3cd;" horiz-adv-x="1256" 
d="M699 1230h-202l166 390h202zM120 494v586h276v-510q0 -37 4 -94.5t25 -115.5t68.5 -97t134.5 -39t134.5 39t68.5 97t25 115.5t4 94.5v510h276v-586q0 -53 -5.5 -122t-29 -139.5t-77.5 -130.5t-149.5 -97t-246.5 -37t-246.5 37t-149.5 97t-77.5 130.5t-29 139.5t-5.5 122z
" />
    <glyph glyph-name="omegatonos" unicode="&#x3ce;" horiz-adv-x="1610" 
d="M844 1230h-202l166 390h202zM512 -30q-140 0 -236.5 75.5t-146 200t-49.5 272.5q0 185 75.5 343.5t210.5 248.5l188 -214q-97 -84 -141.5 -166t-44.5 -202q0 -86 21.5 -154.5t62 -108t98.5 -39.5q66 0 93 50.5t32 136t5 191.5v80h250v-80q0 -109 5.5 -194.5t32.5 -134.5
t92 -49q60 0 100.5 41t61 109.5t20.5 151.5q0 125 -45.5 206t-140.5 162l188 214q138 -91 212 -251.5t74 -342.5q0 -150 -50.5 -274t-147 -198t-234.5 -74q-97 0 -184 48t-128 174h38q-40 -126 -127 -174t-185 -48z" />
    <glyph glyph-name="uni0400" unicode="&#x400;" horiz-adv-x="1180" 
d="M526 1590l-166 390h202l166 -390h-202zM140 0v1440h940v-254h-668v-308h548v-254h-548v-370h668v-254h-940z" />
    <glyph glyph-name="uni0401" unicode="&#x401;" horiz-adv-x="1180" 
d="M700 1592v240h240v-240h-240zM276 1592v240h240v-240h-240zM140 0v1440h940v-254h-668v-308h548v-254h-548v-370h668v-254h-940z" />
    <glyph glyph-name="uni0402" unicode="&#x402;" horiz-adv-x="1372" 
d="M160 0v1200h-160v240h720v-240h-320v-212q69 60 163 91t211 31q249 0 383.5 -141t134.5 -411q0 -171 -57.5 -296.5t-178 -193.5t-310.5 -68v276q106 0 164.5 39t82 102.5t23.5 138.5q0 109 -37.5 173t-101.5 91.5t-143 27.5q-117 0 -187 -47t-93 -119q-10 -33 -15 -78
t-5 -86v-518h-274z" />
    <glyph glyph-name="uni0403" unicode="&#x403;" horiz-adv-x="1100" 
d="M624 1590h-202l166 390h202zM140 0v1440h940v-254h-668v-1186h-272z" />
    <glyph glyph-name="uni0404" unicode="&#x404;" horiz-adv-x="1450" 
d="M740 -30q-212 0 -364.5 100t-234 270t-81.5 380q0 223 83 392t235.5 263.5t361.5 94.5q258 0 427 -129t223 -365l-272 -38q-36 125 -130.5 200t-229.5 76q-114 2 -198 -44t-136 -129t-70 -193h506v-254h-504q9 -61 30 -118.5t58 -105.5q53 -72 137 -107t177 -37
q132 -1 225.5 74t130.5 190l266 -66q-46 -153 -134.5 -254t-216 -150.5t-289.5 -49.5z" />
    <glyph glyph-name="uni0405" unicode="&#x405;" horiz-adv-x="1342" 
d="M684 -30q-160 0 -288.5 56.5t-211 162t-104.5 251.5l284 42q30 -124 124 -191t214 -67q67 0 130 21t103.5 62t40.5 101q0 22 -6.5 42.5t-21.5 38.5t-42.5 34t-69.5 29l-374 110q-42 12 -97.5 34t-107.5 63t-86.5 108.5t-34.5 170.5q0 145 73 241t195 143t270 46
q149 -2 266 -51t196 -142.5t114 -228.5l-294 -50q-16 70 -59 118t-102.5 73t-124.5 27q-64 2 -120.5 -17.5t-92 -56.5t-35.5 -88q0 -47 29 -76.5t73 -47.5t90 -30l250 -68q56 -15 124 -39.5t130.5 -68t103 -114.5t40.5 -180q0 -116 -48.5 -202.5t-130.5 -143t-185.5 -84.5
t-213.5 -28z" />
    <glyph glyph-name="uni0406" unicode="&#x406;" horiz-adv-x="592" 
d="M160 0v1440h272v-1440h-272z" />
    <glyph glyph-name="uni0407" unicode="&#x407;" horiz-adv-x="592" 
d="M388 1592v240h240v-240h-240zM-36 1592v240h240v-240h-240zM160 0v1440h272v-1440h-272z" />
    <glyph glyph-name="uni0408" unicode="&#x408;" horiz-adv-x="1026" 
d="M442 -30q-172 0 -283.5 88t-158.5 238l268 64q9 -55 58 -95.5t104 -40.5q38 0 81.5 21t62.5 67q12 29 14 71t2 97v960h276v-960q0 -69 -0.5 -120t-10 -95.5t-37.5 -92.5q-61 -106 -159 -154t-217 -48z" />
    <glyph glyph-name="uni0409" unicode="&#x409;" horiz-adv-x="2206" 
d="M1026 0v1440h272v-488h336q20 0 56 -1.5t64 -6.5q128 -20 210.5 -85t122 -163.5t39.5 -219.5t-39 -219.5t-121.5 -163.5t-211.5 -85q-28 -4 -63.5 -6t-56.5 -2h-608zM1298 254h324q21 0 46 2t46 8q55 15 85 50.5t41.5 79t11.5 82.5t-11.5 82.5t-41.5 79t-85 50.5
q-21 6 -46 8t-46 2h-324v-444zM20 0v226q46 -3 78 8t54.5 40.5t39.5 82t32 131.5q24 125 40.5 263.5t27.5 271.5t17 242.5t9 174.5h982v-1440h-272v1186h-460q-4 -56 -10.5 -146t-17.5 -199t-27 -226t-39 -227q-21 -107 -51 -189.5t-79.5 -135t-127.5 -69.5t-196 6z" />
    <glyph glyph-name="uni040A" unicode="&#x40a;" horiz-adv-x="2234" 
d="M140 0v1440h272v-490h768v-254h-768v-696h-272zM1054 0v1440h272v-488h336q20 0 56 -1.5t64 -6.5q128 -20 210.5 -85t122 -163.5t39.5 -219.5t-39 -219.5t-121.5 -163.5t-211.5 -85q-28 -4 -63.5 -6t-56.5 -2h-608zM1326 254h324q21 0 46 2t46 8q55 15 85 50.5t41.5 79
t11.5 82.5t-11.5 82.5t-41.5 79t-85 50.5q-21 6 -46 8t-46 2h-324v-444z" />
    <glyph glyph-name="uni040B" unicode="&#x40b;" horiz-adv-x="1372" 
d="M0 1200v240h720v-240h-720zM414 1440v-628l-38 62q56 50 157.5 76t210.5 26q180 0 287 -71.5t154 -198t47 -292.5v-414h-276v332q0 65 -5 133t-29.5 126t-81 93.5t-160.5 35.5q-111 0 -187.5 -38t-108.5 -82l30 122v-722h-274v1440h274z" />
    <glyph glyph-name="uni040C" unicode="&#x40c;" horiz-adv-x="1330" 
d="M140 0v1440h272v-664l548 664h332l-602 -710l640 -730h-344l-574 656v-656h-272zM772 1590h-202l166 390h202z" />
    <glyph glyph-name="uni040D" unicode="&#x40d;" horiz-adv-x="1458" 
d="M140 0v1440h276v-960l626 960h276v-1440h-276v960l-626 -960h-276zM650 1590l-166 390h202l166 -390h-202z" />
    <glyph glyph-name="uni040E" unicode="&#x40e;" horiz-adv-x="1282" 
d="M672 1560q-88 0 -160 43t-115 115t-43 160h210q0 -45 31.5 -76.5t76.5 -31.5t76.5 31.5t31.5 76.5h210q0 -88 -43 -160t-115 -115t-160 -43zM312 0l200 404l-492 1036h308l326 -750l338 750h290l-680 -1440h-290z" />
    <glyph glyph-name="uni040F" unicode="&#x40f;" horiz-adv-x="1560" 
d="M644 -240v240h-504v1440h272v-1186h736v1186h272v-1440h-504v-240h-272z" />
    <glyph glyph-name="uni0410" unicode="&#x410;" horiz-adv-x="1366" 
d="M40 0l440 1440h406l440 -1440h-280l-392 1270h52l-386 -1270h-280zM304 300v254h760v-254h-760z" />
    <glyph glyph-name="uni0411" unicode="&#x411;" horiz-adv-x="1300" 
d="M140 0v1440h988v-254h-716v-274h336q20 0 56 -1.5t64 -4.5q124 -13 206.5 -76.5t124 -161t41.5 -212.5t-41 -212.5t-123.5 -161t-207.5 -76.5q-28 -3 -63.5 -4.5t-56.5 -1.5h-608zM412 254h324q21 0 46 2t46 6q83 18 110.5 77t27.5 117q0 59 -27.5 117.5t-110.5 76.5
q-21 5 -46 6.5t-46 1.5h-324v-404z" />
    <glyph glyph-name="uni0412" unicode="&#x412;" horiz-adv-x="1274" 
d="M140 0v1440h576q154 0 249 -61.5t139 -154.5t44 -188q0 -121 -54.5 -201t-149.5 -107v50q135 -28 202.5 -125t67.5 -217q0 -129 -47.5 -227t-144.5 -153.5t-244 -55.5h-638zM416 256h334q55 0 98 23.5t67.5 66t24.5 100.5q0 51 -21 91t-63.5 63.5t-105.5 23.5h-334v-368z
M416 878h296q46 0 82 16t57 49.5t21 86.5q0 66 -41 111t-119 45h-296v-308z" />
    <glyph glyph-name="uni0413" unicode="&#x413;" horiz-adv-x="1100" 
d="M140 0v1440h940v-254h-668v-1186h-272z" />
    <glyph glyph-name="uni0414" unicode="&#x414;" horiz-adv-x="1514" 
d="M60 -240v494q65 0 110.5 32.5t74.5 92t46 139.5t25 174q10 120 18 236.5t16 242t18 271.5l956 -2v-1186h110v-494h-272v240h-830v-240h-272zM466 254h586v932l-436 2q-7 -99 -11.5 -182t-10.5 -168t-16 -190t-20 -172.5t-30.5 -117.5t-61.5 -104z" />
    <glyph glyph-name="uni0415" unicode="&#x415;" horiz-adv-x="1180" 
d="M140 0v1440h940v-254h-668v-308h548v-254h-548v-370h668v-254h-940z" />
    <glyph glyph-name="uni0416" unicode="&#x416;" horiz-adv-x="1848" 
d="M20 0l510 730l-472 710h322l408 -644v644h272v-644l408 644h322l-472 -710l510 -730h-334l-434 636v-636h-272v636l-434 -636h-334z" />
    <glyph glyph-name="uni0417" unicode="&#x417;" horiz-adv-x="1334" 
d="M666 -30q-153 0 -268.5 45t-194.5 115.5t-123 147.5l230 160q24 -50 68 -99t117 -81t183 -32q104 0 167.5 30t92 77t28.5 99q0 69 -40.5 106t-104.5 51.5t-135 16.5q-69 2 -99.5 3t-41 1h-19.5v256h38.5t52 0.5t43.5 1.5q105 5 175.5 46t70.5 128q0 80 -62.5 127
t-167.5 47q-99 0 -176.5 -42.5t-113.5 -93.5l-186 200q75 78 201 134t283 56q95 0 186 -24.5t164 -75t116.5 -129.5t43.5 -189q0 -93 -33 -175.5t-95 -138.5q90 -40 139 -116t49 -190q0 -143 -79.5 -246.5t-213 -159.5t-295.5 -56z" />
    <glyph glyph-name="uni0418" unicode="&#x418;" horiz-adv-x="1458" 
d="M1318 0h-276v960l-626 -960h-276v1440h276v-960l626 960h276v-1440z" />
    <glyph glyph-name="uni0419" unicode="&#x419;" horiz-adv-x="1458" 
d="M140 0v1440h276v-960l626 960h276v-1440h-276v960l-626 -960h-276zM724 1560q-88 0 -160 43t-115 115t-43 160h210q0 -45 31.5 -76.5t76.5 -31.5t76.5 31.5t31.5 76.5h210q0 -88 -43 -160t-115 -115t-160 -43z" />
    <glyph glyph-name="uni041A" unicode="&#x41a;" horiz-adv-x="1330" 
d="M140 0v1440h272v-664l548 664h332l-602 -710l640 -730h-344l-574 656v-656h-272z" />
    <glyph glyph-name="uni041B" unicode="&#x41b;" horiz-adv-x="1460" 
d="M40 0v226q46 -3 78 8t54.5 40.5t39.5 82t32 131.5q24 125 40.5 263.5t27.5 271.5t17 242.5t9 174.5h982v-1440h-272v1186h-460q-4 -56 -10.5 -146t-17.5 -199t-27 -226t-39 -227q-21 -107 -51 -189.5t-79.5 -135t-127.5 -69.5t-196 6z" />
    <glyph glyph-name="uni041C" unicode="&#x41c;" horiz-adv-x="1720" 
d="M140 0v1440h244l476 -956l476 956h244v-1440h-254v860l-418 -860h-96l-418 860v-860h-254z" />
    <glyph glyph-name="uni041D" unicode="&#x41d;" horiz-adv-x="1468" 
d="M140 0v1440h272v-592h644v592h272v-1440h-272v594h-644v-594h-272z" />
    <glyph glyph-name="uni041E" unicode="&#x41e;" horiz-adv-x="1516" 
d="M758 -30q-216 0 -372.5 94t-241 263t-84.5 393t84.5 393t241 263t372.5 94t372.5 -94t241 -263t84.5 -393t-84.5 -393t-241 -263t-372.5 -94zM758 226q137 -2 228 59t136.5 173t45.5 262t-45.5 260t-136.5 171t-228 63t-228 -59t-136.5 -173t-45.5 -262t45.5 -260
t136.5 -171t228 -63z" />
    <glyph glyph-name="uni041F" unicode="&#x41f;" horiz-adv-x="1468" 
d="M140 0v1440h1188v-1440h-272v1186h-644v-1186h-272z" />
    <glyph glyph-name="uni0420" unicode="&#x420;" horiz-adv-x="1300" 
d="M140 0v1440h608q21 0 56.5 -1.5t63.5 -6.5q129 -20 211.5 -85t121.5 -163.5t39 -219.5t-39.5 -219.5t-122 -163.5t-210.5 -85q-28 -4 -64 -6t-56 -2h-336v-488h-272zM412 742h324q21 0 46 2t46 8q55 15 85 50.5t41.5 79t11.5 82.5t-11.5 82.5t-41.5 79t-85 50.5
q-21 6 -46 8t-46 2h-324v-444z" />
    <glyph glyph-name="uni0421" unicode="&#x421;" horiz-adv-x="1492" 
d="M758 -30q-216 0 -372.5 94t-241 263t-84.5 393t84.5 393t241 263t372.5 94q248 0 416.5 -123t237.5 -333l-274 -76q-40 131 -135 203.5t-245 72.5q-137 0 -228.5 -61t-137.5 -172t-46 -261t46 -261t137.5 -172t228.5 -61q150 0 245 73t135 203l274 -76
q-69 -210 -237.5 -333t-416.5 -123z" />
    <glyph glyph-name="uni0422" unicode="&#x422;" horiz-adv-x="1220" 
d="M474 0v1186h-454v254h1180v-254h-454v-1186h-272z" />
    <glyph glyph-name="uni0423" unicode="&#x423;" horiz-adv-x="1282" 
d="M312 0l200 404l-492 1036h308l326 -750l338 750h290l-680 -1440h-290z" />
    <glyph glyph-name="uni0424" unicode="&#x424;" horiz-adv-x="1496" 
d="M612 0v210q-111 -19 -210.5 8.5t-176.5 98t-121 182t-44 261.5t44 263t121 185.5t176.5 101.5t210.5 10v120h270v-120q111 19 211 -10t177 -101.5t121.5 -185.5t44.5 -263t-44.5 -261.5t-121.5 -182t-177 -98t-211 -8.5v-210h-270zM612 458v618q-85 14 -139.5 -11
t-84 -73.5t-41 -110t-11.5 -121.5t11.5 -119t41 -105.5t84 -68.5t139.5 -9zM882 458q85 -13 139 9.5t84.5 68t42.5 103t12 113.5t-12 118t-42.5 113.5t-84.5 79t-139 13.5v-618z" />
    <glyph glyph-name="uni0425" unicode="&#x425;" horiz-adv-x="1344" 
d="M20 0l484 728l-470 712h334l306 -480l302 480h336l-470 -712l482 -728h-334l-316 496l-318 -496h-336z" />
    <glyph glyph-name="uni0426" unicode="&#x426;" horiz-adv-x="1522" 
d="M1230 -240v240h-1090v1440h272v-1200h656v1160h272v-1160h162v-480h-272z" />
    <glyph glyph-name="uni0427" unicode="&#x427;" horiz-adv-x="1372" 
d="M958 0v628l38 -62q-55 -49 -156.5 -75.5t-211.5 -26.5q-180 0 -287 71.5t-154 198t-47 292.5v414h276v-332q0 -65 5 -133t29.5 -126t81.5 -93.5t160 -35.5q111 0 188 38.5t108 81.5l-30 -122v722h274v-1440h-274z" />
    <glyph glyph-name="uni0428" unicode="&#x428;" horiz-adv-x="1920" 
d="M140 0v1440h272v-1186h412v1186h272v-1186h412v1186h272v-1440h-1640z" />
    <glyph glyph-name="uni0429" unicode="&#x429;" horiz-adv-x="1962" 
d="M1670 -240v240h-140v240h412v-480h-272zM140 0v1440h272v-1186h412v1186h272v-1186h412v1186h272v-1440h-1640z" />
    <glyph glyph-name="uni042A" unicode="&#x42a;" horiz-adv-x="1344" 
d="M200 0v1230h-200v210h472v-488h336q20 0 56 -1.5t64 -6.5q128 -20 210.5 -85t122 -163.5t39.5 -219.5t-39 -219.5t-121.5 -163.5t-211.5 -85q-28 -4 -63.5 -6t-56.5 -2h-608zM472 254h324q21 0 46 2t46 8q55 15 85 50.5t41.5 79t11.5 82.5t-11.5 82.5t-41.5 79t-85 50.5
q-21 6 -46 8t-46 2h-324v-444z" />
    <glyph glyph-name="uni042B" unicode="&#x42b;" horiz-adv-x="1794" 
d="M138 0v1440h272v-488h336q20 0 56 -1.5t64 -6.5q128 -20 210.5 -85t122 -163.5t39.5 -219.5t-39 -219.5t-121.5 -163.5t-211.5 -85q-28 -4 -63.5 -6t-56.5 -2h-608zM410 254h324q21 0 46 2t46 8q55 15 85 50.5t41.5 79t11.5 82.5t-11.5 82.5t-41.5 79t-85 50.5
q-21 6 -46 8t-46 2h-324v-444zM1382 0v1440h272v-1440h-272z" />
    <glyph glyph-name="uni042C" unicode="&#x42c;" horiz-adv-x="1318" 
d="M138 0v1440h272v-488h336q20 0 56 -1.5t64 -6.5q128 -20 210.5 -85t122 -163.5t39.5 -219.5t-39 -219.5t-121.5 -163.5t-211.5 -85q-28 -4 -63.5 -6t-56.5 -2h-608zM410 254h324q21 0 46 2t46 8q55 15 85 50.5t41.5 79t11.5 82.5t-11.5 82.5t-41.5 79t-85 50.5
q-21 6 -46 8t-46 2h-324v-444z" />
    <glyph glyph-name="uni042D" unicode="&#x42d;" horiz-adv-x="1450" 
d="M710 -30q-162 0 -289.5 49.5t-216 150.5t-134.5 254l266 66q38 -115 131 -190t225 -74q93 2 177.5 37t136.5 107q38 48 58.5 105.5t29.5 118.5h-504v254h506q-18 110 -70 193t-136 129t-198 44q-135 -1 -229.5 -76t-130.5 -200l-272 38q54 236 223 365t427 129
q209 0 361.5 -94.5t235.5 -263.5t83 -392q0 -210 -81.5 -380t-234 -270t-364.5 -100z" />
    <glyph glyph-name="uni042E" unicode="&#x42e;" horiz-adv-x="1912" 
d="M140 0v1440h272v-584h240v-272h-240v-584h-272zM1236 -30q-143 0 -257 51t-194 148.5t-122.5 236.5t-42.5 314q0 176 42.5 314.5t122.5 236t194 148.5t257 51t257 -51t194 -148.5t122.5 -236t42.5 -314.5q0 -175 -42.5 -314t-122.5 -236.5t-194 -148.5t-257 -51z
M1236 226q84 0 146 35.5t102 101t60 156.5t20 201t-20 201t-60 156.5t-102 101t-146 35.5t-146 -35.5t-102 -101t-60 -156.5t-20 -201t20 -201t60 -156.5t102 -101t146 -35.5z" />
    <glyph glyph-name="uni042F" unicode="&#x42f;" horiz-adv-x="1340" 
d="M1200 0h-272v488h-336l-120 8q-192 30 -282 158.5t-90 309.5q0 121 39.5 219.5t121.5 163.5t211 85q29 5 64 6.5t56 1.5h608v-1440zM388 0h-308l312 640l280 -54zM928 742v444h-324q-21 0 -46 -2t-46 -8q-55 -15 -85 -50.5t-41.5 -79t-11.5 -82.5t11.5 -82.5t41.5 -79
t85 -50.5q21 -6 46 -8t46 -2h324z" />
    <glyph glyph-name="uni0430" unicode="&#x430;" horiz-adv-x="1166" 
d="M440 -30q-116 0 -196.5 44.5t-122 119t-41.5 164.5q0 75 23 137t74.5 109.5t138.5 79.5q60 22 143 39t188 32.5t231 34.5l-98 -54q0 96 -46 141t-154 45q-60 0 -125 -29t-91 -103l-246 78q41 134 154 218t308 84q143 0 254 -44t168 -152q32 -60 38 -120t6 -134v-660h-238
v222l34 -46q-79 -109 -170.5 -157.5t-231.5 -48.5zM498 184q75 0 126.5 26.5t82 60.5t41.5 57q21 44 24.5 102.5t3.5 97.5l80 -20q-121 -20 -196 -33.5t-121 -24.5t-81 -24q-40 -16 -64.5 -34.5t-36 -40.5t-11.5 -49q0 -37 18.5 -63.5t52.5 -40.5t81 -14z" />
    <glyph glyph-name="uni0431" unicode="&#x431;" horiz-adv-x="1207" 
d="M595 -32q-156 2 -264 69.5t-169.5 187t-76.5 277.5q-8 85 -3.5 191.5t22.5 209.5t51 177q32 69 82.5 126.5t107.5 97.5q67 47 144 72.5t162 39.5t176.5 25t185.5 29l24 -240q-57 -15 -130 -22t-150 -14.5t-147 -23.5t-121 -48q-69 -43 -105.5 -119.5t-42.5 -154.5
q62 90 151.5 124t176.5 34q143 0 245.5 -68.5t157.5 -184t55 -255.5q0 -159 -68.5 -279t-188.5 -186.5t-275 -64.5zM607 222q116 0 175 72t59 192q0 123 -60.5 193.5t-173.5 70.5q-115 0 -174.5 -70.5t-59.5 -193.5q0 -127 61 -195.5t173 -68.5z" />
    <glyph glyph-name="uni0432" unicode="&#x432;" horiz-adv-x="1134" 
d="M138 0v1080h506q60 0 105 -6.5t75 -15.5q74 -22 135 -86t61 -186q0 -72 -23 -116.5t-61 -73.5q-18 -13 -36 -22t-36 -14q42 -6 76 -22q54 -24 94 -75.5t40 -152.5q0 -108 -52.5 -184t-157.5 -106q-36 -10 -84.5 -15t-101.5 -5h-540zM414 206h244q21 0 43.5 4.5t40.5 11.5
q29 12 41.5 41t12.5 59q0 42 -18.5 66t-41.5 34q-19 9 -41.5 10.5t-36.5 1.5h-244v-228zM414 644h166q32 0 60.5 3.5t47.5 12.5q26 12 39 38.5t13 59.5q0 35 -14.5 63.5t-47.5 38.5q-22 8 -55.5 9t-42.5 1h-166v-226z" />
    <glyph glyph-name="uni0433" unicode="&#x433;" horiz-adv-x="970" 
d="M140 0v1080h780v-254h-508v-826h-272z" />
    <glyph glyph-name="uni0434" unicode="&#x434;" horiz-adv-x="1290" 
d="M60 -240v450q86 0 122.5 60t57.5 214q12 89 20.5 187t14.5 201t11 208h834v-870h110v-450h-256v240h-658v-240h-256zM408 210h440v660h-326q-3 -55 -6.5 -110t-8 -109t-8.5 -104.5t-9 -96.5q-9 -88 -25 -143t-57 -97z" />
    <glyph glyph-name="uni0435" unicode="&#x435;" horiz-adv-x="1216" 
d="M642 -30q-166 0 -292.5 71.5t-198 197t-71.5 287.5q0 177 70 308t193 203.5t283 72.5q170 0 289 -80t176 -225t40 -341h-269v100q0 165 -52.5 237.5t-171.5 72.5q-139 0 -204.5 -84.5t-65.5 -249.5q0 -151 65.5 -233.5t192.5 -82.5q80 0 137 35t87 101l272 -78
q-61 -148 -192.5 -230t-287.5 -82zM284 464v202h716v-202h-716z" />
    <glyph glyph-name="uni0436" unicode="&#x436;" horiz-adv-x="1576" 
d="M20 0l376 540l-350 540h296l326 -520v520h240v-520l326 520h296l-350 -540l376 -540h-314l-334 520v-520h-240v520l-334 -520h-314z" />
    <glyph glyph-name="uni0437" unicode="&#x437;" horiz-adv-x="1050" 
d="M522 -30q-151 0 -279.5 62.5t-202.5 171.5l214 144q57 -58 122.5 -91t143.5 -33q81 0 126.5 35t45.5 93q0 56 -36.5 76t-92 21t-111.5 1h-64v212h64q84 0 143 14.5t59 81.5q0 56 -41 78t-95 22q-72 0 -145 -31t-133 -73l-150 186q92 77 204.5 123.5t235.5 46.5
q104 0 196.5 -36t150 -108.5t57.5 -181.5q0 -70 -28 -137t-96 -133l-2 86q50 -26 86.5 -66.5t56 -93.5t19.5 -116q0 -116 -62 -195t-164 -119t-222 -40z" />
    <glyph glyph-name="uni0438" unicode="&#x438;" horiz-adv-x="1242" 
d="M1102 1080v-1080h-260v660l-488 -660h-216v1080h260v-638l490 638h214z" />
    <glyph glyph-name="uni0439" unicode="&#x439;" horiz-adv-x="1242" 
d="M656 1200q-88 0 -160 43t-115 115t-43 160h210q0 -45 31.5 -76.5t76.5 -31.5t76.5 31.5t31.5 76.5h210q0 -88 -43 -160t-115 -115t-160 -43zM1102 1080v-1080h-260v660l-488 -660h-216v1080h260v-638l490 638h214z" />
    <glyph glyph-name="uni043A" unicode="&#x43a;" horiz-adv-x="1104" 
d="M138 0l2 1080h276v-520l366 520h336l-390 -540l416 -540h-354l-374 520v-520h-278z" />
    <glyph glyph-name="uni043B" unicode="&#x43b;" horiz-adv-x="1230" 
d="M40 0v226q59 -11 91 1.5t48.5 50t28.5 102.5q16 86 28.5 201t21.5 243.5t16 255.5h816v-1080h-272v826h-306q-4 -52 -10.5 -124t-14 -149.5t-16.5 -148t-19 -120.5q-24 -127 -71 -200t-129 -93.5t-212 9.5z" />
    <glyph glyph-name="uni043C" unicode="&#x43c;" horiz-adv-x="1470" 
d="M138 0v1080h220l376 -700l376 700h220v-1080h-260v538l-288 -538h-96l-288 538v-538h-260z" />
    <glyph glyph-name="uni043D" unicode="&#x43d;" horiz-adv-x="1266" 
d="M138 0v1080h272v-412h444v412h272v-1080h-272v414h-444v-414h-272z" />
    <glyph glyph-name="uni043E" unicode="&#x43e;" horiz-adv-x="1254" 
d="M626 -30q-163 0 -286 73t-191.5 201.5t-68.5 295.5q0 169 70 297.5t193 200.5t283 72q163 0 286.5 -73t192.5 -201.5t69 -295.5q0 -168 -69.5 -296.5t-193 -201t-285.5 -72.5zM626 224q131 0 195.5 88.5t64.5 227.5q0 144 -65.5 230t-194.5 86q-89 0 -146 -40t-84.5 -111
t-27.5 -165q0 -145 65.5 -230.5t192.5 -85.5z" />
    <glyph glyph-name="uni043F" unicode="&#x43f;" horiz-adv-x="1242" 
d="M138 0v1080h964v-1080h-272v826h-420v-826h-272z" />
    <glyph glyph-name="uni0440" unicode="&#x440;" horiz-adv-x="1248" 
d="M670 -30q-161 0 -269 75t-162.5 204t-54.5 291t54 291t159 204t259 75q155 0 270 -74t178.5 -202.5t63.5 -293.5q0 -162 -62.5 -291t-174.5 -204t-261 -75zM138 -480v1560h240v-740h34v-820h-274zM626 212q88 0 144 44t83 118.5t27 165.5q0 90 -28 164.5t-86.5 119
t-149.5 44.5q-85 0 -137.5 -41t-76.5 -115t-24 -172t24 -172t78.5 -115t145.5 -41z" />
    <glyph glyph-name="uni0441" unicode="&#x441;" horiz-adv-x="1166" 
d="M616 -30q-168 0 -288 75t-184 204t-64 291q0 164 66.5 293t187.5 203t286 74q191 0 320.5 -96.5t165.5 -263.5l-272 -72q-24 84 -83.5 131t-134.5 47q-86 0 -141 -41.5t-81 -113t-26 -161.5q0 -141 62.5 -228.5t185.5 -87.5q92 0 140 42t72 120l278 -58
q-46 -172 -174 -265t-316 -93z" />
    <glyph glyph-name="uni0442" unicode="&#x442;" horiz-adv-x="1080" 
d="M404 0v840h-354v240h980v-240h-354v-840h-272z" />
    <glyph glyph-name="uni0443" unicode="&#x443;" horiz-adv-x="1140" 
d="M278 -480l208 572l4 -168l-470 1156h282l316 -818h-64l314 818h272l-610 -1560h-252z" />
    <glyph glyph-name="uni0444" unicode="&#x444;" horiz-adv-x="1528" 
d="M644 -450v432q-158 -25 -286 33.5t-203 191.5t-75 333t75 333.5t203 191.5t286 33v322h240v-322q158 25 286 -33t203 -191.5t75 -333.5t-75 -333t-203 -191.5t-286 -33.5v-432h-240zM644 224v630q-81 14 -136.5 -4.5t-88.5 -62t-48 -107t-15 -140.5t16 -140.5
t50.5 -107.5t89.5 -62.5t132 -5.5zM884 224q77 -13 132 5t89.5 61t50.5 107t16 143q0 80 -15 143.5t-48 106.5t-88.5 60.5t-136.5 3.5v-630z" />
    <glyph glyph-name="uni0445" unicode="&#x445;" horiz-adv-x="1126" 
d="M20 0l386 546l-378 534h320l216 -320l212 320h320l-378 -534l388 -546h-320l-222 332l-224 -332h-320z" />
    <glyph glyph-name="uni0446" unicode="&#x446;" horiz-adv-x="1328" 
d="M1036 -240v240h-898v1080h272v-826h420v826h272v-840h206v-480h-272z" />
    <glyph glyph-name="uni0447" unicode="&#x447;" horiz-adv-x="1172" 
d="M758 0v350q-57 -28 -125.5 -43t-142.5 -15q-168 0 -266.5 76t-127.5 220q-8 41 -11.5 85t-4 80.5t-0.5 56.5v270h276v-270q0 -19 2 -61.5t12 -84.5q18 -70 61.5 -101t124.5 -31q69 0 118.5 18.5t83.5 45.5v484h274v-1080h-274z" />
    <glyph glyph-name="uni0448" unicode="&#x448;" horiz-adv-x="1602" 
d="M138 0v1080h260v-840h272v840h260v-840h272v840h260v-1080h-1324z" />
    <glyph glyph-name="uni0449" unicode="&#x449;" horiz-adv-x="1570" 
d="M1278 -240v240h-1140v1080h260v-840h272v840h260v-840h272v840h260v-840h88v-480h-272z" />
    <glyph glyph-name="uni044A" unicode="&#x44a;" horiz-adv-x="1222" 
d="M200 0v870h-160v210h432v-344h174q45 0 105 -2t99 -10q95 -21 160 -67t98.5 -118.5t33.5 -172.5q0 -144 -74.5 -231.5t-215.5 -120.5q-39 -9 -100 -11.5t-106 -2.5h-446zM472 210h204q18 0 40 2t44 8q42 12 74 53t32 93q0 57 -33 97.5t-77 52.5q-21 6 -42 8t-38 2h-204
v-316z" />
    <glyph glyph-name="uni044B" unicode="&#x44b;" horiz-adv-x="1524" 
d="M138 0v1080h272v-344h98q45 0 105 -2t99 -10q95 -21 160 -67t98.5 -118.5t33.5 -172.5q0 -144 -74.5 -231.5t-215.5 -120.5q-39 -9 -100 -11.5t-106 -2.5h-370zM410 210h128q18 0 40 2t44 8q42 12 74 53t32 93q0 57 -33 97.5t-77 52.5q-21 6 -42 8t-38 2h-128v-316z
M1112 0v1080h272v-1080h-272z" />
    <glyph glyph-name="uni044C" unicode="&#x44c;" horiz-adv-x="1160" 
d="M138 0v1080h272v-344h174q45 0 105 -2t99 -10q95 -21 160 -67t98.5 -118.5t33.5 -172.5q0 -144 -74.5 -231.5t-215.5 -120.5q-39 -9 -100 -11.5t-106 -2.5h-446zM410 210h204q18 0 40 2t44 8q42 12 74 53t32 93q0 57 -33 97.5t-77 52.5q-21 6 -42 8t-38 2h-204v-316z" />
    <glyph glyph-name="uni044D" unicode="&#x44d;" horiz-adv-x="1168" 
d="M552 -30q-187 0 -315 93t-175 265l278 58q24 -78 72.5 -120t139.5 -42q99 0 159 57.5t79 154.5h-318v210h318q-18 89 -75 149.5t-155 60.5q-81 0 -140.5 -45.5t-85.5 -132.5l-272 72q36 167 166 263.5t320 96.5q165 0 286.5 -74t187.5 -203.5t66 -294.5
q0 -161 -64 -289.5t-184 -203.5t-288 -75z" />
    <glyph glyph-name="uni044E" unicode="&#x44e;" horiz-adv-x="1742" 
d="M1114 -30q-124 0 -227 50.5t-173 147.5t-94 236h-210v-404h-272v1080h272v-404h210q24 141 94.5 237.5t175 146.5t230.5 50q160 0 282 -73.5t191 -202t69 -292.5q0 -169 -70 -298t-193.5 -201.5t-284.5 -72.5zM1112 224q132 0 197 88.5t65 227.5q0 146 -65.5 231
t-196.5 85q-132 0 -194 -87t-62 -227q0 -147 65 -232.5t191 -85.5z" />
    <glyph glyph-name="uni044F" unicode="&#x44f;" horiz-adv-x="1188" 
d="M776 0v344h-174q-34 0 -92.5 1.5t-109.5 10.5q-129 23 -211.5 112t-82.5 242q0 149 79 240t211 116q54 11 111.5 12.5t94.5 1.5h446v-1080h-272zM80 0l244 400h280l-240 -400h-284zM572 554h204v316h-204q-18 0 -39.5 -2t-44.5 -8q-28 -8 -52 -29.5t-39 -52t-15 -66.5
q0 -57 34 -96.5t76 -51.5q21 -6 42.5 -8t37.5 -2z" />
    <glyph glyph-name="uni0450" unicode="&#x450;" horiz-adv-x="1216" 
d="M523 1230l-166 390h202l166 -390h-202zM642 -30q-166 0 -292.5 71.5t-198 197t-71.5 287.5q0 177 70 308t193 203.5t283 72.5q170 0 289 -80t176 -225t40 -341h-269v100q0 165 -52.5 237.5t-171.5 72.5q-139 0 -204.5 -84.5t-65.5 -249.5q0 -151 65.5 -233.5t192.5 -82.5
q80 0 137 35t87 101l272 -78q-61 -148 -192.5 -230t-287.5 -82zM284 464v202h716v-202h-716z" />
    <glyph glyph-name="uni0451" unicode="&#x451;" horiz-adv-x="1216" 
d="M718 1232v240h240v-240h-240zM294 1232v240h240v-240h-240zM642 -30q-166 0 -292.5 71.5t-198 197t-71.5 287.5q0 177 70 308t193 203.5t283 72.5q170 0 289 -80t176 -225t40 -341h-269v100q0 165 -52.5 237.5t-171.5 72.5q-139 0 -204.5 -84.5t-65.5 -249.5
q0 -151 65.5 -233.5t192.5 -82.5q80 0 137 35t87 101l272 -78q-61 -148 -192.5 -230t-287.5 -82zM284 464v202h716v-202h-716z" />
    <glyph glyph-name="uni0452" unicode="&#x452;" 
d="M942 -468q-70 -16 -139.5 -8t-110.5 18v190q23 -1 54.5 -2.5t61 8t49 39.5t19.5 91v642q0 37 -4 94.5t-25 115.5t-68.5 97t-134.5 39q-35 0 -75 -11t-75 -42.5t-57.5 -92.5t-22.5 -162v-548h-274v1160h-104v208h104v72h240v-72h200v-208h-200v-192q59 66 146 105t204 39
q127 0 207 -43t124.5 -109t63.5 -137.5t23 -130.5t4 -86v-782q0 -118 -53 -193t-157 -99z" />
    <glyph glyph-name="uni0453" unicode="&#x453;" horiz-adv-x="970" 
d="M584 1230h-202l166 390h202zM140 0v1080h780v-254h-508v-826h-272z" />
    <glyph glyph-name="uni0454" unicode="&#x454;" horiz-adv-x="1168" 
d="M616 -30q-168 0 -288 75t-184 203.5t-64 289.5q0 165 66.5 294.5t187.5 203.5t286 74q191 0 320.5 -96.5t165.5 -263.5l-272 -72q-25 87 -85 132.5t-141 45.5q-97 0 -154.5 -60.5t-75.5 -149.5h318v-210h-318q20 -97 79.5 -154.5t158.5 -57.5q92 0 140 42t72 120l278 -58
q-46 -172 -174 -265t-316 -93z" />
    <glyph glyph-name="uni0455" unicode="&#x455;" horiz-adv-x="1094" 
d="M562 -30q-204 0 -329.5 92.5t-152.5 261.5l278 42q17 -76 75.5 -119t148.5 -43q74 0 114 28.5t40 79.5q0 32 -16 51.5t-71.5 38.5t-172.5 50q-132 34 -211 76t-114 100.5t-35 141.5q0 104 53 180.5t149.5 118t227.5 41.5q127 0 225 -39t158.5 -111t74.5 -170l-278 -50
q-7 60 -52 95t-122 41q-75 5 -120.5 -20t-45.5 -72q0 -28 19.5 -47t81 -39t187.5 -52q123 -32 197.5 -74.5t108.5 -102t34 -143.5q0 -166 -120 -261t-332 -95z" />
    <glyph glyph-name="uni0456" unicode="&#x456;" horiz-adv-x="592" 
d="M160 1230v240h272v-240h-272zM160 0v1080h272v-1080h-272z" />
    <glyph glyph-name="uni0457" unicode="&#x457;" horiz-adv-x="592" 
d="M388 1232v240h240v-240h-240zM-36 1232v240h240v-240h-240zM160 0v1080h272v-1080h-272z" />
    <glyph glyph-name="uni0458" unicode="&#x458;" horiz-adv-x="602" 
d="M-20 -480v254h48q93 0 127.5 42t34.5 120v1144h272v-1276q0 -129 -80.5 -206.5t-217.5 -77.5h-184zM190 1230v240h272v-240h-272z" />
    <glyph glyph-name="uni0459" unicode="&#x459;" horiz-adv-x="1724" 
d="M40 0v226q59 -11 91 1.5t48.5 50t28.5 102.5q16 86 28.5 201t21.5 243.5t16 255.5h776v-344h98q60 0 109 -1.5t95 -10.5q87 -17 153 -62.5t102.5 -118.5t36.5 -173q0 -148 -79 -239t-211 -117q-54 -10 -111 -12t-95 -2h-370v826h-266q-4 -52 -10.5 -124t-14 -149.5
t-16.5 -148t-19 -120.5q-24 -127 -71 -200t-129 -93.5t-212 9.5zM1050 210h128q18 0 40 2t44 8q28 8 52 29.5t39 52t15 66.5q0 57 -34 96.5t-76 51.5q-21 6 -42 8t-38 2h-128v-316z" />
    <glyph glyph-name="uni045A" unicode="&#x45a;" horiz-adv-x="1690" 
d="M138 0v1080h272v-344h334v344h272v-344h98q60 0 109 -1.5t95 -10.5q87 -17 153 -62.5t102.5 -118.5t36.5 -173q0 -148 -79 -239t-211 -117q-54 -10 -111 -12t-95 -2h-370v526h-334v-526h-272zM1016 210h128q18 0 40 2t44 8q28 8 52 29.5t39 52t15 66.5q0 57 -34 96.5
t-76 51.5q-21 6 -42 8t-38 2h-128v-316z" />
    <glyph glyph-name="uni045B" unicode="&#x45b;" 
d="M36 1160v208h544v-208h-544zM876 0v510q0 37 -4 94.5t-25 115.5t-68.5 97t-134.5 39q-35 0 -75 -11t-75 -42.5t-57.5 -92.5t-22.5 -162l-156 74q0 128 52 240t156.5 181t263.5 69q127 0 207 -43t124.5 -109t63.5 -137.5t23 -130.5t4 -86v-606h-276zM138 0v1440h242v-740
h34v-700h-276z" />
    <glyph glyph-name="uni045C" unicode="&#x45c;" horiz-adv-x="1104" 
d="M624 1230h-202l166 390h202zM138 0l2 1080h276v-520l366 520h336l-390 -540l416 -540h-354l-374 520v-520h-278z" />
    <glyph glyph-name="uni045D" unicode="&#x45d;" horiz-adv-x="1242" 
d="M610 1230l-166 390h202l166 -390h-202zM1102 1080v-1080h-260v660l-488 -660h-216v1080h260v-638l490 638h214z" />
    <glyph glyph-name="uni045E" unicode="&#x45e;" horiz-adv-x="1140" 
d="M586 1200q-88 0 -160 43t-115 115t-43 160h210q0 -45 31.5 -76.5t76.5 -31.5t76.5 31.5t31.5 76.5h210q0 -88 -43 -160t-115 -115t-160 -43zM278 -480l208 572l4 -168l-470 1156h282l316 -818h-64l314 818h272l-610 -1560h-252z" />
    <glyph glyph-name="uni045F" unicode="&#x45f;" horiz-adv-x="1242" 
d="M496 -240v240h-358v1080h272v-826h420v826h272v-1080h-334v-240h-272z" />
    <glyph glyph-name="uni0490" unicode="&#x490;" horiz-adv-x="1120" 
d="M140 0v1440h688v240h272v-494h-688v-1186h-272z" />
    <glyph glyph-name="uni0491" unicode="&#x491;" horiz-adv-x="970" 
d="M140 0v1080h508v240h272v-494h-508v-826h-272z" />
    <glyph glyph-name="Ustraitcy" unicode="&#x4ae;" horiz-adv-x="1260" 
d="M492 0v586l-492 854h318l312 -542l312 542h318l-492 -854v-586h-276z" />
    <glyph glyph-name="ustraitcy" unicode="&#x4af;" horiz-adv-x="1136" 
d="M432 -360v360l-392 1080h272l256 -748l256 748h272l-392 -1080v-360h-272z" />
    <glyph glyph-name="uni04BA" unicode="&#x4ba;" horiz-adv-x="1372" 
d="M414 1440v-628l-38 62q56 50 157.5 76t210.5 26q180 0 287 -71.5t154 -198t47 -292.5v-414h-276v332q0 65 -5 133t-29.5 126t-81 93.5t-160.5 35.5q-111 0 -187.5 -38t-108.5 -82l30 122v-722h-274v1440h274z" />
    <glyph glyph-name="uni04BB" unicode="&#x4bb;" horiz-adv-x="1172" 
d="M414 1080v-350q57 29 126 43.5t142 14.5q168 0 267 -76t127 -220q8 -41 11.5 -84.5t4 -80.5t0.5 -57v-270h-276v270q0 20 -1.5 62t-12.5 84q-18 71 -61.5 101.5t-124.5 30.5q-69 0 -118 -18.5t-84 -45.5v-484h-274v1080h274z" />
    <glyph glyph-name="uni04E8" unicode="&#x4e8;" horiz-adv-x="1556" 
d="M290 584v272h960v-272h-960zM758 -30q-216 0 -372.5 94t-241 263t-84.5 393t84.5 393t241 263t372.5 94t372.5 -94t241 -263t84.5 -393t-84.5 -393t-241 -263t-372.5 -94zM758 226q137 -2 228 59t136.5 173t45.5 262t-45.5 260t-136.5 171t-228 63t-228 -59t-136.5 -173
t-45.5 -262t45.5 -260t136.5 -171t228 -63z" />
    <glyph glyph-name="uni04E9" unicode="&#x4e9;" horiz-adv-x="1254" 
d="M202 436v210h852v-210h-852zM626 -30q-163 0 -286 73t-191.5 201.5t-68.5 295.5q0 169 70 297.5t193 200.5t283 72q163 0 286.5 -73t192.5 -201.5t69 -295.5q0 -168 -69.5 -296.5t-193 -201t-285.5 -72.5zM626 224q131 0 195.5 88.5t64.5 227.5q0 144 -65.5 230
t-194.5 86q-89 0 -146 -40t-84.5 -111t-27.5 -165q0 -145 65.5 -230.5t192.5 -85.5z" />
    <glyph glyph-name="Wgrave" unicode="&#x1e80;" horiz-adv-x="1978" 
d="M875 1590l-166 390h202l166 -390h-202zM442 0l-422 1440h286l270 -990l270 988l286 2l270 -990l270 990h286l-422 -1440h-268l-279 972l-279 -972h-268z" />
    <glyph glyph-name="wgrave" unicode="&#x1e81;" horiz-adv-x="1628" 
d="M700 1230l-166 390h202l166 -390h-202zM370 0l-330 1082l266 -2l196 -644l199 644h226l199 -644l196 644h266l-330 -1080h-208l-236 704l-236 -704h-208z" />
    <glyph glyph-name="Wacute" unicode="&#x1e82;" horiz-adv-x="1978" 
d="M1103 1590h-202l166 390h202zM442 0l-422 1440h286l270 -990l270 988l286 2l270 -990l270 990h286l-422 -1440h-268l-279 972l-279 -972h-268z" />
    <glyph glyph-name="wacute" unicode="&#x1e83;" horiz-adv-x="1628" 
d="M928 1230h-202l166 390h202zM370 0l-330 1082l266 -2l196 -644l199 644h226l199 -644l196 644h266l-330 -1080h-208l-236 704l-236 -704h-208z" />
    <glyph glyph-name="Wdieresis" unicode="&#x1e84;" horiz-adv-x="1978" 
d="M1082 1592v240h240v-240h-240zM658 1592v240h240v-240h-240zM442 0l-422 1440h286l270 -990l270 988l286 2l270 -990l270 990h286l-422 -1440h-268l-279 972l-279 -972h-268z" />
    <glyph glyph-name="wdieresis" unicode="&#x1e85;" horiz-adv-x="1628" 
d="M906 1232v240h240v-240h-240zM482 1232v240h240v-240h-240zM370 0l-330 1082l266 -2l196 -644l199 644h226l199 -644l196 644h266l-330 -1080h-208l-236 704l-236 -704h-208z" />
    <glyph glyph-name="uni1E9E" unicode="&#x1e9e;" horiz-adv-x="1528" 
d="M950 -30q-66 0 -123.5 8t-92.5 22v266q40 -16 85 -23t91 -7q67 0 120 20.5t84 65t30 116.5q0 87 -47 136.5t-118 69.5t-145 20l-50 168l219 347q-49 22 -99.5 29.5t-97.5 7.5q-133 0 -231.5 -60t-136.5 -183q-13 -44 -19.5 -104.5t-6.5 -122.5v-746h-274v800
q0 98 10.5 171t30.5 128q48 128 138.5 210t208.5 121.5t250 39.5q144 0 246.5 -26.5t178 -66t138.5 -78.5l-266 -454q94 -21 170 -75t120.5 -139.5t44.5 -202.5q0 -207 -118 -332.5t-340 -125.5z" />
    <glyph glyph-name="uni1EA0" unicode="&#x1ea0;" horiz-adv-x="1366" 
d="M547 -390v240h272v-240h-272zM40 0l440 1440h406l440 -1440h-280l-392 1270h52l-386 -1270h-280zM304 300v254h760v-254h-760z" />
    <glyph glyph-name="uni1EA1" unicode="&#x1ea1;" horiz-adv-x="1166" 
d="M462 -390v240h272v-240h-272zM440 -30q-116 0 -196.5 44.5t-122 119t-41.5 164.5q0 75 23 137t74.5 109.5t138.5 79.5q60 22 143 39t188 32.5t231 34.5l-98 -54q0 96 -46 141t-154 45q-60 0 -125 -29t-91 -103l-246 78q41 134 154 218t308 84q143 0 254 -44t168 -152
q32 -60 38 -120t6 -134v-660h-238v222l34 -46q-79 -109 -170.5 -157.5t-231.5 -48.5zM498 184q75 0 126.5 26.5t82 60.5t41.5 57q21 44 24.5 102.5t3.5 97.5l80 -20q-121 -20 -196 -33.5t-121 -24.5t-81 -24q-40 -16 -64.5 -34.5t-36 -40.5t-11.5 -49q0 -37 18.5 -63.5
t52.5 -40.5t81 -14z" />
    <glyph glyph-name="uni1EA2" unicode="&#x1ea2;" horiz-adv-x="1366" 
d="M528 1886l-67 133q62 53 143.5 66.5t153.5 -20t105 -122.5q27 -73 15.5 -132t-49 -102.5t-88.5 -68t-102 -28.5l-42 109q54 14 92.5 52.5t11.5 97.5q-17 38 -47.5 45.5t-64.5 -2.5t-61 -28zM40 0l440 1440h406l440 -1440h-280l-392 1270h52l-386 -1270h-280zM304 300v254
h760v-254h-760z" />
    <glyph glyph-name="uni1EA3" unicode="&#x1ea3;" horiz-adv-x="1166" 
d="M468 1534l-67 133q62 53 143.5 66.5t153.5 -20t105 -122.5q27 -73 15.5 -132t-49 -102.5t-88.5 -68t-102 -28.5l-42 109q54 14 92.5 52.5t11.5 97.5q-17 38 -47.5 45.5t-64.5 -2.5t-61 -28zM440 -30q-116 0 -196.5 44.5t-122 119t-41.5 164.5q0 75 23 137t74.5 109.5
t138.5 79.5q60 22 143 39t188 32.5t231 34.5l-98 -54q0 96 -46 141t-154 45q-60 0 -125 -29t-91 -103l-246 78q41 134 154 218t308 84q143 0 254 -44t168 -152q32 -60 38 -120t6 -134v-660h-238v222l34 -46q-79 -109 -170.5 -157.5t-231.5 -48.5zM498 184q75 0 126.5 26.5
t82 60.5t41.5 57q21 44 24.5 102.5t3.5 97.5l80 -20q-121 -20 -196 -33.5t-121 -24.5t-81 -24q-40 -16 -64.5 -34.5t-36 -40.5t-11.5 -49q0 -37 18.5 -63.5t52.5 -40.5t81 -14z" />
    <glyph glyph-name="uni1EA4" unicode="&#x1ea4;" horiz-adv-x="1366" 
d="M279 1590l288 330h224l288 -330h-250l-150 180l-150 -180h-250zM1232 1800h-202l166 390h202zM40 0l440 1440h406l440 -1440h-280l-392 1270h52l-386 -1270h-280zM304 300v254h760v-254h-760z" />
    <glyph glyph-name="uni1EA5" unicode="&#x1ea5;" horiz-adv-x="1166" 
d="M205 1230l288 330h224l288 -330h-250l-150 180l-150 -180h-250zM1158 1440h-202l166 390h202zM440 -30q-116 0 -196.5 44.5t-122 119t-41.5 164.5q0 75 23 137t74.5 109.5t138.5 79.5q60 22 143 39t188 32.5t231 34.5l-98 -54q0 96 -46 141t-154 45q-60 0 -125 -29
t-91 -103l-246 78q41 134 154 218t308 84q143 0 254 -44t168 -152q32 -60 38 -120t6 -134v-660h-238v222l34 -46q-79 -109 -170.5 -157.5t-231.5 -48.5zM498 184q75 0 126.5 26.5t82 60.5t41.5 57q21 44 24.5 102.5t3.5 97.5l80 -20q-121 -20 -196 -33.5t-121 -24.5t-81 -24
q-40 -16 -64.5 -34.5t-36 -40.5t-11.5 -49q0 -37 18.5 -63.5t52.5 -40.5t81 -14z" />
    <glyph glyph-name="uni1EA6" unicode="&#x1ea6;" horiz-adv-x="1366" 
d="M279 1590l288 330h224l288 -330h-250l-150 180l-150 -180h-250zM1049 1800l-166 390h202l166 -390h-202zM40 0l440 1440h406l440 -1440h-280l-392 1270h52l-386 -1270h-280zM304 300v254h760v-254h-760z" />
    <glyph glyph-name="uni1EA7" unicode="&#x1ea7;" horiz-adv-x="1166" 
d="M196 1230l288 330h224l288 -330h-250l-150 180l-150 -180h-250zM966 1440l-166 390h202l166 -390h-202zM440 -30q-116 0 -196.5 44.5t-122 119t-41.5 164.5q0 75 23 137t74.5 109.5t138.5 79.5q60 22 143 39t188 32.5t231 34.5l-98 -54q0 96 -46 141t-154 45
q-60 0 -125 -29t-91 -103l-246 78q41 134 154 218t308 84q143 0 254 -44t168 -152q32 -60 38 -120t6 -134v-660h-238v222l34 -46q-79 -109 -170.5 -157.5t-231.5 -48.5zM498 184q75 0 126.5 26.5t82 60.5t41.5 57q21 44 24.5 102.5t3.5 97.5l80 -20q-121 -20 -196 -33.5
t-121 -24.5t-81 -24q-40 -16 -64.5 -34.5t-36 -40.5t-11.5 -49q0 -37 18.5 -63.5t52.5 -40.5t81 -14z" />
    <glyph glyph-name="uni1EA8" unicode="&#x1ea8;" horiz-adv-x="1366" 
d="M280 1590l288 330h224l288 -330h-250l-150 180l-150 -180h-250zM1032 1886l-67 133q62 53 143.5 66.5t153.5 -20t105 -122.5q27 -73 15.5 -132t-49 -102.5t-88.5 -68t-102 -28.5l-42 109q54 14 92.5 52.5t11.5 97.5q-17 38 -47.5 45.5t-64.5 -2.5t-61 -28zM40 0l440 1440
h406l440 -1440h-280l-392 1270h52l-386 -1270h-280zM304 300v254h760v-254h-760z" />
    <glyph glyph-name="uni1EA9" unicode="&#x1ea9;" horiz-adv-x="1166" 
d="M192 1230l288 330h224l288 -330h-250l-150 180l-150 -180h-250zM944 1526l-67 133q62 53 143.5 66.5t153.5 -20t105 -122.5q27 -73 15.5 -132t-49 -102.5t-88.5 -68t-102 -28.5l-42 109q54 14 92.5 52.5t11.5 97.5q-17 38 -47.5 45.5t-64.5 -2.5t-61 -28zM440 -30
q-116 0 -196.5 44.5t-122 119t-41.5 164.5q0 75 23 137t74.5 109.5t138.5 79.5q60 22 143 39t188 32.5t231 34.5l-98 -54q0 96 -46 141t-154 45q-60 0 -125 -29t-91 -103l-246 78q41 134 154 218t308 84q143 0 254 -44t168 -152q32 -60 38 -120t6 -134v-660h-238v222l34 -46
q-79 -109 -170.5 -157.5t-231.5 -48.5zM498 184q75 0 126.5 26.5t82 60.5t41.5 57q21 44 24.5 102.5t3.5 97.5l80 -20q-121 -20 -196 -33.5t-121 -24.5t-81 -24q-40 -16 -64.5 -34.5t-36 -40.5t-11.5 -49q0 -37 18.5 -63.5t52.5 -40.5t81 -14z" />
    <glyph glyph-name="uni1EAA" unicode="&#x1eaa;" horiz-adv-x="1366" 
d="M279 1590l288 330h224l288 -330h-250l-150 180l-150 -180h-250zM863 1970q-49 0 -93.5 22.5t-85 51.5t-75.5 51.5t-64 22.5q-30 0 -41.5 -33.5t1.5 -84.5h-168q-31 131 12.5 221.5t169.5 90.5q49 0 93.5 -22.5t85 -51.5t75.5 -51.5t64 -22.5q30 0 42 33.5t-2 84.5h168
q32 -130 -12 -221t-170 -91zM40 0l440 1440h406l440 -1440h-280l-392 1270h52l-386 -1270h-280zM304 300v254h760v-254h-760z" />
    <glyph glyph-name="uni1EAB" unicode="&#x1eab;" horiz-adv-x="1166" 
d="M180 1230l288 330h224l288 -330h-250l-150 180l-150 -180h-250zM764 1610q-49 0 -93.5 22.5t-85 51.5t-75.5 51.5t-64 22.5q-30 0 -41.5 -33.5t1.5 -84.5h-168q-31 131 12.5 221.5t169.5 90.5q49 0 93.5 -22.5t85 -51.5t75.5 -51.5t64 -22.5q30 0 42 33.5t-2 84.5h168
q32 -130 -12 -221t-170 -91zM440 -30q-116 0 -196.5 44.5t-122 119t-41.5 164.5q0 75 23 137t74.5 109.5t138.5 79.5q60 22 143 39t188 32.5t231 34.5l-98 -54q0 96 -46 141t-154 45q-60 0 -125 -29t-91 -103l-246 78q41 134 154 218t308 84q143 0 254 -44t168 -152
q32 -60 38 -120t6 -134v-660h-238v222l34 -46q-79 -109 -170.5 -157.5t-231.5 -48.5zM498 184q75 0 126.5 26.5t82 60.5t41.5 57q21 44 24.5 102.5t3.5 97.5l80 -20q-121 -20 -196 -33.5t-121 -24.5t-81 -24q-40 -16 -64.5 -34.5t-36 -40.5t-11.5 -49q0 -37 18.5 -63.5
t52.5 -40.5t81 -14z" />
    <glyph glyph-name="uni1EAC" unicode="&#x1eac;" horiz-adv-x="1366" 
d="M547 -390v240h272v-240h-272zM280 1590l288 330h224l288 -330h-250l-150 180l-150 -180h-250zM40 0l440 1440h406l440 -1440h-280l-392 1270h52l-386 -1270h-280zM304 300v254h760v-254h-760z" />
    <glyph glyph-name="uni1EAD" unicode="&#x1ead;" horiz-adv-x="1166" 
d="M462 -390v240h272v-240h-272zM196 1230l288 330h224l288 -330h-250l-150 180l-150 -180h-250zM440 -30q-116 0 -196.5 44.5t-122 119t-41.5 164.5q0 75 23 137t74.5 109.5t138.5 79.5q60 22 143 39t188 32.5t231 34.5l-98 -54q0 96 -46 141t-154 45q-60 0 -125 -29
t-91 -103l-246 78q41 134 154 218t308 84q143 0 254 -44t168 -152q32 -60 38 -120t6 -134v-660h-238v222l34 -46q-79 -109 -170.5 -157.5t-231.5 -48.5zM498 184q75 0 126.5 26.5t82 60.5t41.5 57q21 44 24.5 102.5t3.5 97.5l80 -20q-121 -20 -196 -33.5t-121 -24.5t-81 -24
q-40 -16 -64.5 -34.5t-36 -40.5t-11.5 -49q0 -37 18.5 -63.5t52.5 -40.5t81 -14z" />
    <glyph glyph-name="uni1EAE" unicode="&#x1eae;" horiz-adv-x="1366" 
d="M683 1560q-88 0 -160 43t-115 115t-43 160h210q0 -45 31.5 -76.5t76.5 -31.5t76.5 31.5t31.5 76.5h210q0 -88 -43 -160t-115 -115t-160 -43zM790 1980h-202l166 390h202zM40 0l440 1440h406l440 -1440h-280l-392 1270h52l-386 -1270h-280zM304 300v254h760v-254h-760z
" />
    <glyph glyph-name="uni1EAF" unicode="&#x1eaf;" horiz-adv-x="1166" 
d="M589 1200q-88 0 -160 43t-115 115t-43 160h210q0 -45 31.5 -76.5t76.5 -31.5t76.5 31.5t31.5 76.5h210q0 -88 -43 -160t-115 -115t-160 -43zM696 1620h-202l166 390h202zM440 -30q-116 0 -196.5 44.5t-122 119t-41.5 164.5q0 75 23 137t74.5 109.5t138.5 79.5
q60 22 143 39t188 32.5t231 34.5l-98 -54q0 96 -46 141t-154 45q-60 0 -125 -29t-91 -103l-246 78q41 134 154 218t308 84q143 0 254 -44t168 -152q32 -60 38 -120t6 -134v-660h-238v222l34 -46q-79 -109 -170.5 -157.5t-231.5 -48.5zM498 184q75 0 126.5 26.5t82 60.5
t41.5 57q21 44 24.5 102.5t3.5 97.5l80 -20q-121 -20 -196 -33.5t-121 -24.5t-81 -24q-40 -16 -64.5 -34.5t-36 -40.5t-11.5 -49q0 -37 18.5 -63.5t52.5 -40.5t81 -14z" />
    <glyph glyph-name="uni1EB0" unicode="&#x1eb0;" horiz-adv-x="1366" 
d="M683 1560q-88 0 -160 43t-115 115t-43 160h210q0 -45 31.5 -76.5t76.5 -31.5t76.5 31.5t31.5 76.5h210q0 -88 -43 -160t-115 -115t-160 -43zM576 1980l-166 390h202l166 -390h-202zM40 0l440 1440h406l440 -1440h-280l-392 1270h52l-386 -1270h-280zM304 300v254h760
v-254h-760z" />
    <glyph glyph-name="uni1EB1" unicode="&#x1eb1;" horiz-adv-x="1166" 
d="M593 1200q-88 0 -160 43t-115 115t-43 160h210q0 -45 31.5 -76.5t76.5 -31.5t76.5 31.5t31.5 76.5h210q0 -88 -43 -160t-115 -115t-160 -43zM486 1620l-166 390h202l166 -390h-202zM440 -30q-116 0 -196.5 44.5t-122 119t-41.5 164.5q0 75 23 137t74.5 109.5t138.5 79.5
q60 22 143 39t188 32.5t231 34.5l-98 -54q0 96 -46 141t-154 45q-60 0 -125 -29t-91 -103l-246 78q41 134 154 218t308 84q143 0 254 -44t168 -152q32 -60 38 -120t6 -134v-660h-238v222l34 -46q-79 -109 -170.5 -157.5t-231.5 -48.5zM498 184q75 0 126.5 26.5t82 60.5
t41.5 57q21 44 24.5 102.5t3.5 97.5l80 -20q-121 -20 -196 -33.5t-121 -24.5t-81 -24q-40 -16 -64.5 -34.5t-36 -40.5t-11.5 -49q0 -37 18.5 -63.5t52.5 -40.5t81 -14z" />
    <glyph glyph-name="uni1EB2" unicode="&#x1eb2;" horiz-adv-x="1366" 
d="M683 1560q-88 0 -160 43t-115 115t-43 160h210q0 -45 31.5 -76.5t76.5 -31.5t76.5 31.5t31.5 76.5h210q0 -88 -43 -160t-115 -115t-160 -43zM507 2246l-67 133q62 53 143.5 66.5t153.5 -20t105 -122.5q27 -73 15.5 -132t-49 -102.5t-88.5 -68t-102 -28.5l-42 109
q54 14 92.5 52.5t11.5 97.5q-17 38 -47.5 45.5t-64.5 -2.5t-61 -28zM40 0l440 1440h406l440 -1440h-280l-392 1270h52l-386 -1270h-280zM304 300v254h760v-254h-760z" />
    <glyph glyph-name="uni1EB3" unicode="&#x1eb3;" horiz-adv-x="1166" 
d="M623 1200q-88 0 -160 43t-115 115t-43 160h210q0 -45 31.5 -76.5t76.5 -31.5t76.5 31.5t31.5 76.5h210q0 -88 -43 -160t-115 -115t-160 -43zM447 1886l-67 133q62 53 143.5 66.5t153.5 -20t105 -122.5q27 -73 15.5 -132t-49 -102.5t-88.5 -68t-102 -28.5l-42 109
q54 14 92.5 52.5t11.5 97.5q-17 38 -47.5 45.5t-64.5 -2.5t-61 -28zM440 -30q-116 0 -196.5 44.5t-122 119t-41.5 164.5q0 75 23 137t74.5 109.5t138.5 79.5q60 22 143 39t188 32.5t231 34.5l-98 -54q0 96 -46 141t-154 45q-60 0 -125 -29t-91 -103l-246 78q41 134 154 218
t308 84q143 0 254 -44t168 -152q32 -60 38 -120t6 -134v-660h-238v222l34 -46q-79 -109 -170.5 -157.5t-231.5 -48.5zM498 184q75 0 126.5 26.5t82 60.5t41.5 57q21 44 24.5 102.5t3.5 97.5l80 -20q-121 -20 -196 -33.5t-121 -24.5t-81 -24q-40 -16 -64.5 -34.5t-36 -40.5
t-11.5 -49q0 -37 18.5 -63.5t52.5 -40.5t81 -14z" />
    <glyph glyph-name="uni1EB4" unicode="&#x1eb4;" horiz-adv-x="1366" 
d="M835 1950q-49 0 -93.5 22.5t-85 51.5t-75.5 51.5t-64 22.5q-30 0 -41.5 -33.5t1.5 -84.5h-168q-31 131 12.5 221.5t169.5 90.5q49 0 93.5 -22.5t85 -51.5t75.5 -51.5t64 -22.5q30 0 42 33.5t-2 84.5h168q32 -130 -12 -221t-170 -91zM659 1560q-88 0 -160 43t-115 115
t-43 160h210q0 -45 31.5 -76.5t76.5 -31.5t76.5 31.5t31.5 76.5h210q0 -88 -43 -160t-115 -115t-160 -43zM40 0l440 1440h406l440 -1440h-280l-392 1270h52l-386 -1270h-280zM304 300v254h760v-254h-760z" />
    <glyph glyph-name="uni1EB5" unicode="&#x1eb5;" horiz-adv-x="1166" 
d="M768 1590q-49 0 -93.5 22.5t-85 51.5t-75.5 51.5t-64 22.5q-30 0 -41.5 -33.5t1.5 -84.5h-168q-31 131 12.5 221.5t169.5 90.5q49 0 93.5 -22.5t85 -51.5t75.5 -51.5t64 -22.5q30 0 42 33.5t-2 84.5h168q32 -130 -12 -221t-170 -91zM592 1200q-88 0 -160 43t-115 115
t-43 160h210q0 -45 31.5 -76.5t76.5 -31.5t76.5 31.5t31.5 76.5h210q0 -88 -43 -160t-115 -115t-160 -43zM440 -30q-116 0 -196.5 44.5t-122 119t-41.5 164.5q0 75 23 137t74.5 109.5t138.5 79.5q60 22 143 39t188 32.5t231 34.5l-98 -54q0 96 -46 141t-154 45
q-60 0 -125 -29t-91 -103l-246 78q41 134 154 218t308 84q143 0 254 -44t168 -152q32 -60 38 -120t6 -134v-660h-238v222l34 -46q-79 -109 -170.5 -157.5t-231.5 -48.5zM498 184q75 0 126.5 26.5t82 60.5t41.5 57q21 44 24.5 102.5t3.5 97.5l80 -20q-121 -20 -196 -33.5
t-121 -24.5t-81 -24q-40 -16 -64.5 -34.5t-36 -40.5t-11.5 -49q0 -37 18.5 -63.5t52.5 -40.5t81 -14z" />
    <glyph glyph-name="uni1EB6" unicode="&#x1eb6;" horiz-adv-x="1366" 
d="M547 -390v240h272v-240h-272zM684 1560q-88 0 -160 43t-115 115t-43 160h210q0 -45 31.5 -76.5t76.5 -31.5t76.5 31.5t31.5 76.5h210q0 -88 -43 -160t-115 -115t-160 -43zM40 0l440 1440h406l440 -1440h-280l-392 1270h52l-386 -1270h-280zM304 300v254h760v-254h-760z
" />
    <glyph glyph-name="uni1EB7" unicode="&#x1eb7;" horiz-adv-x="1166" 
d="M462 -390v240h272v-240h-272zM592 1200q-88 0 -160 43t-115 115t-43 160h210q0 -45 31.5 -76.5t76.5 -31.5t76.5 31.5t31.5 76.5h210q0 -88 -43 -160t-115 -115t-160 -43zM440 -30q-116 0 -196.5 44.5t-122 119t-41.5 164.5q0 75 23 137t74.5 109.5t138.5 79.5
q60 22 143 39t188 32.5t231 34.5l-98 -54q0 96 -46 141t-154 45q-60 0 -125 -29t-91 -103l-246 78q41 134 154 218t308 84q143 0 254 -44t168 -152q32 -60 38 -120t6 -134v-660h-238v222l34 -46q-79 -109 -170.5 -157.5t-231.5 -48.5zM498 184q75 0 126.5 26.5t82 60.5
t41.5 57q21 44 24.5 102.5t3.5 97.5l80 -20q-121 -20 -196 -33.5t-121 -24.5t-81 -24q-40 -16 -64.5 -34.5t-36 -40.5t-11.5 -49q0 -37 18.5 -63.5t52.5 -40.5t81 -14z" />
    <glyph glyph-name="uni1EB8" unicode="&#x1eb8;" horiz-adv-x="1200" 
d="M474 -390v240h272v-240h-272zM140 0v1440h940v-254h-668v-308h548v-254h-548v-370h668v-254h-940z" />
    <glyph glyph-name="uni1EB9" unicode="&#x1eb9;" horiz-adv-x="1216" 
d="M513 -390v240h272v-240h-272zM642 -30q-166 0 -292.5 71.5t-198 197t-71.5 287.5q0 177 70 308t193 203.5t283 72.5q170 0 289 -80t176 -225t40 -341h-269v100q0 165 -52.5 237.5t-171.5 72.5q-139 0 -204.5 -84.5t-65.5 -249.5q0 -151 65.5 -233.5t192.5 -82.5
q80 0 137 35t87 101l272 -78q-61 -148 -192.5 -230t-287.5 -82zM284 464v202h716v-202h-716z" />
    <glyph glyph-name="uni1EBA" unicode="&#x1eba;" horiz-adv-x="1180" 
d="M488 1886l-67 133q62 53 143.5 66.5t153.5 -20t105 -122.5q27 -73 15.5 -132t-49 -102.5t-88.5 -68t-102 -28.5l-42 109q54 14 92.5 52.5t11.5 97.5q-17 38 -47.5 45.5t-64.5 -2.5t-61 -28zM140 0v1440h940v-254h-668v-308h548v-254h-548v-370h668v-254h-940z" />
    <glyph glyph-name="uni1EBB" unicode="&#x1ebb;" horiz-adv-x="1200" 
d="M498 1534l-67 133q62 53 143.5 66.5t153.5 -20t105 -122.5q27 -73 15.5 -132t-49 -102.5t-88.5 -68t-102 -28.5l-42 109q54 14 92.5 52.5t11.5 97.5q-17 38 -47.5 45.5t-64.5 -2.5t-61 -28zM642 -30q-166 0 -292.5 71.5t-198 197t-71.5 287.5q0 177 70 308t193 203.5
t283 72.5q170 0 289 -80t176 -225t40 -341h-269v100q0 165 -52.5 237.5t-171.5 72.5q-139 0 -204.5 -84.5t-65.5 -249.5q0 -151 65.5 -233.5t192.5 -82.5q80 0 137 35t87 101l272 -78q-61 -148 -192.5 -230t-287.5 -82zM284 464v202h716v-202h-716z" />
    <glyph glyph-name="uni1EBC" unicode="&#x1ebc;" horiz-adv-x="1180" 
d="M762 1596q-49 0 -93.5 22.5t-85 51.5t-75.5 51.5t-64 22.5q-30 0 -41.5 -33.5t1.5 -84.5h-168q-31 131 12.5 221.5t169.5 90.5q49 0 93.5 -22.5t85 -51.5t75.5 -51.5t64 -22.5q30 0 42 33.5t-2 84.5h168q32 -130 -12 -221t-170 -91zM140 0v1440h940v-254h-668v-308h548
v-254h-548v-370h668v-254h-940z" />
    <glyph glyph-name="uni1EBD" unicode="&#x1ebd;" horiz-adv-x="1216" 
d="M820 1236q-49 0 -93.5 22.5t-85 51.5t-75.5 51.5t-64 22.5q-30 0 -41.5 -33.5t1.5 -84.5h-168q-31 131 12.5 221.5t169.5 90.5q49 0 93.5 -22.5t85 -51.5t75.5 -51.5t64 -22.5q30 0 42 33.5t-2 84.5h168q32 -130 -12 -221t-170 -91zM642 -30q-166 0 -292.5 71.5t-198 197
t-71.5 287.5q0 177 70 308t193 203.5t283 72.5q170 0 289 -80t176 -225t40 -341h-269v100q0 165 -52.5 237.5t-171.5 72.5q-139 0 -204.5 -84.5t-65.5 -249.5q0 -151 65.5 -233.5t192.5 -82.5q80 0 137 35t87 101l272 -78q-61 -148 -192.5 -230t-287.5 -82zM284 464v202h716
v-202h-716z" />
    <glyph glyph-name="uni1EBE" unicode="&#x1ebe;" horiz-adv-x="1180" 
d="M215 1590l288 330h224l288 -330h-250l-150 180l-150 -180h-250zM1168 1800h-202l166 390h202zM140 0v1440h940v-254h-668v-308h548v-254h-548v-370h668v-254h-940z" />
    <glyph glyph-name="uni1EBF" unicode="&#x1ebf;" horiz-adv-x="1216" 
d="M228 1230l288 330h224l288 -330h-250l-150 180l-150 -180h-250zM1181 1440h-202l166 390h202zM642 -30q-166 0 -292.5 71.5t-198 197t-71.5 287.5q0 177 70 308t193 203.5t283 72.5q170 0 289 -80t176 -225t40 -341h-269v100q0 165 -52.5 237.5t-171.5 72.5
q-139 0 -204.5 -84.5t-65.5 -249.5q0 -151 65.5 -233.5t192.5 -82.5q80 0 137 35t87 101l272 -78q-61 -148 -192.5 -230t-287.5 -82zM284 464v202h716v-202h-716z" />
    <glyph glyph-name="uni1EC0" unicode="&#x1ec0;" horiz-adv-x="1180" 
d="M237 1590l288 330h224l288 -330h-250l-150 180l-150 -180h-250zM1007 1800l-166 390h202l166 -390h-202zM140 0v1440h940v-254h-668v-308h548v-254h-548v-370h668v-254h-940z" />
    <glyph glyph-name="uni1EC1" unicode="&#x1ec1;" horiz-adv-x="1216" 
d="M222 1230l288 330h224l288 -330h-250l-150 180l-150 -180h-250zM992 1440l-166 390h202l166 -390h-202zM642 -30q-166 0 -292.5 71.5t-198 197t-71.5 287.5q0 177 70 308t193 203.5t283 72.5q170 0 289 -80t176 -225t40 -341h-269v100q0 165 -52.5 237.5t-171.5 72.5
q-139 0 -204.5 -84.5t-65.5 -249.5q0 -151 65.5 -233.5t192.5 -82.5q80 0 137 35t87 101l272 -78q-61 -148 -192.5 -230t-287.5 -82zM284 464v202h716v-202h-716z" />
    <glyph glyph-name="uni1EC2" unicode="&#x1ec2;" horiz-adv-x="1200" 
d="M217 1590l288 330h224l288 -330h-250l-150 180l-150 -180h-250zM969 1886l-67 133q62 53 143.5 66.5t153.5 -20t105 -122.5q27 -73 15.5 -132t-49 -102.5t-88.5 -68t-102 -28.5l-42 109q54 14 92.5 52.5t11.5 97.5q-17 38 -47.5 45.5t-64.5 -2.5t-61 -28zM140 0v1440h940
v-254h-668v-308h548v-254h-548v-370h668v-254h-940z" />
    <glyph glyph-name="uni1EC3" unicode="&#x1ec3;" horiz-adv-x="1216" 
d="M223 1230l288 330h224l288 -330h-250l-150 180l-150 -180h-250zM975 1526l-67 133q62 53 143.5 66.5t153.5 -20t105 -122.5q27 -73 15.5 -132t-49 -102.5t-88.5 -68t-102 -28.5l-42 109q54 14 92.5 52.5t11.5 97.5q-17 38 -47.5 45.5t-64.5 -2.5t-61 -28zM642 -30
q-166 0 -292.5 71.5t-198 197t-71.5 287.5q0 177 70 308t193 203.5t283 72.5q170 0 289 -80t176 -225t40 -341h-269v100q0 165 -52.5 237.5t-171.5 72.5q-139 0 -204.5 -84.5t-65.5 -249.5q0 -151 65.5 -233.5t192.5 -82.5q80 0 137 35t87 101l272 -78q-61 -148 -192.5 -230
t-287.5 -82zM284 464v202h716v-202h-716z" />
    <glyph glyph-name="uni1EC4" unicode="&#x1ec4;" horiz-adv-x="1180" 
d="M206 1590l288 330h224l288 -330h-250l-150 180l-150 -180h-250zM790 1970q-49 0 -93.5 22.5t-85 51.5t-75.5 51.5t-64 22.5q-30 0 -41.5 -33.5t1.5 -84.5h-168q-31 131 12.5 221.5t169.5 90.5q49 0 93.5 -22.5t85 -51.5t75.5 -51.5t64 -22.5q30 0 42 33.5t-2 84.5h168
q32 -130 -12 -221t-170 -91zM140 0v1440h940v-254h-668v-308h548v-254h-548v-370h668v-254h-940z" />
    <glyph glyph-name="uni1EC5" unicode="&#x1ec5;" horiz-adv-x="1216" 
d="M222 1230l288 330h224l288 -330h-250l-150 180l-150 -180h-250zM806 1610q-49 0 -93.5 22.5t-85 51.5t-75.5 51.5t-64 22.5q-30 0 -41.5 -33.5t1.5 -84.5h-168q-31 131 12.5 221.5t169.5 90.5q49 0 93.5 -22.5t85 -51.5t75.5 -51.5t64 -22.5q30 0 42 33.5t-2 84.5h168
q32 -130 -12 -221t-170 -91zM642 -30q-166 0 -292.5 71.5t-198 197t-71.5 287.5q0 177 70 308t193 203.5t283 72.5q170 0 289 -80t176 -225t40 -341h-269v100q0 165 -52.5 237.5t-171.5 72.5q-139 0 -204.5 -84.5t-65.5 -249.5q0 -151 65.5 -233.5t192.5 -82.5q80 0 137 35
t87 101l272 -78q-61 -148 -192.5 -230t-287.5 -82zM284 464v202h716v-202h-716z" />
    <glyph glyph-name="uni1EC6" unicode="&#x1ec6;" horiz-adv-x="1180" 
d="M474 -390v240h272v-240h-272zM196 1590l288 330h224l288 -330h-250l-150 180l-150 -180h-250zM140 0v1440h940v-254h-668v-308h548v-254h-548v-370h668v-254h-940z" />
    <glyph glyph-name="uni1EC7" unicode="&#x1ec7;" horiz-adv-x="1216" 
d="M471 -390v240h272v-240h-272zM222 1230l288 330h224l288 -330h-250l-150 180l-150 -180h-250zM642 -30q-166 0 -292.5 71.5t-198 197t-71.5 287.5q0 177 70 308t193 203.5t283 72.5q170 0 289 -80t176 -225t40 -341h-269v100q0 165 -52.5 237.5t-171.5 72.5
q-139 0 -204.5 -84.5t-65.5 -249.5q0 -151 65.5 -233.5t192.5 -82.5q80 0 137 35t87 101l272 -78q-61 -148 -192.5 -230t-287.5 -82zM284 464v202h716v-202h-716z" />
    <glyph glyph-name="uni1EC8" unicode="&#x1ec8;" horiz-adv-x="592" 
d="M128 1886l-67 133q62 53 143.5 66.5t153.5 -20t105 -122.5q27 -73 15.5 -132t-49 -102.5t-88.5 -68t-102 -28.5l-42 109q54 14 92.5 52.5t11.5 97.5q-17 38 -47.5 45.5t-64.5 -2.5t-61 -28zM160 0v1440h272v-1440h-272z" />
    <glyph glyph-name="uni1EC9" unicode="&#x1ec9;" horiz-adv-x="592" 
d="M135 1534l-67 133q62 53 143.5 66.5t153.5 -20t105 -122.5q27 -73 15.5 -132t-49 -102.5t-88.5 -68t-102 -28.5l-42 109q54 14 92.5 52.5t11.5 97.5q-17 38 -47.5 45.5t-64.5 -2.5t-61 -28zM160 0v1080h272v-1080h-272z" />
    <glyph glyph-name="uni1ECA" unicode="&#x1eca;" horiz-adv-x="592" 
d="M160 -390v240h272v-240h-272zM160 0v1440h272v-1440h-272z" />
    <glyph glyph-name="uni1ECB" unicode="&#x1ecb;" horiz-adv-x="592" 
d="M160 -390v240h272v-240h-272zM160 1230v240h272v-240h-272zM160 0v1080h272v-1080h-272z" />
    <glyph glyph-name="uni1ECC" unicode="&#x1ecc;" horiz-adv-x="1516" 
d="M622 -390v240h272v-240h-272zM758 -30q-216 0 -372.5 94t-241 263t-84.5 393t84.5 393t241 263t372.5 94t372.5 -94t241 -263t84.5 -393t-84.5 -393t-241 -263t-372.5 -94zM758 226q137 -2 228 59t136.5 173t45.5 262t-45.5 260t-136.5 171t-228 63t-228 -59t-136.5 -173
t-45.5 -262t45.5 -260t136.5 -171t228 -63z" />
    <glyph glyph-name="uni1ECD" unicode="&#x1ecd;" horiz-adv-x="1254" 
d="M491 -390v240h272v-240h-272zM626 -30q-163 0 -286 73t-191.5 201.5t-68.5 295.5q0 169 70 297.5t193 200.5t283 72q163 0 286.5 -73t192.5 -201.5t69 -295.5q0 -168 -69.5 -296.5t-193 -201t-285.5 -72.5zM626 224q131 0 195.5 88.5t64.5 227.5q0 144 -65.5 230
t-194.5 86q-89 0 -146 -40t-84.5 -111t-27.5 -165q0 -145 65.5 -230.5t192.5 -85.5z" />
    <glyph glyph-name="uni1ECE" unicode="&#x1ece;" horiz-adv-x="1516" 
d="M655 1886l-67 133q62 53 143.5 66.5t153.5 -20t105 -122.5q27 -73 15.5 -132t-49 -102.5t-88.5 -68t-102 -28.5l-42 109q54 14 92.5 52.5t11.5 97.5q-17 38 -47.5 45.5t-64.5 -2.5t-61 -28zM758 -30q-216 0 -372.5 94t-241 263t-84.5 393t84.5 393t241 263t372.5 94
t372.5 -94t241 -263t84.5 -393t-84.5 -393t-241 -263t-372.5 -94zM758 226q137 -2 228 59t136.5 173t45.5 262t-45.5 260t-136.5 171t-228 63t-228 -59t-136.5 -173t-45.5 -262t45.5 -260t136.5 -171t228 -63z" />
    <glyph glyph-name="uni1ECF" unicode="&#x1ecf;" horiz-adv-x="1254" 
d="M498 1534l-67 133q62 53 143.5 66.5t153.5 -20t105 -122.5q27 -73 15.5 -132t-49 -102.5t-88.5 -68t-102 -28.5l-42 109q54 14 92.5 52.5t11.5 97.5q-17 38 -47.5 45.5t-64.5 -2.5t-61 -28zM626 -30q-163 0 -286 73t-191.5 201.5t-68.5 295.5q0 169 70 297.5t193 200.5
t283 72q163 0 286.5 -73t192.5 -201.5t69 -295.5q0 -168 -69.5 -296.5t-193 -201t-285.5 -72.5zM626 224q131 0 195.5 88.5t64.5 227.5q0 144 -65.5 230t-194.5 86q-89 0 -146 -40t-84.5 -111t-27.5 -165q0 -145 65.5 -230.5t192.5 -85.5z" />
    <glyph glyph-name="uni1ED0" unicode="&#x1ed0;" horiz-adv-x="1516" 
d="M375 1590l288 330h224l288 -330h-250l-150 180l-150 -180h-250zM1328 1800h-202l166 390h202zM758 -30q-216 0 -372.5 94t-241 263t-84.5 393t84.5 393t241 263t372.5 94t372.5 -94t241 -263t84.5 -393t-84.5 -393t-241 -263t-372.5 -94zM758 226q137 -2 228 59
t136.5 173t45.5 262t-45.5 260t-136.5 171t-228 63t-228 -59t-136.5 -173t-45.5 -262t45.5 -260t136.5 -171t228 -63z" />
    <glyph glyph-name="uni1ED1" unicode="&#x1ed1;" horiz-adv-x="1254" 
d="M238 1230l288 330h224l288 -330h-250l-150 180l-150 -180h-250zM1191 1440h-202l166 390h202zM626 -30q-163 0 -286 73t-191.5 201.5t-68.5 295.5q0 169 70 297.5t193 200.5t283 72q163 0 286.5 -73t192.5 -201.5t69 -295.5q0 -168 -69.5 -296.5t-193 -201t-285.5 -72.5z
M626 224q131 0 195.5 88.5t64.5 227.5q0 144 -65.5 230t-194.5 86q-89 0 -146 -40t-84.5 -111t-27.5 -165q0 -145 65.5 -230.5t192.5 -85.5z" />
    <glyph glyph-name="uni1ED2" unicode="&#x1ed2;" horiz-adv-x="1516" 
d="M354 1590l288 330h224l288 -330h-250l-150 180l-150 -180h-250zM1124 1800l-166 390h202l166 -390h-202zM758 -30q-216 0 -372.5 94t-241 263t-84.5 393t84.5 393t241 263t372.5 94t372.5 -94t241 -263t84.5 -393t-84.5 -393t-241 -263t-372.5 -94zM758 226
q137 -2 228 59t136.5 173t45.5 262t-45.5 260t-136.5 171t-228 63t-228 -59t-136.5 -173t-45.5 -262t45.5 -260t136.5 -171t228 -63z" />
    <glyph glyph-name="uni1ED3" unicode="&#x1ed3;" horiz-adv-x="1254" 
d="M238 1230l288 330h224l288 -330h-250l-150 180l-150 -180h-250zM1008 1440l-166 390h202l166 -390h-202zM626 -30q-163 0 -286 73t-191.5 201.5t-68.5 295.5q0 169 70 297.5t193 200.5t283 72q163 0 286.5 -73t192.5 -201.5t69 -295.5q0 -168 -69.5 -296.5t-193 -201
t-285.5 -72.5zM626 224q131 0 195.5 88.5t64.5 227.5q0 144 -65.5 230t-194.5 86q-89 0 -146 -40t-84.5 -111t-27.5 -165q0 -145 65.5 -230.5t192.5 -85.5z" />
    <glyph glyph-name="uni1ED4" unicode="&#x1ed4;" horiz-adv-x="1516" 
d="M353 1590l288 330h224l288 -330h-250l-150 180l-150 -180h-250zM1105 1886l-67 133q62 53 143.5 66.5t153.5 -20t105 -122.5q27 -73 15.5 -132t-49 -102.5t-88.5 -68t-102 -28.5l-42 109q54 14 92.5 52.5t11.5 97.5q-17 38 -47.5 45.5t-64.5 -2.5t-61 -28zM758 -30
q-216 0 -372.5 94t-241 263t-84.5 393t84.5 393t241 263t372.5 94t372.5 -94t241 -263t84.5 -393t-84.5 -393t-241 -263t-372.5 -94zM758 226q137 -2 228 59t136.5 173t45.5 262t-45.5 260t-136.5 171t-228 63t-228 -59t-136.5 -173t-45.5 -262t45.5 -260t136.5 -171
t228 -63z" />
    <glyph glyph-name="uni1ED5" unicode="&#x1ed5;" horiz-adv-x="1254" 
d="M223 1230l288 330h224l288 -330h-250l-150 180l-150 -180h-250zM975 1526l-67 133q62 53 143.5 66.5t153.5 -20t105 -122.5q27 -73 15.5 -132t-49 -102.5t-88.5 -68t-102 -28.5l-42 109q54 14 92.5 52.5t11.5 97.5q-17 38 -47.5 45.5t-64.5 -2.5t-61 -28zM626 -30
q-163 0 -286 73t-191.5 201.5t-68.5 295.5q0 169 70 297.5t193 200.5t283 72q163 0 286.5 -73t192.5 -201.5t69 -295.5q0 -168 -69.5 -296.5t-193 -201t-285.5 -72.5zM626 224q131 0 195.5 88.5t64.5 227.5q0 144 -65.5 230t-194.5 86q-89 0 -146 -40t-84.5 -111t-27.5 -165
q0 -145 65.5 -230.5t192.5 -85.5z" />
    <glyph glyph-name="uni1ED6" unicode="&#x1ed6;" horiz-adv-x="1516" 
d="M346 1590l288 330h224l288 -330h-250l-150 180l-150 -180h-250zM930 1970q-49 0 -93.5 22.5t-85 51.5t-75.5 51.5t-64 22.5q-30 0 -41.5 -33.5t1.5 -84.5h-168q-31 131 12.5 221.5t169.5 90.5q49 0 93.5 -22.5t85 -51.5t75.5 -51.5t64 -22.5q30 0 42 33.5t-2 84.5h168
q32 -130 -12 -221t-170 -91zM758 -30q-216 0 -372.5 94t-241 263t-84.5 393t84.5 393t241 263t372.5 94t372.5 -94t241 -263t84.5 -393t-84.5 -393t-241 -263t-372.5 -94zM758 226q137 -2 228 59t136.5 173t45.5 262t-45.5 260t-136.5 171t-228 63t-228 -59t-136.5 -173
t-45.5 -262t45.5 -260t136.5 -171t228 -63z" />
    <glyph glyph-name="uni1ED7" unicode="&#x1ed7;" horiz-adv-x="1254" 
d="M256 1230l288 330h224l288 -330h-250l-150 180l-150 -180h-250zM840 1610q-49 0 -93.5 22.5t-85 51.5t-75.5 51.5t-64 22.5q-30 0 -41.5 -33.5t1.5 -84.5h-168q-31 131 12.5 221.5t169.5 90.5q49 0 93.5 -22.5t85 -51.5t75.5 -51.5t64 -22.5q30 0 42 33.5t-2 84.5h168
q32 -130 -12 -221t-170 -91zM626 -30q-163 0 -286 73t-191.5 201.5t-68.5 295.5q0 169 70 297.5t193 200.5t283 72q163 0 286.5 -73t192.5 -201.5t69 -295.5q0 -168 -69.5 -296.5t-193 -201t-285.5 -72.5zM626 224q131 0 195.5 88.5t64.5 227.5q0 144 -65.5 230t-194.5 86
q-89 0 -146 -40t-84.5 -111t-27.5 -165q0 -145 65.5 -230.5t192.5 -85.5z" />
    <glyph glyph-name="uni1ED8" unicode="&#x1ed8;" horiz-adv-x="1516" 
d="M354 1590l288 330h224l288 -330h-250l-150 180l-150 -180h-250zM622 -390v240h272v-240h-272zM758 -30q-216 0 -372.5 94t-241 263t-84.5 393t84.5 393t241 263t372.5 94t372.5 -94t241 -263t84.5 -393t-84.5 -393t-241 -263t-372.5 -94zM758 226q137 -2 228 59
t136.5 173t45.5 262t-45.5 260t-136.5 171t-228 63t-228 -59t-136.5 -173t-45.5 -262t45.5 -260t136.5 -171t228 -63z" />
    <glyph glyph-name="uni1ED9" unicode="&#x1ed9;" horiz-adv-x="1254" 
d="M514 -390v240h272v-240h-272zM224 1230l288 330h224l288 -330h-250l-150 180l-150 -180h-250zM626 -30q-163 0 -286 73t-191.5 201.5t-68.5 295.5q0 169 70 297.5t193 200.5t283 72q163 0 286.5 -73t192.5 -201.5t69 -295.5q0 -168 -69.5 -296.5t-193 -201t-285.5 -72.5z
M626 224q131 0 195.5 88.5t64.5 227.5q0 144 -65.5 230t-194.5 86q-89 0 -146 -40t-84.5 -111t-27.5 -165q0 -145 65.5 -230.5t192.5 -85.5z" />
    <glyph glyph-name="uni1EDA" unicode="&#x1eda;" horiz-adv-x="1516" 
d="M1135 1616l202 1q15 -118 -12.5 -192.5t-96.5 -106.5q-67 -31 -151 -23t-140 41v115q44 -10 75.5 -14t58.5 8q50 23 57 71t7 100zM867 1590h-202l166 390h202zM758 -30q-216 0 -372.5 94t-241 263t-84.5 393t84.5 393t241 263t372.5 94t372.5 -94t241 -263t84.5 -393
t-84.5 -393t-241 -263t-372.5 -94zM758 226q137 -2 228 59t136.5 173t45.5 262t-45.5 260t-136.5 171t-228 63t-228 -59t-136.5 -173t-45.5 -262t45.5 -260t136.5 -171t228 -63z" />
    <glyph glyph-name="uni1EDB" unicode="&#x1edb;" horiz-adv-x="1254" 
d="M967 1259l202 1q15 -118 -12.5 -192.5t-96.5 -106.5q-67 -31 -151 -23t-140 41v115q44 -10 75.5 -14t58.5 8q50 23 57 71t7 100zM731 1230h-202l166 390h202zM626 -30q-163 0 -286 73t-191.5 201.5t-68.5 295.5q0 169 70 297.5t193 200.5t283 72q163 0 286.5 -73
t192.5 -201.5t69 -295.5q0 -168 -69.5 -296.5t-193 -201t-285.5 -72.5zM626 224q131 0 195.5 88.5t64.5 227.5q0 144 -65.5 230t-194.5 86q-89 0 -146 -40t-84.5 -111t-27.5 -165q0 -145 65.5 -230.5t192.5 -85.5z" />
    <glyph glyph-name="uni1EDC" unicode="&#x1edc;" horiz-adv-x="1516" 
d="M1135 1616l202 1q15 -118 -12.5 -192.5t-96.5 -106.5q-67 -31 -151 -23t-140 41v115q44 -10 75.5 -14t58.5 8q50 23 57 71t7 100zM629 1590l-166 390h202l166 -390h-202zM758 -30q-216 0 -372.5 94t-241 263t-84.5 393t84.5 393t241 263t372.5 94t372.5 -94t241 -263
t84.5 -393t-84.5 -393t-241 -263t-372.5 -94zM758 226q137 -2 228 59t136.5 173t45.5 262t-45.5 260t-136.5 171t-228 63t-228 -59t-136.5 -173t-45.5 -262t45.5 -260t136.5 -171t228 -63z" />
    <glyph glyph-name="uni1EDD" unicode="&#x1edd;" horiz-adv-x="1254" 
d="M967 1259l202 1q15 -118 -12.5 -192.5t-96.5 -106.5q-67 -31 -151 -23t-140 41v115q44 -10 75.5 -14t58.5 8q50 23 57 71t7 100zM513 1230l-166 390h202l166 -390h-202zM626 -30q-163 0 -286 73t-191.5 201.5t-68.5 295.5q0 169 70 297.5t193 200.5t283 72
q163 0 286.5 -73t192.5 -201.5t69 -295.5q0 -168 -69.5 -296.5t-193 -201t-285.5 -72.5zM626 224q131 0 195.5 88.5t64.5 227.5q0 144 -65.5 230t-194.5 86q-89 0 -146 -40t-84.5 -111t-27.5 -165q0 -145 65.5 -230.5t192.5 -85.5z" />
    <glyph glyph-name="uni1EDE" unicode="&#x1ede;" horiz-adv-x="1516" 
d="M1135 1616l202 1q15 -118 -12.5 -192.5t-96.5 -106.5q-67 -31 -151 -23t-140 41v115q44 -10 75.5 -14t58.5 8q50 23 57 71t7 100zM655 1886l-67 133q62 53 143.5 66.5t153.5 -20t105 -122.5q27 -73 15.5 -132t-49 -102.5t-88.5 -68t-102 -28.5l-42 109q54 14 92.5 52.5
t11.5 97.5q-17 38 -47.5 45.5t-64.5 -2.5t-61 -28zM758 -30q-216 0 -372.5 94t-241 263t-84.5 393t84.5 393t241 263t372.5 94t372.5 -94t241 -263t84.5 -393t-84.5 -393t-241 -263t-372.5 -94zM758 226q137 -2 228 59t136.5 173t45.5 262t-45.5 260t-136.5 171t-228 63
t-228 -59t-136.5 -173t-45.5 -262t45.5 -260t136.5 -171t228 -63z" />
    <glyph glyph-name="uni1EDF" unicode="&#x1edf;" horiz-adv-x="1254" 
d="M498 1534l-67 133q62 53 143.5 66.5t153.5 -20t105 -122.5q27 -73 15.5 -132t-49 -102.5t-88.5 -68t-102 -28.5l-42 109q54 14 92.5 52.5t11.5 97.5q-17 38 -47.5 45.5t-64.5 -2.5t-61 -28zM967 1259l202 1q15 -118 -12.5 -192.5t-96.5 -106.5q-67 -31 -151 -23t-140 41
v115q44 -10 75.5 -14t58.5 8q50 23 57 71t7 100zM626 -30q-163 0 -286 73t-191.5 201.5t-68.5 295.5q0 169 70 297.5t193 200.5t283 72q163 0 286.5 -73t192.5 -201.5t69 -295.5q0 -168 -69.5 -296.5t-193 -201t-285.5 -72.5zM626 224q131 0 195.5 88.5t64.5 227.5
q0 144 -65.5 230t-194.5 86q-89 0 -146 -40t-84.5 -111t-27.5 -165q0 -145 65.5 -230.5t192.5 -85.5z" />
    <glyph glyph-name="uni1EE0" unicode="&#x1ee0;" horiz-adv-x="1516" 
d="M1135 1616l202 1q15 -118 -12.5 -192.5t-96.5 -106.5q-67 -31 -151 -23t-140 41v115q44 -10 75.5 -14t58.5 8q50 23 57 71t7 100zM758 -30q-216 0 -372.5 94t-241 263t-84.5 393t84.5 393t241 263t372.5 94t372.5 -94t241 -263t84.5 -393t-84.5 -393t-241 -263
t-372.5 -94zM758 226q137 -2 228 59t136.5 173t45.5 262t-45.5 260t-136.5 171t-228 63t-228 -59t-136.5 -173t-45.5 -262t45.5 -260t136.5 -171t228 -63zM928 1596q-49 0 -93.5 22.5t-85 51.5t-75.5 51.5t-64 22.5q-30 0 -41.5 -33.5t1.5 -84.5h-168q-31 131 12.5 221.5
t169.5 90.5q49 0 93.5 -22.5t85 -51.5t75.5 -51.5t64 -22.5q30 0 42 33.5t-2 84.5h168q32 -130 -12 -221t-170 -91z" />
    <glyph glyph-name="uni1EE1" unicode="&#x1ee1;" horiz-adv-x="1254" 
d="M820 1236q-49 0 -93.5 22.5t-85 51.5t-75.5 51.5t-64 22.5q-30 0 -41.5 -33.5t1.5 -84.5h-168q-31 131 12.5 221.5t169.5 90.5q49 0 93.5 -22.5t85 -51.5t75.5 -51.5t64 -22.5q30 0 42 33.5t-2 84.5h168q32 -130 -12 -221t-170 -91zM967 1259l202 1q15 -118 -12.5 -192.5
t-96.5 -106.5q-67 -31 -151 -23t-140 41v115q44 -10 75.5 -14t58.5 8q50 23 57 71t7 100zM626 -30q-163 0 -286 73t-191.5 201.5t-68.5 295.5q0 169 70 297.5t193 200.5t283 72q163 0 286.5 -73t192.5 -201.5t69 -295.5q0 -168 -69.5 -296.5t-193 -201t-285.5 -72.5z
M626 224q131 0 195.5 88.5t64.5 227.5q0 144 -65.5 230t-194.5 86q-89 0 -146 -40t-84.5 -111t-27.5 -165q0 -145 65.5 -230.5t192.5 -85.5z" />
    <glyph glyph-name="uni1EE2" unicode="&#x1ee2;" horiz-adv-x="1516" 
d="M646 -390v240h272v-240h-272zM1135 1616l202 1q15 -118 -12.5 -192.5t-96.5 -106.5q-67 -31 -151 -23t-140 41v115q44 -10 75.5 -14t58.5 8q50 23 57 71t7 100zM758 -30q-216 0 -372.5 94t-241 263t-84.5 393t84.5 393t241 263t372.5 94t372.5 -94t241 -263t84.5 -393
t-84.5 -393t-241 -263t-372.5 -94zM758 226q137 -2 228 59t136.5 173t45.5 262t-45.5 260t-136.5 171t-228 63t-228 -59t-136.5 -173t-45.5 -262t45.5 -260t136.5 -171t228 -63z" />
    <glyph glyph-name="uni1EE3" unicode="&#x1ee3;" horiz-adv-x="1254" 
d="M513 -390v240h272v-240h-272zM967 1259l202 1q15 -118 -12.5 -192.5t-96.5 -106.5q-67 -31 -151 -23t-140 41v115q44 -10 75.5 -14t58.5 8q50 23 57 71t7 100zM626 -30q-163 0 -286 73t-191.5 201.5t-68.5 295.5q0 169 70 297.5t193 200.5t283 72q163 0 286.5 -73
t192.5 -201.5t69 -295.5q0 -168 -69.5 -296.5t-193 -201t-285.5 -72.5zM626 224q131 0 195.5 88.5t64.5 227.5q0 144 -65.5 230t-194.5 86q-89 0 -146 -40t-84.5 -111t-27.5 -165q0 -145 65.5 -230.5t192.5 -85.5z" />
    <glyph glyph-name="uni1EE4" unicode="&#x1ee4;" horiz-adv-x="1452" 
d="M630 -390v240h272v-240h-272zM726 -30q-174 0 -306 70.5t-206 198.5t-74 301v898l276 2v-898q0 -71 24 -129t66.5 -100t99 -64.5t120.5 -22.5q66 0 122.5 23t98.5 65t65.5 100t23.5 128v898h276v-900q0 -173 -74 -301t-206 -198.5t-306 -70.5z" />
    <glyph glyph-name="uni1EE5" unicode="&#x1ee5;" 
d="M503 -390v240h272v-240h-272zM542 -32q-127 0 -207 43t-124.5 109t-63.5 137.5t-23 130.5t-4 86v606h276v-510q0 -37 4 -94.5t25 -115.5t68.5 -97t134.5 -39q35 0 75 11t75 42.5t57.5 93t22.5 161.5l156 -74q0 -128 -52 -240t-156.5 -181t-263.5 -69zM892 0v358h-34v722
h274v-1080h-240z" />
    <glyph glyph-name="uni1EE6" unicode="&#x1ee6;" horiz-adv-x="1452" 
d="M613 1886l-67 133q62 53 143.5 66.5t153.5 -20t105 -122.5q27 -73 15.5 -132t-49 -102.5t-88.5 -68t-102 -28.5l-42 109q54 14 92.5 52.5t11.5 97.5q-17 38 -47.5 45.5t-64.5 -2.5t-61 -28zM726 -30q-174 0 -306 70.5t-206 198.5t-74 301v898l276 2v-898q0 -71 24 -129
t66.5 -100t99 -64.5t120.5 -22.5q66 0 122.5 23t98.5 65t65.5 100t23.5 128v898h276v-900q0 -173 -74 -301t-206 -198.5t-306 -70.5z" />
    <glyph glyph-name="uni1EE7" unicode="&#x1ee7;" 
d="M498 1534l-67 133q62 53 143.5 66.5t153.5 -20t105 -122.5q27 -73 15.5 -132t-49 -102.5t-88.5 -68t-102 -28.5l-42 109q54 14 92.5 52.5t11.5 97.5q-17 38 -47.5 45.5t-64.5 -2.5t-61 -28zM542 -32q-127 0 -207 43t-124.5 109t-63.5 137.5t-23 130.5t-4 86v606h276v-510
q0 -37 4 -94.5t25 -115.5t68.5 -97t134.5 -39q35 0 75 11t75 42.5t57.5 93t22.5 161.5l156 -74q0 -128 -52 -240t-156.5 -181t-263.5 -69zM892 0v358h-34v722h274v-1080h-240z" />
    <glyph glyph-name="uni1EE8" unicode="&#x1ee8;" horiz-adv-x="1452" 
d="M1368 1619l202 1q15 -118 -14.5 -188.5t-93.5 -105.5q-65 -36 -146.5 -36.5t-145.5 6.5v144q22 0 41.5 0.5t38.5 3.5q79 13 98.5 64.5t19.5 110.5zM825 1590h-202l166 390h202zM726 -30q-174 0 -306 70.5t-206 198.5t-74 301v898l276 2v-898q0 -71 24 -129t66.5 -100
t99 -64.5t120.5 -22.5q66 0 122.5 23t98.5 65t65.5 100t23.5 128v898h276v-900q0 -173 -74 -301t-206 -198.5t-306 -70.5z" />
    <glyph glyph-name="uni1EE9" unicode="&#x1ee9;" 
d="M1128 1259l202 1q15 -118 -14.5 -188.5t-93.5 -105.5q-65 -36 -146.5 -36.5t-145.5 6.5v144q22 0 41.5 0.5t38.5 3.5q79 13 98.5 64.5t19.5 110.5zM715 1230h-202l166 390h202zM542 -32q-127 0 -207 43t-124.5 109t-63.5 137.5t-23 130.5t-4 86v606h276v-510
q0 -37 4 -94.5t25 -115.5t68.5 -97t134.5 -39q35 0 75 11t75 42.5t57.5 93t22.5 161.5l156 -74q0 -128 -52 -240t-156.5 -181t-263.5 -69zM892 0v358h-34v722h274v-1080h-240z" />
    <glyph glyph-name="uni1EEA" unicode="&#x1eea;" horiz-adv-x="1452" 
d="M1368 1619l202 1q15 -118 -14.5 -188.5t-93.5 -105.5q-65 -36 -146.5 -36.5t-145.5 6.5v144q22 0 41.5 0.5t38.5 3.5q79 13 98.5 64.5t19.5 110.5zM642 1590l-166 390h202l166 -390h-202zM726 -30q-174 0 -306 70.5t-206 198.5t-74 301v898l276 2v-898q0 -71 24 -129
t66.5 -100t99 -64.5t120.5 -22.5q66 0 122.5 23t98.5 65t65.5 100t23.5 128v898h276v-900q0 -173 -74 -301t-206 -198.5t-306 -70.5z" />
    <glyph glyph-name="uni1EEB" unicode="&#x1eeb;" 
d="M1128 1257l202 1q15 -118 -14.5 -188.5t-93.5 -105.5q-65 -36 -146.5 -36.5t-145.5 6.5v144q22 0 41.5 0.5t38.5 3.5q79 13 98.5 64.5t19.5 110.5zM522 1230l-166 390h202l166 -390h-202zM542 -32q-127 0 -207 43t-124.5 109t-63.5 137.5t-23 130.5t-4 86v606h276v-510
q0 -37 4 -94.5t25 -115.5t68.5 -97t134.5 -39q35 0 75 11t75 42.5t57.5 93t22.5 161.5l156 -74q0 -128 -52 -240t-156.5 -181t-263.5 -69zM892 0v358h-34v722h274v-1080h-240z" />
    <glyph glyph-name="uni1EEC" unicode="&#x1eec;" horiz-adv-x="1452" 
d="M1368 1619l202 1q15 -118 -14.5 -188.5t-93.5 -105.5q-65 -36 -146.5 -36.5t-145.5 6.5v144q22 0 41.5 0.5t38.5 3.5q79 13 98.5 64.5t19.5 110.5zM613 1886l-67 133q62 53 143.5 66.5t153.5 -20t105 -122.5q27 -73 15.5 -132t-49 -102.5t-88.5 -68t-102 -28.5l-42 109
q54 14 92.5 52.5t11.5 97.5q-17 38 -47.5 45.5t-64.5 -2.5t-61 -28zM726 -30q-174 0 -306 70.5t-206 198.5t-74 301v898l276 2v-898q0 -71 24 -129t66.5 -100t99 -64.5t120.5 -22.5q66 0 122.5 23t98.5 65t65.5 100t23.5 128v898h276v-900q0 -173 -74 -301t-206 -198.5
t-306 -70.5z" />
    </font>
</defs>
</svg>
